#TITLE:お江戸花吹雪;
#SUBTITLE:TEYAN-day MIX;
#ARTIST:高田香里 ReMIXed by SEIYA;
#TITLETRANSLIT:Oedo Hanafubuki;
#SUBTITLETRANSLIT:;
#ARTISTTRANSLIT:Kaori Takeda ReMIXed by SEIYA;
#GENRE:;
#CREDIT:;
#BANNER:Oedo Hanafubuki TEYAN-day MIX.png;
#BACKGROUND:Oedo Hanafubuki TEYAN-day MIX-bg.png;
#LYRICSPATH:;
#CDTITLE:;
#MUSIC:Oedo Hanafubuki TEYAN-day MIX.mp3;
#OFFSET:-2.860000;
#SAMPLESTART:57.760006;
#SAMPLELENGTH:12.000000;
#SELECTABLE:YES;
#BPMS:0.000000=140.000000
;
#STOPS:
;
#BGCHANGES:;
#KEYSOUNDS:;
#ATTACKS:;

//---------------dance-single - ----------------
#NOTES:
     dance-single:
     :
     Beginner:
     2:
     0.140723,0.188716,0.041476,0.062214,0.000000,95.000000,91.000000,4.000000,6.000000,0.000000,0.000000,0.140723,0.188716,0.041476,0.062214,0.000000,95.000000,91.000000,4.000000,6.000000,0.000000,0.000000:
// measure 0
0000
0000
0000
0000
,  // measure 1
0000
0000
0000
0000
,  // measure 2
0000
0000
0000
0000
,  // measure 3
0000
0000
0000
0000
,  // measure 4
0010
0000
0010
0000
,  // measure 5
0010
0000
0010
0000
,  // measure 6
1000
0000
1000
0000
,  // measure 7
1000
0000
1000
0000
,  // measure 8
0001
0000
0001
0000
,  // measure 9
0001
0000
0001
0000
,  // measure 10
0100
0000
0100
0000
,  // measure 11
0100
0000
0100
0000
,  // measure 12
0000
0010
0000
0010
,  // measure 13
0000
1000
0000
0100
,  // measure 14
0000
0001
0000
0001
,  // measure 15
0000
1000
0000
0010
,  // measure 16
0000
0100
0000
0100
,  // measure 17
0000
1000
0000
0001
,  // measure 18
0000
1000
0000
1000
,  // measure 19
0000
0001
0000
0010
,  // measure 20
0000
0100
0100
0010
,  // measure 21
0000
0010
0100
0100
,  // measure 22
0000
1000
0000
0010
,  // measure 23
0000
0100
0000
0010
,  // measure 24
0010
0000
0000
0000
,  // measure 25
1000
0000
0001
0000
,  // measure 26
0010
0000
0000
0000
,  // measure 27
0100
0000
0001
0000
,  // measure 28
1000
0000
0000
0000
,  // measure 29
1000
0000
0100
0000
,  // measure 30
0010
0000
0000
0000
,  // measure 31
1000
0000
0010
0000
,  // measure 32
0001
0001
0001
0000
,  // measure 33
1000
1000
1000
0000
,  // measure 34
0100
0100
0100
0000
,  // measure 35
0010
0010
0010
0000
,  // measure 36
2000
0000
0000
0000
,  // measure 37
3001
0000
0001
0000
,  // measure 38
0002
0000
0000
0000
,  // measure 39
1003
0000
1000
0000
,  // measure 40
0220
0000
0330
0000
,  // measure 41
2002
0000
3003
0000
,  // measure 42
1000
0000
0001
0000
,  // measure 43
1000
0000
0001
0000
,  // measure 44
0110
0000
0000
0000
,  // measure 45
0100
0000
0010
0000
,  // measure 46
1000
0000
0000
0000
,  // measure 47
0001
0000
0100
0000
,  // measure 48
0010
0000
0000
0000
,  // measure 49
0100
0000
0010
0000
,  // measure 50
0100
0000
0000
0000
,  // measure 51
0001
0000
1000
0000
,  // measure 52
0011
0000
0000
0000
;

//---------------dance-single - ----------------
#NOTES:
     dance-single:
     :
     Easy:
     5:
     0.321440,0.482938,0.394023,0.051845,0.000000,217.000000,179.000000,38.000000,5.000000,0.000000,0.000000,0.321440,0.482938,0.394023,0.051845,0.000000,217.000000,179.000000,38.000000,5.000000,0.000000,0.000000:
0000
0000
0000
0000
,
0000
0000
0000
0000
,
0000
0000
0000
0000
,
0000
0000
0000
0000
,
1000
0001
1000
0010
,
1000
0001
1000
0010
,
0100
0010
0100
0001
,
0100
0010
0100
0001
,
1001
0001
1000
0001
,
0110
0100
0010
0100
,
1010
1000
0010
1000
,
0011
0001
0010
0001
,
0000
0010
0000
0100
0000
0010
0000
0100
,
0000
0010
0000
1000
0000
0010
0000
1000
,
0000
0001
0000
0100
0000
0001
0000
0010
,
0000
1000
0000
0110
0000
1000
0000
1001
,
0000
1000
0000
0010
0000
0100
0000
0010
,
0000
1000
0000
0010
0000
1000
0000
0001
,
0000
0100
0000
0010
0000
0100
0000
0001
,
0000
1001
0000
0010
0000
0100
0000
0110
,
0000
0110
0000
0110
0000
0110
0000
0110
,
0000
1001
0000
1001
0000
1001
0000
1001
,
0000
0110
0000
0110
0000
0110
0000
0110
,
0000
1001
0000
1001
0000
1001
0000
1000
,
0010
1000
0000
0001
,
1001
1000
0000
1000
,
0010
0010
0000
0100
,
0100
0110
0000
1000
,
0010
1000
0010
0000
0100
0000
0010
0000
,
0001
0010
1000
0010
,
1000
0001
1000
0000
0010
0000
0100
0000
,
0001
1000
0010
0100
,
0000
1000
0000
0100
0000
0010
0000
0001
,
0000
0001
0000
0010
0000
0100
0000
1000
,
0000
1000
0000
0010
0000
1000
0000
0010
,
0000
0100
0000
0010
0000
0100
0000
0010
,
2000
0000
0000
0000
,
3001
0000
0001
0000
,
0002
0000
0000
1003
,
1001
0000
2000
0000
,
3002
1000
0000
1000
,
2003
0001
0000
0001
,
3001
1000
0001
0100
,
0110
1001
0110
1001
,
1000
0010
1000
1010
,
0100
0001
0100
0110
,
0010
0100
0010
1010
,
0100
0001
0100
0110
,
1000
0010
1000
1100
,
1000
0001
0100
0110
,
0100
0010
0100
1010
,
0100
0001
0100
0101
;

//---------------dance-single - ----------------
#NOTES:
     dance-single:
     :
     Medium:
     7:
     0.444387,0.485271,0.549559,0.093321,0.000000,300.000000,247.000000,53.000000,9.000000,0.000000,0.000000,0.444387,0.485271,0.549559,0.093321,0.000000,300.000000,247.000000,53.000000,9.000000,0.000000,0.000000:
0000
0000
0000
0000
,
0000
0000
0000
0000
,
0000
0000
0000
0000
,
0000
0000
0000
0000
,
1000
0010
1000
0000
0001
0010
0001
0000
,
1000
0010
0100
0000
0001
0100
0001
0100
,
0001
0010
0001
0000
1000
0010
0100
0000
,
0010
0100
0010
0000
1000
0010
0100
0010
,
0001
0100
0001
0000
0001
0010
0001
0000
,
1000
0010
0100
0000
1000
0100
1000
0100
,
0010
0100
0010
0000
1000
0010
1000
0000
,
0001
0100
0010
0000
0100
0010
0100
0010
,
0100
0001
0000
1001
0000
1000
0010
0100
,
0000
0101
0000
0110
0000
0100
0010
0100
,
0000
1010
0000
1100
0000
1000
0010
1000
,
0000
0101
0000
0110
0000
0100
0010
0100
,
0000
1001
0000
0110
0000
1000
0010
0100
,
0000
0101
0000
1010
0000
0100
0010
0100
,
0000
0110
0000
0101
0000
0010
0100
0010
,
0000
1010
0000
1001
0000
0100
0001
0010
,
0100
0000
0100
0000
0100
0000
0100
0010
,
0100
0000
0100
0000
0100
0000
0100
1000
,
0001
0000
0001
0000
0001
0000
0001
1000
,
0001
0000
0001
0000
0001
0000
0001
0010
,
0001
1000
0001
1000
0000
0100
0000
0010
,
0100
0010
0100
0010
0000
1000
0000
0001
,
0100
0001
0100
0001
0000
0010
0000
1000
,
0010
0100
0010
0100
0000
0010
0000
1000
,
0100
1000
0100
1000
0000
0001
0000
0100
,
0010
0100
0010
0100
0000
0010
0000
1000
,
0010
0100
0010
0001
0000
1000
0000
0010
,
1000
0010
0100
0010
0000
1000
0000
1000
,
0000
0002
0000
1003
1000
0000
1001
0000
,
0100
0000
0010
0000
1000
0010
1000
0000
,
0000
0200
0000
0301
0001
0000
0010
0000
,
1000
0010
1000
0020
0000
0230
0000
0301
,
0100
0012
0100
0013
,
2100
3010
0120
1030
,
1000
1000
0100
0010
,
1001
0000
0100
0000
1000
0010
1000
0010
,
2000
0100
0100
0100
,
3100
0001
0100
0001
,
0002
0010
0010
0010
,
0013
0100
0010
0100
,
0000
1010
0000
0110
0000
0101
0000
0110
,
0000
1001
0000
0110
0000
1010
0000
0110
,
0000
1001
0000
0110
0000
1010
0000
0110
,
0000
1001
0000
0110
0000
0101
0000
0110
,
0000
1001
0000
1010
0000
1100
0000
1001
,
0000
1001
0000
0110
0000
1010
0000
0101
,
0000
1010
0000
0110
0000
1010
0000
0101
,
0000
0110
0000
1010
0000
1001
0000
0101
,
0101
0000
0000
0000
;

//---------------dance-single - ----------------
#NOTES:
     dance-single:
     :
     Hard:
     10:
     0.499195,0.484688,0.093321,0.134797,0.098506,337.000000,328.000000,9.000000,13.000000,0.000000,0.000000,0.499195,0.484688,0.093321,0.134797,0.098506,337.000000,328.000000,9.000000,13.000000,0.000000,0.000000:
0000
0000
0000
0000
,
0000
0000
0000
0000
,
0000
0000
0000
0000
,
0000
0000
0000
0000
,
1000
0010
0100
0010
0001
0100
0010
0000
,
1000
0010
0100
0010
0001
0100
0001
0000
,
1000
0010
0001
0100
1000
0010
0100
0000
,
0001
0010
0001
0010
1000
0010
0100
0000
,
0100
0001
0100
0001
1000
0010
1000
0000
,
0100
0010
0100
0010
1000
0001
0001
0000
,
0100
0010
0100
0010
0001
0100
0001
0000
,
1000
0010
1000
0001
0100
0001
0100
0000
,
0000
0001
0001
0010
0010
1000
1000
0100
,
0100
0001
0100
0001
0100
0001
0100
0001
,
0000
0010
0010
1000
1000
0100
0100
0001
,
0001
1000
0001
1000
0010
0100
0010
0100
,
0000
0001
0001
0010
0010
0100
0100
1000
,
1000
0010
1000
0010
0100
0001
0100
0001
,
0000
0100
0100
1000
1000
0001
0001
0010
,
0010
0100
0010
0100
0001
0100
1000
0010
,
0010
0000
0010
1000
0010
1000
0010
0100
,
0010
0000
0001
0010
0001
0010
0001
0010
,
1000
1001
1000
1010
,
0001
0101
0001
0011
,
1000
0000
0010
0000
1000
0000
0010
0000
0000
0000
0100
0000
0000
0001
0100
0000
,
0010
0000
0100
0000
0010
0000
0100
0000
0000
0000
1000
0000
0000
0010
1000
0000
,
0010
0000
0001
0000
0010
0000
0001
0000
0000
0000
1000
0000
0000
0010
1000
0000
,
0100
0000
1000
0000
0100
0000
1000
0000
0000
0000
0010
0000
0000
0100
0001
0000
,
0010
0000
0100
0000
0010
0000
0100
0000
0000
0000
1000
0000
0000
0001
1000
0000
,
0010
0000
0100
0000
0010
0000
0100
0000
0000
0000
0010
0000
0000
0100
0001
0000
,
1000
0000
0001
0000
1000
0000
0001
0000
0000
0000
0100
0000
0000
0010
0100
0000
,
1000
0010
1000
0001
1000
0010
1000
0001
,
1000
0002
0000
1003
0001
1000
0010
1000
,
0010
0100
0010
0100
0001
0100
0101
0000
,
1010
0010
1000
0010
0100
0010
0100
0001
,
0001
0010
0100
2000
0000
3002
0000
1003
,
0010
0100
2000
0000
0100
0010
0100
0000
,
3002
0013
2000
0100
,
3100
0001
0200
0000
2300
0000
3200
0000
,
0302
0000
0000
0000
1003
0000
0000
0000
0010
0000
0100
0000
1000
0010
1000
0010
,
2000
0000
0100
0010
0100
0000
3100
0000
,
0101
0000
0100
0010
0110
0000
1010
0000
,
2000
3100
0200
0301
,
0001
0000
1000
0000
0010
0000
0100
0000
0001
0000
1000
0000
0010
0100
0010
0000
,
1000
0000
0010
0000
1000
0000
0010
0000
0000
0000
0100
0000
0000
0001
0100
0000
,
0010
0000
0100
0000
0010
0000
1000
0000
0000
0000
0010
0000
0000
0100
0001
0000
,
0010
0000
1000
0000
0010
0000
1000
0000
0000
0000
0001
0000
0000
0100
0010
0000
,
1000
0000
0001
0000
1000
0000
0001
0000
0000
0000
0100
0000
0000
0010
1000
0000
,
0001
0000
1000
0000
0001
0000
1000
0000
0000
0000
0010
0000
0000
0100
0010
0000
,
0100
0000
0010
0000
0100
0000
0010
0000
0000
0000
1000
0000
0000
1000
0010
0000
,
0100
0000
0001
0000
0100
0000
0001
0000
0000
0000
0001
0000
0000
0010
0001
0000
,
0001
0000
1000
0000
0010
0000
1000
0000
0010
0000
1000
0000
0010
0100
0010
0100
;

//---------------dance-single - ----------------
#NOTES:
     dance-single:
     :
     Challenge:
     13:
     0.586591,0.564788,0.165905,0.176274,0.243672,396.000000,380.000000,16.000000,17.000000,0.000000,0.000000,0.586591,0.564788,0.165905,0.176274,0.243672,396.000000,380.000000,16.000000,17.000000,0.000000,0.000000:
0000
0000
0000
0000
,
0000
0000
0000
0000
,
0000
0000
0000
0000
,
0000
0000
0000
0000
,
1000
0000
0010
0000
0100
0001
0100
0000
0010
0000
1000
0000
0010
0100
0010
0000
,
1000
0000
0100
0000
1000
0010
1000
0000
0001
0000
0100
0000
0010
0100
0010
0000
,
1000
0000
0010
0000
0100
0010
0100
0000
0001
0000
1000
0000
0010
0100
0010
0000
,
1000
0000
0001
0000
0100
0001
0100
0000
0010
0000
1000
0000
0010
0100
0010
0000
,
0001
0000
0100
0000
0010
1000
0010
0000
0100
0000
1000
0000
0010
0001
0010
0000
,
1000
0000
0100
0000
1000
0100
1000
0000
0001
0000
0010
0000
0001
1000
0001
0000
,
0010
0000
0100
0000
0010
1000
0010
0000
1000
0000
0001
0000
0010
0001
0010
0000
,
1000
0000
0100
0000
0010
0001
0010
0000
0001
0000
0010
0000
0100
1000
0100
0000
,
0000
0000
0010
0000
1000
0000
0010
0000
1000
0000
0010
0000
1000
0000
0010
1000
,
0010
0100
0010
0100
0010
0100
0010
0100
,
0001
0100
0001
0100
0001
0100
0001
0100
,
0001
1000
0001
1000
0001
1000
0001
1000
,
0010
0000
1000
0010
0100
0000
0100
0000
0001
0000
0010
0100
0001
0000
0001
0000
,
0010
0000
0100
0010
0100
0000
1000
0000
0001
0000
0100
0001
0100
0000
0010
0000
,
1000
0010
1000
0010
1000
0001
1000
0001
,
0001
0001
0100
0010
0100
0010
0100
0010
,
1000
1000
1001
0001
0001
0100
0010
0100
,
0010
0010
0110
0100
0100
0001
0100
0001
,
2000
0000
3001
0001
0002
0000
1003
1000
,
0100
0000
0001
0000
0100
0000
0001
0000
0010
0000
1000
0000
0010
1000
0010
1000
,
0010
0000
0100
0000
0010
0000
0100
0000
0000
0000
1000
0000
0000
1000
0001
0000
,
0100
0000
0010
0000
0100
0000
0001
0000
0000
0000
1000
0000
0000
0010
0100
0000
,
0001
0000
0100
0000
0001
0000
0010
0000
0000
0000
1000
0000
0000
0010
1000
0000
,
0001
0000
0100
0000
0010
0000
0001
0000
0000
0000
1000
0100
1000
0200
0000
0300
,
0010
0000
1000
0000
0010
0000
1000
0000
0000
0000
0001
0000
0000
0100
0010
0000
,
1000
0000
0010
0000
0100
0000
0001
0000
0000
0000
0001
0000
0000
1000
0010
0000
,
0100
0000
1000
0000
0001
0000
0100
0000
0010
0000
1000
0000
0000
0010
0100
0000
,
0001
0000
1000
0000
0001
0000
0100
0000
0000
0000
0010
0001
0010
0002
0000
0000
,
1003
2000
0000
3001
1000
0001
1000
0001
,
0100
0010
0100
0010
1000
0010
0200
0000
,
0301
1000
0001
0100
0010
0100
0010
0100
,
1000
0100
0010
0002
0000
2003
0000
3001
,
1001
0000
2100
0010
0100
0000
3100
0000
,
0012
0010
0103
0000
0120
0000
0130
0000
,
1000
0100
0110
0000
1001
0000
1010
0000
,
1100
0000
0000
0000
0001
0000
0100
0000
0010
0000
0100
0000
1000
0010
1000
0010
,
2000
0000
3001
1000
0001
0100
0010
0100
,
0020
2030
3200
0302
,
1003
0001
1000
0010
1000
0010
0100
0010
,
0001
0000
1000
0000
0010
0000
0100
0000
0001
0000
0100
0000
0010
0100
0010
0100
,
0010
0000
1000
0000
0010
0000
0100
0000
0000
0000
0101
0000
0000
1000
0010
0000
,
0100
0000
0001
0000
0010
0000
0100
0000
0000
0000
0110
0000
0000
1000
0100
0000
,
0001
0000
1000
0000
0010
0000
0100
0000
0000
0000
1010
0000
0000
0001
0100
0000
,
0010
0000
1000
0000
0010
0000
0100
0000
0000
0000
0001
1000
0001
2000
0000
0000
,
3100
0000
0010
0000
0100
0000
0010
0000
0000
0000
1001
0000
0000
1000
0010
0000
,
0100
0000
0001
0000
0100
0000
0001
0000
0000
0000
0101
0000
0000
0010
1000
0000
,
0010
0000
1000
0000
0100
0000
1000
0000
0000
0000
0101
0000
0000
0010
1000
0000
,
0100
0000
0001
0000
0100
0000
0001
0000
0100
0000
0010
0100
0010
0100
0010
0000
;

//---------------pnm-nine - ----------------
#NOTES:
     pnm-nine:
     :
     Hard:
     12:
     0.950988,1.132298,1.555355,0.290333,0.451053,642.000000,465.000000,150.000000,28.000000,0.000000,61.000000,0.950988,1.132298,1.555355,0.290333,0.451053,642.000000,465.000000,150.000000,28.000000,0.000000,61.000000:
100000000
001010000
100000000
001010000
100000000
001010000
100000000
001010000
,
010000000
000101000
010000000
000101000
010000000
000101000
010000000
000101000
,
101000000
000000101
101000000
000000101
010100000
000001010
010100000
000001010
,
110000000
000000011
110000000
000000011
001100000
000001100
001100000
000001100
,
001010000
000000000
000010000
000000000
000010000
001000000
000010000
000000100
001000001
000000000
000000001
000000000
000000100
000001000
000000100
000001000
,
100010000
000000000
000100000
000000000
010000000
000100000
010000000
001000000
000100000
000000000
000010000
000000000
000001000
000100000
000001000
000100000
,
000001010
000000000
000100000
000000000
000010000
010000000
000010000
010000000
000110000
000000000
000001000
000000000
000000001
000001000
000000001
000001000
,
101000000
000000000
001000000
000000000
001000000
000010000
001000000
000010000
000000101
000000000
000000010
000000000
000000100
000001000
000000100
000001000
,
101000000
000000000
000100000
000000000
100000000
001000000
100000000
001000000
000010100
000000000
001000000
000000000
000010000
000100000
000010000
000100000
,
000010100
000000000
010000000
000000000
000100000
010000000
000100000
010000000
001010000
000000000
000010000
000000000
100000000
001000000
000010000
000000100
,
000010001
000000000
000010000
000000000
010000000
000100000
010000000
000100000
000001010
000000000
000010000
000000000
010000000
001000000
010000000
001000000
,
000010010
000000000
000000010
000000000
100000000
001000000
100000000
001000000
000010100
000000000
000000001
000000000
000000100
000010000
000000100
000010000
,
000000100
000000000
001000000
000000000
000000100
000000000
001000000
000000000
000000100
000000000
001000000
000000000
000000100
000000000
001000000
000010000
,
000000100
001000000
000000100
001000000
000000100
001000000
000000100
001000000
,
100000000
001000000
100000000
001000000
100000000
001000000
100000000
001000000
,
000010000
000000100
000010000
000000100
000010000
000000100
000010000
000000100
,
000000001
000000000
000010000
001000000
100000000
000000000
100000000
000000000
100000000
000000000
001000000
000100000
000010000
000000000
000010000
000000000
,
000000010
000000000
000000010
000001000
000100000
000000000
010000000
000000000
100000000
000000000
001000000
000100000
000010000
000000000
000010000
000000000
,
000000010
000001000
000000010
000001000
000000010
000001000
000000010
000001000
,
000100000
010000000
000100000
010000000
000100000
010000000
000100000
010000000
,
100000000
000100000
100000000
000100000
000000000
000000001
000001000
000000000
000010000
001000000
000010000
001000000
000000000
010000000
000010000
000000000
,
100000000
001000000
000010000
000000100
100000000
001000000
000010000
000000100
000000001
000000100
000010000
001000000
000000001
000000100
000010000
001000000
,
200000000
000000000
000000000
000000000
001000000
000010000
001000000
000010000
302000000
000000000
000000000
000000000
000010000
000000100
000010000
000000100
,
003020000
000000000
000000000
000000000
000000100
000000001
000000100
000000001
000030200
000000000
000000000
000000000
000010000
001000000
000010000
001000000
,
000010300
000000000
010001000
000000000
001000000
000000000
000101000
000000000
000000000
000000000
000110100
000000000
000000000
000100000
101000000
000000000
,
010000000
000000000
000100000
000000000
000010000
000000000
000000100
000000000
000000000
000000000
010001000
000000000
000000000
000000001
000001010
000000000
,
000010000
000000000
001000000
000000000
000010000
000000000
101000000
000000000
000000000
000000000
000110010
000000000
000000000
000001000
001100000
000000000
,
000000101
000000000
100000000
000000000
001000000
000000000
010000000
000000000
000000000
000000001
000000010
000000001
000000220
000000000
000000000
000000000
,
000100330
000000000
100000000
000000000
010000000
000000000
010100000
000000000
000000000
000000000
001100000
000000000
000000000
000000010
000011000
000000000
,
011000000
000000000
000010000
000000000
000001000
000000000
000000001
000000000
000000000
000000000
000101000
000000000
000000000
100000000
010100000
000000000
,
000110000
000000000
000001000
000000000
000010000
000000000
001000010
000000000
000000000
000000000
010010000
000000000
000000000
100000000
001010000
000000000
,
000000010
000000000
000001000
000000000
001000000
000000000
000010000
000000000
000000000
000000001
000000100
000000001
000000220
000000000
000000000
000000000
,
000010330
200100000
001000000
000100000
300010000
000100000
000010000
000100000
,
000101000
001010000
000101000
000010100
000101000
100010000
022000000
000000000
,
033001000
000100010
000100010
000100010
000100010
010000100
010000100
010000100
,
101010000
000000000
010101000
000000000
101010000
000000000
010101000
000000000
000000000
000000000
000002020
000000000
010000000
001000000
010000000
001000000
,
010003030
001000000
200200000
000010000
000001000
000000100
000001000
000010000
,
300300002
000001000
000010000
000001000
001200003
001000000
120300000
100000000
,
030101000
000011000
000000100
000010000
001000000
000100000
010000000
000100000
,
010100000
000000000
001010000
000000000
000101000
000000000
000010100
000000000
000000001
000001000
000000001
000001000
000100000
100000000
000100000
100000000
,
020210000
000001000
000000100
000000010
000000001
000000010
030300100
000001000
,
002020000
100000000
013030000
100100000
002002000
000000100
003003010
010000001
,
010020200
001000000
010000000
100000000
010000000
001000000
010030300
101000000
,
101010000
000000000
010101000
000000000
010110000
000000000
010101000
000000000
000101010
000000000
000101010
000000000
000000001
000000100
000010000
001000000
,
100010000
000000000
101010000
000000000
101100000
000000000
101010000
000000000
000000000
000000000
000011001
000000000
000000000
000000001
000010100
000000000
,
101010000
000000000
001010000
000000000
000100100
000000000
010100000
000000000
000000000
000000000
001001000
000000000
000000000
100000000
001010100
000000000
,
000000010
000000000
010010000
000000000
000100100
000000000
001010000
000000000
000000000
000000000
000101100
000000000
000000000
100000000
000100010
000000000
,
000001000
000000000
010100000
000000000
001100000
000000000
000101000
000000000
000000000
000000001
000000010
000000100
002002000
000000000
000000000
000000000
,
103003000
000000000
010100000
000000000
001010000
000000000
000101000
000000000
000000000
000000000
010110000
000000000
000000000
000000100
010010000
000000000
,
000010100
000000000
000110000
000000000
000010100
000000000
001010000
000000000
000000000
000000000
010100000
000000000
000000000
010000000
000101000
000000000
,
000001010
000000000
000010100
000000000
000110000
000000000
000100100
000000000
000000000
000000000
010101000
000000000
000000000
010000000
000101000
000000000
,
010000000
000000000
000101000
000000000
000101010
000000000
000101010
000000000
000000000
000000000
001101000
000000000
101000000
010100000
001010000
000101000
,
000010101
000000000
000000000
000000000
;

//---------------pnm-five - ----------------
#NOTES:
     pnm-five:
     :
     Hard:
     12:
     0.853223,0.916623,1.047272,0.217750,0.440684,576.000000,465.000000,101.000000,21.000000,0.000000,25.000000,0.853223,0.916623,1.047272,0.217750,0.440684,576.000000,465.000000,101.000000,21.000000,0.000000,25.000000:
10000
00001
10000
00001
10000
00001
10000
00001
,
01000
00010
01000
00010
01000
00010
01000
00010
,
10100
10100
10100
10100
01010
01010
01010
01010
,
01100
01100
01100
01100
00011
00011
00011
00011
,
00100
00000
00010
00000
00001
00100
00001
00100
10000
00000
00100
00000
10000
00100
10000
00100
,
10001
00000
00010
00000
01000
00010
01000
00100
00010
00000
10001
00000
01000
00010
01000
00010
,
01000
00000
00010
00000
00001
01000
00001
01000
10001
00000
01100
00000
00100
10000
00100
10000
,
01100
00000
00100
00000
00100
00001
00100
00001
00100
00000
00001
00000
10000
01000
10000
01000
,
10100
00000
00010
00000
10000
00100
10000
00100
00001
00000
00100
00000
00001
00010
00001
00010
,
00001
00000
01000
00000
00010
01000
00010
01000
00101
00000
00001
00000
10000
00100
00001
00100
,
10001
00000
10001
00000
01000
00010
01000
00010
01000
00000
00001
00000
01000
00100
01000
00100
,
10001
00000
10010
00000
10000
00100
00010
00100
10001
00000
01010
00000
00100
00001
00100
00001
,
10000
00000
00100
00000
10000
00000
00100
00000
10000
00000
00100
00000
10000
00000
00100
00001
,
00010
00100
00010
00100
00010
00100
00010
00100
,
10000
00100
10000
00100
10000
00100
10000
00100
,
00001
00010
00001
00010
00001
00010
00001
00010
,
00001
00000
00001
00100
10000
00000
10000
00000
10000
00000
00100
00010
00001
00000
00001
00000
,
00001
00000
01000
00100
00010
00000
01000
00000
10000
00000
00100
00010
00001
00000
00001
00000
,
10000
00001
10000
00001
10000
00001
10000
00001
,
00010
01000
00010
01000
00010
01000
00010
01000
,
10000
00010
10000
00010
10000
00010
10000
00010
00001
00100
00001
00100
00001
00100
00001
00100
,
10000
00100
00001
00100
10000
00100
00001
00100
10000
00100
00001
00100
10000
00100
00001
00100
,
20000
00000
00000
00000
00100
00001
00100
00001
30200
00000
00000
00000
00001
00010
00001
00010
,
00302
00000
00000
00000
10000
01000
10000
01000
20003
00000
00000
00000
00001
00100
00001
00100
,
30001
00000
01000
00000
00100
00000
00010
00000
00000
00000
00011
00000
00000
00010
10100
00000
,
01000
00000
00010
00000
01001
00000
01010
00000
00000
00000
01000
00000
00000
10000
01010
00000
,
00001
00100
00001
10100
00000
00011
01000
00110
,
10000
00000
01000
00000
00100
00000
01000
00000
00000
10000
00100
10000
00200
00000
00000
00000
,
00310
00000
10000
00000
01000
00000
01010
00000
00000
00000
00110
00000
00000
10000
01001
00000
,
01100
00000
00001
00000
00100
00000
10100
00000
00000
00000
01010
00000
00000
10000
01010
00000
,
00011
00000
10000
00000
00001
00000
01100
00000
00000
00000
01001
00000
00000
10000
00101
00000
,
10000
00000
01000
00000
00100
00000
00001
00000
00000
00010
01000
00010
02000
00000
00000
00000
,
03001
20010
00100
00010
30001
00010
00001
00010
,
00100
00101
00010
00001
00010
10001
02200
00000
,
03300
00010
00010
00010
00010
01000
01000
01000
,
10101
00000
01010
00000
10101
00000
01010
00000
00000
00000
00100
00000
01000
00100
01000
00100
,
01000
00100
20200
00001
00001
00001
00001
00001
,
30302
00010
00013
00010
00120
00100
12030
10000
,
03010
00001
10000
00001
00100
00010
01000
00010
,
10100
00000
00101
00000
01000
00000
00001
00000
00010
00000
00100
00000
00010
10000
00010
10000
,
02201
00001
00001
00001
00001
00001
03301
00000
,
00202
10000
01303
10010
00201
00010
00301
01000
,
01002
00100
01000
10000
01000
00100
01003
10100
,
10101
00000
01010
00000
01011
00000
01010
00000
00010
00000
00010
00000
00001
00100
00001
00100
,
10001
00000
10101
00000
10110
00000
10101
00000
00000
00000
01001
00000
00000
01000
00001
00000
,
10101
00000
00101
00000
00010
00000
01010
00000
00000
00000
00100
00000
00000
10000
00101
00000
,
10010
00000
01001
00000
00010
00000
00101
00000
00000
00000
01010
00000
00000
10000
00011
00000
,
01010
00000
01010
00000
00110
00000
00010
00000
00100
00001
10000
00000
00200
00000
00000
00000
,
10300
00000
01010
00000
00101
00000
00010
00000
00000
00000
01011
00000
00000
00100
01001
00000
,
01001
00000
00011
00000
00001
00000
00101
00000
00000
00000
01010
00000
00000
01000
00010
00000
,
10100
00000
01001
00000
00011
00000
00010
00000
00000
00000
01010
00000
00000
01000
00010
00000
,
01000
00000
00010
00000
00010
00000
00010
00000
00000
00000
00110
00000
10000
01000
00100
00010
,
00001
00000
00000
00000
;

//---------------pnm-nine - ----------------
#NOTES:
     pnm-nine:
     :
     Beginner:
     2:
     0.266632,0.402448,0.383654,0.093321,0.000000,180.000000,142.000000,37.000000,9.000000,0.000000,3.000000,0.266632,0.402448,0.383654,0.093321,0.000000,180.000000,142.000000,37.000000,9.000000,0.000000,3.000000:
001000000
001000000
001000000
001000000
,
001000000
001000000
001000000
001000000
,
000001000
000001000
000001000
000001000
,
000001000
000001000
000001000
000001000
,
100000000
000000000
100000000
000000000
,
000001000
000000000
000001000
000000000
,
001000000
000000000
001000000
000000000
,
000001000
000000000
000001000
000000000
,
000100000
000000000
000100000
000000000
,
000001000
000000000
000001000
000000000
,
000010000
000000000
000010000
000000000
,
010000000
000000000
010000000
000000000
,
000000000
000000100
000000000
000000100
,
000000000
000010000
000000000
000010000
,
000000000
010000000
000000000
010000000
,
000000000
100000000
000000000
100000000
,
000010000
000010000
000010000
000010000
,
001000000
001000000
001000000
000000000
,
000000100
000000100
000000100
000000100
,
000010000
000010000
000010000
000000000
,
010000000
000000000
000100000
000000000
,
000010000
000000000
000000100
000000000
,
000000020
000000000
000000030
000000000
,
020000000
000000000
030000000
000000000
,
001010000
001010000
000000000
000010000
,
001010000
001010000
000000000
001000000
,
101000000
101000000
000000000
100000000
,
000001010
000001010
000000000
000000010
,
001001000
001001000
000000000
000100000
,
100100000
100100000
000000000
100000000
,
000101000
000101000
000000000
000000010
,
000010100
000010100
000000000
001000000
,
202000000
000000000
303100000
000100000
,
000100000
000000000
000000010
000000000
,
000000202
000000000
000010303
000010000
,
001001000
000000000
000010000
000000000
,
100000000
010000000
001000000
000100000
,
000020000
000000000
200030000
000000000
,
300000001
000000010
000000100
000001000
,
000010000
000000000
000000000
000000000
,
100000000
001000000
000010000
000000100
,
000000001
000000100
000010000
001000000
,
200000000
000000000
000000000
000000000
,
300100000
000000000
000100000
000100000
,
001001000
001001000
000000000
000001000
,
001100000
001100000
000000000
010000000
,
011000000
011000000
000000000
000000100
,
000010100
000010100
000000000
010000000
,
011000000
011000000
000000000
000001000
,
001001000
001001000
000000000
000100000
,
000110000
000110000
000000000
100000000
,
101000000
010100000
001010000
000101010
;

//---------------pnm-five - ----------------
#NOTES:
     pnm-five:
     :
     Beginner:
     2:
     0.296258,0.402448,0.487345,0.082952,0.000000,200.000000,153.000000,47.000000,8.000000,0.000000,1.000000,0.296258,0.402448,0.487345,0.082952,0.000000,200.000000,153.000000,47.000000,8.000000,0.000000,1.000000:
00100
00100
00100
00100
,
00100
00100
00100
00100
,
00001
00001
00001
00001
,
00001
00001
00001
00001
,
10000
10000
10000
10000
,
00010
00010
00010
00010
,
00100
00100
00100
00100
,
01000
01000
01000
01000
,
00010
00000
00010
00000
,
01000
00000
01000
00000
,
00001
00000
00001
00000
,
01000
00000
01000
00000
,
00000
00010
00000
00010
,
00000
00001
00000
00001
,
00000
01000
00000
01000
,
00000
10000
00000
10000
,
00001
00001
00001
00001
,
00100
00100
00100
00100
,
01000
01000
01000
00000
,
00001
00001
00001
00000
,
01000
00000
00010
00000
,
00001
00000
10000
00000
,
00002
00000
00003
00000
,
02000
00000
03000
00000
,
00101
00101
00000
10001
,
00101
00101
00000
00101
,
10100
10100
00000
10100
,
11000
11000
00000
00001
,
00100
00100
00000
01010
,
10010
10010
00000
10100
,
01010
01010
00000
10010
,
01001
01001
00000
00101
,
20200
00000
30310
00010
,
00100
00100
01000
01000
,
00000
10000
00001
00001
,
00100
00010
00002
00000
,
10003
01000
00100
00010
,
00002
00000
20003
00000
,
30001
00010
00100
01000
,
10001
00000
01010
00000
,
10000
00100
00001
00100
,
10001
00000
00001
00100
,
20000
00000
00000
00000
,
30010
00000
00010
00010
,
00100
00100
00000
10100
,
00110
00110
00000
01001
,
01100
01100
00000
01010
,
10001
10001
00000
01001
,
01100
01100
00000
10100
,
00110
00110
00000
10010
,
00011
00011
00000
10000
,
10100
01010
00101
00011
;

//---------------pnm-nine - ----------------
#NOTES:
     pnm-nine:
     :
     Medium:
     7:
     0.620661,0.673177,0.902106,0.217750,0.093321,419.000000,328.000000,87.000000,21.000000,0.000000,11.000000,0.620661,0.673177,0.902106,0.217750,0.093321,419.000000,328.000000,87.000000,21.000000,0.000000,11.000000:
000000000
010100000
000000000
010100000
000000000
010100000
000000000
010100000
,
000000000
000101000
000000000
000101000
000000000
000101000
000000000
000101000
,
000000000
000001010
000000000
000001010
000000000
101000000
000000000
101000000
,
000000000
000001010
000000000
000001010
000000000
101000000
000000000
101000000
,
000000001
000000100
000010000
001000000
100000000
001000000
000010000
000000100
,
000000001
000000010
000001000
000100000
010000000
100000000
010000000
000100000
,
000001000
000010000
000100000
000010000
000001000
000010000
000100000
000010000
,
000000001
000000100
000001000
000000100
000000001
000000100
000001000
000000100
,
010000000
001000000
000010000
001000000
010000000
001000000
000010000
001000000
,
100000000
100000000
100000000
100000000
001000000
001000000
001000000
001000000
,
000001000
000001000
000001000
000001000
000100000
000100000
000100000
000100000
,
010100000
001010000
000101000
001010000
010100000
101000000
000000101
000010100
,
000000000
001000000
000100000
001000000
000100000
001000000
000100000
001000000
,
000100000
000010000
000100000
000010000
000100000
000010000
000100000
000010000
,
000000001
000000010
000000001
000000010
000000001
000000010
000000001
000000010
,
000000100
000100000
000000100
000100000
000000100
000100000
000000100
000100000
,
101000000
000000000
010000000
001000000
000100000
000000000
000000000
000000000
000101000
000000000
000010000
000001000
000000100
000000000
000000000
000000000
,
000000101
000000000
000000010
000000100
000001000
000000000
000000000
000000000
010100000
000000000
001000000
010000000
100000000
000000000
000000000
000000000
,
000000000
000010000
001000000
000010000
001000000
000010000
001000000
000010000
,
000000010
000001000
000000010
000001000
000000010
000001000
000000010
000001000
,
100100000
000000000
000000000
000000000
001000000
000010000
000000100
000000000
001000100
000000000
000000000
000000000
000000100
000001000
000010000
000000000
,
010100000
000000000
000000000
000000000
010000000
001000000
000100000
000000000
000001010
000000000
000000000
000000000
000000001
000000010
000000100
000000000
,
200100000
010000000
310000000
000000000
000001002
000000010
000000013
000000000
,
002000001
000010000
003010000
000000000
000020010
000000100
000030100
000000000
,
000000000
001000000
010000000
001000000
000000000
001010000
000000000
001010000
,
000000000
000000001
000000010
000000001
000000000
000011000
000000000
000011000
,
000000000
010000000
000100000
010000000
000000000
000001010
000000000
000001010
,
000000000
000000000
100000000
000000000
001000000
000000000
100000000
000000000
000000000
000000000
100000000
010000000
001000000
000202000
000000000
000000000
,
000303000
000000100
000010000
000000100
000000000
001010000
000000000
001010000
,
000000000
010000000
000100000
010000000
000000000
010100000
000000000
010100000
,
000000000
000100000
000010000
000100000
000000000
000110000
000000000
000110000
,
000000000
000000000
010000000
000000000
000100000
000000000
010000000
000000000
000000000
000000010
000001000
000100000
020002000
000000000
030003000
000000000
,
100000000
010000000
001000000
000000000
000010000
001000000
000010000
001000000
,
001001000
001001000
001001000
000000000
000010010
000010010
000010010
000000000
,
010000000
000100000
000001000
000100000
011000000
011000000
011000000
000000000
,
000000011
000010100
010100000
101000000
000000000
002002000
000000000
003003000
,
101010000
000000002
000000010
000000100
,
000200003
000010000
020300000
100000000
,
030001000
000000101
000010100
001010000
,
010100000
001000000
000010000
001000000
000010000
001000000
000010000
001000000
,
202010000
000001000
000000100
000000010
000000001
000000010
000000100
000001000
,
303010000
001010000
000011000
010100000
,
020202020
000000000
000000000
030303030
,
100000000
000000000
010000000
000000000
001000000
000000000
000100000
000000000
000010000
000000000
000100000
000000000
001000000
000001000
001000000
000001000
,
000000000
010000000
000100000
010000000
000000000
000100100
000000000
000100100
,
000000000
000000001
000001000
000000001
000000000
000011000
000000000
000011000
,
000000000
001000000
000001000
001000000
000000000
010100000
000000000
010100000
,
000000000
000000000
010000000
000000000
001000000
000000000
010000000
000000000
000000000
010000000
001000000
000100000
000020020
000000000
000000000
000000000
,
000030030
001000000
000010000
010000000
000000000
100100000
000000000
100100000
,
000000000
000001000
000100000
000001000
000000000
000010100
000000000
000010100
,
000000000
100000000
000100000
100000000
000000000
010100000
000000000
010100000
,
000000000
000000000
000000010
000000000
000010000
000000000
000000010
000000000
010000000
000000000
000010000
000000000
100000000
000100000
100000000
000100000
;

//---------------pnm-five - ----------------
#NOTES:
     pnm-five:
     :
     Medium:
     7:
     0.583628,0.592396,0.663618,0.155536,0.082952,394.000000,328.000000,64.000000,15.000000,0.000000,6.000000,0.583628,0.592396,0.663618,0.155536,0.082952,394.000000,328.000000,64.000000,15.000000,0.000000,6.000000:
00000
01010
00000
01010
00000
01010
00000
01010
,
00000
10001
00000
10001
00000
10001
00000
10001
,
00000
10100
00000
10100
00000
10100
00000
10100
,
00000
00110
00000
00110
00000
00110
00000
00110
,
10000
00100
00001
00100
10000
00100
00001
00100
,
10000
01000
00010
01000
10000
01000
00010
01000
,
00010
00001
00010
00001
00010
00001
00010
00001
,
00100
01000
00100
01000
00100
01000
00100
01000
,
00001
00100
00001
00100
01000
00100
00001
00100
,
10000
10000
10000
10000
00100
00100
00100
00100
,
10000
00010
10000
00010
10000
00010
00010
00010
,
01010
00101
00010
00101
00010
10100
00010
00001
,
00000
00100
00010
00100
00010
00100
00010
00100
,
00010
00001
00010
00001
00010
00001
00010
00001
,
10000
00100
10000
00100
10000
00100
10000
00100
,
01000
00010
01000
00010
01000
00010
01000
00010
,
10100
00000
01000
00100
00010
00000
00000
00000
00110
00000
00001
00100
01000
00000
00000
00000
,
10100
00000
01000
00100
00010
00000
00000
00000
01010
00000
00100
01000
10000
00000
00000
00000
,
00000
00001
00100
00001
00100
00001
00100
00001
,
01000
00100
01000
00100
01000
00100
01000
00100
,
10010
00000
00000
00000
00100
00001
00100
00000
11000
00000
00000
00000
10000
00100
00001
00000
,
01010
00000
00000
00000
01000
00100
00010
00000
11000
00000
00000
00000
00010
01000
00010
00000
,
20010
01000
31000
00000
02001
00100
03100
00000
,
00200
00001
00301
00000
01002
01000
01003
00000
,
00000
00100
01000
00100
00000
00101
00000
00101
,
00000
10000
00100
10000
00000
00001
00000
00001
,
00000
01000
00010
01000
00000
00100
00000
00100
,
00000
00000
10000
00000
00100
00000
10000
00000
00000
00000
10000
01000
00100
00020
00000
00000
,
00030
10000
00001
10000
00000
00101
00000
00101
,
00000
01000
00010
01000
00000
01010
00000
01010
,
00000
00010
00001
00010
00000
00011
00000
00011
,
00000
00000
01000
00000
00010
00000
01000
00000
00000
00001
00010
00100
02000
00000
03000
00000
,
10000
01000
00100
00010
00001
00100
00001
00100
,
00100
00100
00100
00001
00001
00001
00001
00000
,
01000
00010
01000
00010
01100
01100
01100
01100
,
00010
00001
01010
10100
00000
00200
00000
00300
,
10101
00000
20100
00100
00100
00100
00100
00000
,
30020
00001
02030
10000
,
03000
00000
10000
01000
00001
00010
00101
00000
,
01010
00100
00001
00100
00001
00100
00001
00100
,
20201
00010
00001
00010
,
30301
00101
10001
01010
,
02020
00000
00000
03030
,
10000
01000
00100
00010
00001
00010
00100
00100
,
00000
01000
00010
01000
00000
00010
00000
00010
,
00000
00010
01000
00010
00000
10001
00000
10001
,
00000
00100
01000
00100
00000
01010
00000
01010
,
00000
00000
01000
00000
00100
00000
01000
00000
00000
01000
00100
00010
00002
00000
00000
00000
,
00003
00100
00001
01000
00000
10010
00000
10010
,
00000
10000
00010
01000
00000
01001
00000
01001
,
00000
10000
00010
10000
00000
01010
00000
01010
,
00000
00000
00100
00000
00001
00000
00100
00000
01000
00000
00001
00000
10000
00010
10000
00010
;

//---------------pnm-nine - ----------------
#NOTES:
     pnm-nine:
     :
     Easy:
     3:
     0.244413,0.323514,0.124428,0.248857,0.000000,165.000000,153.000000,12.000000,24.000000,0.000000,1.000000,0.244413,0.323514,0.124428,0.248857,0.000000,165.000000,153.000000,12.000000,24.000000,0.000000,1.000000:
010000000
001000000
010000000
001000000
,
010000000
001000000
010000000
001000000
,
200000000
000000000
300000002
000000000
,
002000003
000000000
003000200
000000000
,
010000300
010000000
010000000
010000000
,
000100000
000100000
000100000
000100000
,
000001000
000001000
000001000
000001000
,
000000010
000000010
000000010
000000010
,
000100000
000010000
000100000
000010000
,
100000000
010000000
100000000
010000000
,
000100000
000010000
000100000
000010000
,
000000010
000000100
000000010
000000100
,
000000000
101000000
001000000
001000000
,
001010000
000000000
000010000
000000000
,
000000000
000000101
000000100
000000100
,
000100000
000000000
000010000
000000000
,
001000000
000010000
001000000
000010000
,
001000000
000010000
001000000
000010000
,
000101000
000001000
000001000
000001000
,
010000000
000001000
010000000
000001000
,
200000000
300010000
000010000
000010000
,
020000000
030100000
000100000
000100000
,
000000002
100000003
200000000
300000001
,
002000000
003000100
000000200
001000300
,
000000000
010000000
000000000
000010000
,
000000000
000000010
000000000
000001000
,
000000000
001000000
000000000
000010000
,
000000000
010000000
000000000
000000200
,
000000300
001000000
000000000
000010000
,
000000000
000000100
000000000
001000000
,
000000000
000100000
000000000
010000000
,
000000000
000001000
000000000
002000000
,
003000100
000000100
000000100
000000100
,
000000001
000000100
000010000
002000000
,
003010000
000010000
000010000
000010000
,
101000000
101000000
202000000
000000000
,
303000000
020000000
000000000
000000000
,
030200000
000000000
000300020
000000000
,
000000030
101000000
101000000
101000000
,
202000000
000000000
303000010
000000010
,
000000001
000000010
000000100
000001000
,
000010000
000100000
001000000
010000000
,
200200000
000000000
000000000
000000000
,
300300000
000000000
000000000
000000000
,
000000000
100000000
000000000
000100000
,
000000000
100000000
000000000
000100000
,
000000000
000000010
000000000
000010000
,
000000000
000000010
000000000
002000000
,
003000000
000000100
000000000
000100000
,
000000000
000001000
000000000
000010000
,
000000000
010000000
000000000
000010000
,
001000000
010000000
000100000
000020000
,
000030000
000000000
000000000
000000000
;

//---------------pnm-five - ----------------
#NOTES:
     pnm-five:
     :
     Easy:
     3:
     0.248857,0.323514,0.155536,0.238488,0.000000,168.000000,153.000000,15.000000,23.000000,0.000000,0.000000,0.248857,0.323514,0.155536,0.238488,0.000000,168.000000,153.000000,15.000000,23.000000,0.000000,0.000000:
01000
00100
01000
00100
,
01000
00100
01000
00100
,
20000
00000
30002
00000
,
00203
00000
20300
00000
,
31000
01000
01000
01000
,
00010
00010
00010
00010
,
00100
00100
00100
00100
,
10000
10000
10000
10000
,
00010
00001
00010
00001
,
10000
01000
10000
01000
,
00010
00001
00010
00001
,
00010
01000
00100
01000
,
00000
10100
00100
00100
,
00101
00000
00001
00000
,
10100
00100
00100
00000
,
01010
00000
00101
00000
,
00100
00001
00100
00001
,
00100
00001
00100
00001
,
00010
00010
00010
00010
,
01000
01000
01000
01000
,
20000
30001
00001
00001
,
02000
03010
00010
00010
,
00200
10300
20000
30001
,
00200
10300
20000
30100
,
00000
01000
00000
00001
,
00000
10000
00000
00010
,
00000
00100
00000
00001
,
00000
01000
00000
02000
,
03000
00100
00000
00001
,
00000
10000
00000
00100
,
00000
00010
00000
01000
,
00000
00100
00000
00200
,
10300
01000
00100
01000
,
10001
10001
00001
00200
,
00301
00001
00001
00001
,
10100
10100
20200
00000
,
30300
02000
00000
00000
,
03020
00000
01030
10000
,
00000
10100
10100
10100
,
20200
00000
30300
00000
,
10000
01000
00100
00010
,
00001
00010
00100
01000
,
20020
00000
00000
00000
,
30030
00000
00000
00000
,
00000
10000
00000
00010
,
00000
10000
00000
00010
,
00000
00100
00000
00001
,
00000
10000
00000
00200
,
00300
00100
00000
00010
,
00000
01000
00000
00001
,
00000
01000
00010
00001
,
00100
01000
00010
00002
,
00003
00000
00000
00000
;
