#TITLE:MOONLIGHT BATTLEFIELD;
#SUBTITLE:;
#ARTIST:SONIC TEAM feat. nana hatori;
#TITLETRANSLIT:;
#SUBTITLETRANSLIT:;
#ARTISTTRANSLIT:;
#GENRE:;
#CREDIT:caramelangel714;
#BANNER:MOONLIGHT BATTLEFIELD.png;
#BACKGROUND:MOONLIGHT BATTLEFIELD-bg.png;
#LYRICSPATH:;
#CDTITLE:;
#MUSIC:MOONLIGHT BATTLEFIELD.mp3;
#OFFSET:-0.100000;
#SAMPLESTART:22.040007;
#SAMPLELENGTH:12.000000;
#SELECTABLE:YES;
#BPMS:0.000000=182.979996
;
#STOPS:
;
#BGCHANGES:;
#KEYSOUNDS:;
#ATTACKS:;

//---------------dance-single - ----------------
#NOTES:
     dance-single:
     :
     Beginner:
     3:
     0.182203,0.339323,0.146501,0.068942,0.000000,148.000000,131.000000,17.000000,8.000000,0.000000,0.000000,0.182203,0.339323,0.146501,0.068942,0.000000,148.000000,131.000000,17.000000,8.000000,0.000000,0.000000:
// measure 0
0000
0000
0000
0000
,  // measure 1
0000
0000
0000
0000
,  // measure 2
0000
0000
0000
0000
,  // measure 3
0000
0000
0000
0000
,  // measure 4
0000
0000
0000
0000
,  // measure 5
0000
0000
0000
0000
,  // measure 6
0000
0000
0000
0000
,  // measure 7
0000
0000
0000
0000
,  // measure 8
0010
0000
1000
0000
,  // measure 9
0000
0000
0000
0000
,  // measure 10
0010
0000
0100
0000
,  // measure 11
0000
0000
0100
0000
,  // measure 12
0001
0000
0010
0000
,  // measure 13
0000
0000
0000
0000
,  // measure 14
0100
0000
0010
0000
,  // measure 15
0010
0000
0100
0000
,  // measure 16
2000
0000
0000
3001
,  // measure 17
0001
0000
0000
0000
,  // measure 18
0200
0000
0000
0310
,  // measure 19
0010
0000
0000
0000
,  // measure 20
0000
1000
0000
0010
,  // measure 21
0000
0100
0000
0010
,  // measure 22
0000
0001
0000
0100
,  // measure 23
0000
0010
0000
0010
,  // measure 24
0020
0000
0000
1030
,  // measure 25
1000
0000
0000
0000
,  // measure 26
0002
0000
0000
0103
,  // measure 27
0100
0000
0000
0000
,  // measure 28
1000
0000
0000
0000
,  // measure 29
0010
0000
0100
0000
,  // measure 30
0110
0000
0000
0000
,  // measure 31
0001
0000
1000
0000
,  // measure 32
0100
0000
0010
0010
,  // measure 33
0010
0000
1000
0000
,  // measure 34
0001
0000
0100
0010
,  // measure 35
0100
0000
0100
0000
,  // measure 36
1001
0000
0100
0010
,  // measure 37
0100
0000
0001
0000
,  // measure 38
1001
0000
1000
0001
,  // measure 39
1000
0000
0010
0000
,  // measure 40
0110
0000
1000
0001
,  // measure 41
1000
0000
1001
0000
,  // measure 42
0110
0000
0100
0010
,  // measure 43
0100
0000
0110
0000
,  // measure 44
1001
0000
0001
1000
,  // measure 45
0001
0000
0110
0000
,  // measure 46
0110
0000
0100
0010
,  // measure 47
0100
0000
1001
0000
,  // measure 48
1010
0000
0000
0000
,  // measure 49
0000
0000
0000
0000
,  // measure 50
0101
0000
0000
0000
,  // measure 51
0000
0000
0000
0000
,  // measure 52
1100
0000
0000
0000
,  // measure 53
0000
0000
0000
0000
,  // measure 54
0011
0000
0000
0000
,  // measure 55
0000
0000
0000
0000
,  // measure 56
0000
1000
0000
0001
,  // measure 57
0000
1000
0000
0001
,  // measure 58
0000
1000
0000
0001
,  // measure 59
0000
1000
0000
0001
,  // measure 60
0000
1000
0000
0010
,  // measure 61
0000
1000
0000
0010
,  // measure 62
0000
1000
0000
0010
,  // measure 63
0000
1000
0000
0010
,  // measure 64
0010
0000
0000
0000
,  // measure 65
1000
0000
0001
0000
,  // measure 66
0000
0000
0000
0000
,  // measure 67
0000
1000
0000
1000
,  // measure 68
0001
0000
0000
0000
,  // measure 69
0001
0000
0000
0000
,  // measure 70
0100
0000
0000
0000
,  // measure 71
0010
0000
0000
0000
,  // measure 72
0110
0000
0000
0000
,  // measure 73
0100
0000
0010
0000
,  // measure 74
0000
0000
0000
0000
,  // measure 75
0000
1000
0000
0010
,  // measure 76
1000
0000
1000
0000
,  // measure 77
1000
0000
1000
0000
,  // measure 78
0001
0000
0001
0000
,  // measure 79
1000
0001
1000
0001
,  // measure 80
2000
0000
0000
3001
,  // measure 81
0001
0000
0000
0000
,  // measure 82
0200
0000
0000
0310
,  // measure 83
0010
0000
0000
0000
,  // measure 84
0010
0000
1000
0000
,  // measure 85
1000
0000
0000
0000
,  // measure 86
2002
0000
0000
0000
,  // measure 87
0000
0000
3003
0000
;

//---------------dance-single - ----------------
#NOTES:
     dance-single:
     :
     Easy:
     5:
     0.323780,0.455016,0.379180,0.017235,0.000000,263.000000,219.000000,44.000000,2.000000,0.000000,0.000000,0.323780,0.455016,0.379180,0.017235,0.000000,263.000000,219.000000,44.000000,2.000000,0.000000,0.000000:
0000
0000
0000
0000
,
0000
0000
0000
0000
,
0000
0000
0000
0000
,
0000
0000
0000
0000
,
0000
0000
0000
0000
,
0000
0000
0000
0000
,
0000
0000
0000
0000
,
0000
0000
0000
0000
,
1001
0001
0001
0000
,
0000
0000
0000
0000
,
1001
1000
1000
0000
,
0000
0000
0100
0000
,
0110
0010
0100
0100
,
0010
0010
0100
0100
,
1000
0001
0100
0010
,
0100
0010
1001
0000
,
0010
0000
0000
0010
0000
0000
0001
0000
,
1001
0000
0000
0000
,
1000
0000
0000
0010
0000
0000
0010
0000
,
0101
0000
0000
0000
,
0010
1000
0010
0100
,
0001
0001
0001
0000
,
0010
0100
0001
0100
,
0010
0010
0010
0000
,
1010
0000
0000
0001
0000
0000
0010
0000
,
0110
0000
0000
0000
,
0101
0000
0000
0010
0000
0000
0100
0000
,
0110
0000
0000
0000
,
0001
0010
0001
1000
,
0010
0100
0001
0100
,
0001
0010
0100
0010
,
0001
1000
0010
0100
,
1001
0000
0110
0000
,
1000
0100
0010
0000
,
0101
0000
0110
0000
,
0001
0100
0010
0000
,
1010
0000
1100
0000
,
0010
0100
0001
0000
,
0110
0000
0101
0000
,
0100
0010
0100
0000
,
1001
0000
0110
0000
,
0100
0010
0100
0000
,
1001
0000
1010
0000
,
0100
0001
0100
0000
,
1001
0000
0101
0000
,
0100
0001
0100
0000
,
0110
0000
1001
0000
,
0100
1000
0100
0000
,
0100
0100
0001
0001
,
0100
0100
0001
0001
,
1000
1000
0100
0100
,
1000
1000
0100
0100
,
1001
0010
0100
0010
,
0100
0010
0100
0010
,
0001
0100
0001
0100
,
0001
0100
0001
0100
,
0101
0000
0110
0000
,
1000
0010
0100
0000
,
0101
0000
0110
0000
,
0001
0100
0010
0000
,
1010
0000
1100
0000
,
0100
0010
0100
0000
,
0101
0000
1100
0000
,
0100
0001
0100
0000
,
1000
0000
0000
0000
,
0001
0000
0000
0010
0000
0000
0000
0000
,
1000
0001
0100
0000
,
0000
0110
0000
0000
,
0001
0000
1000
0000
,
0001
0000
0100
0000
,
0010
0100
0010
0000
,
0001
0100
0001
0000
,
1000
0000
0010
0000
,
1000
0000
0000
0001
0000
0000
0000
0000
,
0200
0000
0301
0001
,
1000
0001
0100
0010
,
1000
0001
0100
0010
,
0100
0010
0100
0010
,
0100
0010
0010
0000
,
0110
0000
0110
1000
,
1001
0000
0000
1001
0000
0000
0001
0000
,
1001
0000
0000
0000
,
0110
0000
0000
1001
0000
0000
0100
0000
,
1001
0000
0000
0000
,
0100
0010
0010
0000
,
1000
0001
0100
0000
,
0010
0000
0100
0000
,
0020
0000
0000
0000
,
0030
0000
0000
0000
;

//---------------dance-single - ----------------
#NOTES:
     dance-single:
     :
     Medium:
     7:
     0.398877,0.606687,0.284385,0.025853,0.000000,324.000000,291.000000,33.000000,3.000000,0.000000,0.000000,0.398877,0.606687,0.284385,0.025853,0.000000,324.000000,291.000000,33.000000,3.000000,0.000000,0.000000:
0000
0000
0000
0000
,
0000
0000
0000
0000
,
0000
0000
0000
0000
,
0000
0000
0000
0000
,
0000
0000
0000
0000
,
0000
0000
0000
0000
,
0000
0000
0000
0000
,
0000
0000
0000
0000
,
0110
0000
0000
0010
0000
0000
0000
0000
,
1000
1000
1000
1000
,
1001
0000
0000
0010
0000
0000
0000
0000
,
0001
0001
1001
0000
,
1010
0000
0000
0100
0000
0000
0000
0000
,
0001
0100
0001
0100
,
1000
0010
1000
0000
0001
0100
0001
0000
,
1000
0001
2000
0000
0000
0000
3000
0000
,
1001
0000
0000
1010
0000
0000
1000
0001
,
1000
0000
0000
0000
,
0110
0000
0000
0101
0000
0000
0100
0001
,
0100
0000
0000
0000
,
1000
0010
1000
0000
0100
0000
0010
0000
,
0001
0000
0001
0000
1000
0001
1000
0000
,
0100
0010
0100
0000
0001
0000
0001
0000
,
0100
0000
0010
0000
1000
0010
1000
0000
,
0110
0000
0000
0101
0000
0000
0100
0010
,
0100
0000
0000
0000
,
1010
0000
0000
0110
0000
0000
0100
0001
,
0100
0000
0000
0000
,
1000
0010
1000
0000
0100
0000
0010
0000
,
0001
0000
0100
0000
0001
0100
0001
0000
,
0010
0010
1000
0000
0010
0000
0010
0000
,
0100
0000
0010
0000
0100
0010
0100
0000
,
1001
0000
0100
0010
0000
0010
0000
1000
,
0000
1000
0000
0010
0000
0000
0000
0000
,
0101
0000
0100
0010
0000
0001
0000
1000
,
0000
0010
0000
0100
0000
0000
0000
0000
,
1010
0000
0100
0010
0000
1000
0000
0010
,
0000
0100
0000
0001
0000
0000
0000
0000
,
0101
0000
0010
0100
0000
0010
0000
0001
,
0000
0100
0000
1000
0000
0000
0000
0000
,
0110
0000
0010
0100
0000
1000
0000
0001
,
0000
1000
0000
0001
0000
0000
0000
0000
,
0110
0000
0001
0010
0000
0100
0000
1000
,
0000
0100
0000
0010
0000
0000
0000
0000
,
0110
0000
1000
0001
0000
0100
0000
0001
,
0000
0100
0000
0010
0000
0000
0000
0000
,
0110
0000
1000
1000
0000
0010
0000
0100
,
0000
0100
0000
0100
0000
0000
0000
0000
,
1000
0001
0000
0001
,
0001
1000
0000
1000
,
0100
0010
0000
0010
,
0010
0100
0000
0100
,
0100
0010
0000
0010
,
0010
0100
0000
1000
,
1000
0010
0000
0010
,
0001
0001
0000
1000
,
1001
0000
0010
0100
0000
0100
0000
0001
,
0000
0100
0000
0010
0000
0000
0000
0000
,
1001
0000
1000
0010
0000
0100
0000
0010
,
0000
0001
0000
0100
0000
0000
0000
0000
,
0101
0000
0010
0100
0000
0010
0000
0100
,
0000
0001
0000
0100
0000
0000
0000
0000
,
1010
0000
0100
0010
0000
0100
0000
0010
,
0000
0001
0000
0010
0000
0000
0000
0000
,
1001
0000
0000
0100
0000
0010
0000
0000
,
1000
0001
0000
0001
0000
0000
0000
0100
,
0010
0000
0010
1000
0000
1000
0000
1000
,
0000
0000
1001
0000
,
0100
0010
0100
0000
1000
0000
0001
0000
,
0100
0010
0010
0010
,
1000
0000
0000
0001
0000
0000
0001
0000
,
0100
0010
0100
0010
,
1001
0000
0000
0010
0000
0010
0000
0000
,
1000
0001
0000
1001
0000
0000
0000
0000
,
0100
0010
0100
0000
1000
0000
0001
0001
,
0001
1000
0010
0100
,
0010
0100
0010
0000
1000
0010
1000
0000
,
0100
0001
0100
0000
0010
1000
0010
0000
,
0100
0001
0100
0001
0100
0001
0100
0000
,
1000
0010
1000
0010
1000
0010
1000
0000
,
1001
0000
0000
1010
0000
0000
1000
0001
,
1000
0000
0000
0000
,
0101
0000
0000
0110
0000
0000
0100
1000
,
0100
0000
0000
0000
,
1000
0010
1000
0000
0001
0000
0001
0000
,
0100
0010
0100
0000
0001
0000
0001
0000
,
1000
0001
1000
0000
1000
0000
1000
0000
,
2002
0000
0000
0000
,
3003
0000
0000
0000
;

//---------------dance-single - ----------------
#NOTES:
     dance-single:
     :
     Hard:
     11:
     0.589698,0.796277,0.353326,0.017235,0.043089,479.000000,438.000000,41.000000,2.000000,0.000000,0.000000,0.589698,0.796277,0.353326,0.017235,0.043089,479.000000,438.000000,41.000000,2.000000,0.000000,0.000000:
0000
0000
0000
0000
,
0000
0000
0000
0000
,
0000
0000
0000
0000
,
0000
0000
0000
0000
,
0000
0000
0000
0000
,
0000
0000
0000
0000
,
0000
0000
0000
0000
,
0000
0000
0000
0000
,
1001
0000
1000
0010
0000
0000
0000
0000
,
0001
1000
0001
1000
,
0110
0000
0010
0100
0000
0000
0001
0000
,
1000
0001
1001
0001
,
1010
0000
0100
0010
0000
0000
0001
0100
,
0001
0001
0100
0100
,
1000
0010
1000
0000
1000
0010
1000
0000
,
0001
1000
0001
2000
0000
0000
3000
0000
,
1001
0000
0000
0110
0000
0000
1000
0001
,
1000
0000
0100
0010
0000
0010
0100
0000
,
1001
0000
0000
1010
0000
0000
0100
0010
,
0100
0000
0001
0100
0000
0010
0100
0000
,
1000
0001
1000
0000
0100
0010
0100
0010
,
0100
0000
0001
0000
1000
0010
1000
0010
,
1000
0000
0100
0000
1000
0000
0001
0100
0000
0000
0010
0000
0100
0000
0010
0000
,
0100
0000
0000
0100
0000
0000
0100
0000
0000
0000
0000
0000
1001
0000
0000
0000
,
1010
0000
0100
0001
0000
0000
0001
1000
,
0010
0000
0100
0010
0000
1000
0001
0000
,
0110
0000
0001
0100
0000
0000
1000
0010
,
0100
0000
0100
0001
0000
0001
0010
0000
,
1000
0010
0100
0010
0100
0001
0100
0000
,
0010
0100
0010
0000
1000
0001
1000
0000
,
0010
0000
0100
0000
0001
0000
1000
0001
0000
0000
0100
0000
0010
0000
0100
0000
,
0010
0000
0000
0010
0000
0000
0010
0000
0000
0000
0000
0000
1010
0000
0000
0000
,
1000
0000
0100
0000
1000
0001
0100
0010
,
1001
0000
1000
0000
0010
0100
0010
0100
,
0010
0000
1000
0000
0001
1000
0010
0100
,
0010
0000
1000
0000
0010
0100
0010
0100
,
0010
0000
0001
0000
1000
0010
0100
0010
,
0100
0000
0001
0000
0100
0010
0100
0001
,
0001
0000
1000
0000
0010
0100
1000
0010
,
0100
0000
0000
0000
0110
0000
0000
0000
1000
0000
0001
0010
0001
0000
0000
0000
,
0100
0000
0010
0000
1000
0001
0100
0010
,
0100
0000
0101
0000
0010
1000
0010
0100
,
0001
0000
0101
0000
1000
0010
1000
0010
,
1000
0000
1100
0000
0010
0100
0010
0000
,
0101
0000
0001
0000
1000
0010
0100
0010
,
0001
0000
0110
0000
1000
0010
0100
0001
,
0100
0000
1010
0000
0100
0010
0100
0001
,
1001
0000
0000
0000
0010
0000
0000
0000
0100
0000
1000
0100
1000
0000
0000
0000
,
1000
0010
1000
0010
0000
0100
0000
0001
,
0000
0010
0000
0010
0000
0000
1000
0010
,
0100
0001
0100
0001
0000
0001
0000
0001
,
0000
0010
0000
1000
0000
0000
1000
1000
,
0010
0100
0010
0100
0000
0100
0000
0010
,
0000
1000
0000
1000
0000
0000
0001
1000
,
0010
0100
0010
0010
0000
0010
0000
0010
,
0000
0001
0000
0001
0000
0000
1000
0001
,
0100
0000
0110
0000
1000
0001
1000
0001
,
0001
0000
0110
0000
0100
0010
1000
0001
,
0100
0000
0110
0000
0001
1000
0001
0100
,
0010
0000
0110
0000
1000
0001
1000
0001
,
0100
0000
0110
0000
1000
0010
1000
0010
,
0100
0000
0101
0000
0010
0100
0010
1000
,
0010
0000
1010
0000
0100
0001
0100
0001
,
0001
0000
0110
0000
0010
1000
0010
1000
,
1000
0000
0001
0001
0000
0001
0000
0000
,
1000
0001
0000
0001
0000
0000
0100
0000
,
0010
0000
0001
0100
0000
0010
0000
0010
,
0000
1000
0010
0100
0010
0100
0001
0000
,
1001
0000
0100
0010
0000
0010
1000
0001
,
0100
0000
0110
0000
0001
1000
0010
0100
,
0010
0000
0010
0100
0000
0001
1000
0000
,
1000
0001
1000
0100
1000
0001
1000
0001
,
0001
0000
1000
0001
0000
1001
0000
0000
,
0100
0010
0000
0010
0000
0000
0010
0100
,
0010
0000
0001
1000
0000
0010
0000
0100
,
0000
0010
0000
0010
1000
0010
0100
0000
,
0110
0110
0110
0110
,
0110
0110
0110
0110
,
0100
0010
0100
0010
0100
0010
0100
0010
,
0100
0010
0100
0000
0010
0100
0010
0000
0100
0010
0100
0000
0010
0100
0010
0000
,
1000
0000
0001
0010
0000
0000
0010
0100
,
0010
0000
1000
0001
0000
0001
1000
0000
,
0110
0000
0010
0100
0000
0000
0001
1000
,
0001
0000
0010
0100
0000
0100
0010
0000
,
1000
0001
1000
0000
0100
0010
0100
0010
,
0100
0001
0100
0000
0010
1000
0010
1000
,
0010
0100
0010
0000
1000
0001
1000
0010
,
0200
0000
0000
0000
,
0300
0000
0000
0000
;

//---------------pnm-five - ----------------
#NOTES:
     pnm-five:
     :
     Beginner:
     3:
     0.219136,0.374871,0.353326,0.112030,0.000000,178.000000,137.000000,41.000000,13.000000,0.000000,0.000000,0.219136,0.374871,0.353326,0.112030,0.000000,178.000000,137.000000,41.000000,13.000000,0.000000,0.000000:
00000
01010
00000
01010
,
00000
01010
00000
01010
,
00000
01010
00000
01010
,
00000
01010
00000
01010
,
00000
01010
00000
01010
,
00000
01010
00000
01010
,
00000
01010
00000
01010
,
00000
01010
00000
01010
,
00100
00000
00000
00000
,
00000
00000
00000
00000
,
10000
00000
00000
00000
,
00000
00000
00010
00000
,
00001
00000
00000
00000
,
00000
00000
00000
00000
,
10000
00000
00100
00000
,
10000
00000
00000
00000
,
00101
00000
00000
10000
,
10000
00000
00000
00000
,
11000
00000
00000
00010
,
00010
00000
00000
00000
,
00000
01100
00000
01100
,
00000
00110
00000
00110
,
00000
01100
00000
01100
,
10000
00000
00000
00000
,
01010
00000
00000
00100
,
00100
00000
00000
00000
,
00101
00000
00000
00010
,
00010
00000
00000
00000
,
00000
10100
00000
10100
,
00000
10100
00000
10100
,
00000
00101
00000
00101
,
00000
00101
00000
00101
,
20000
00000
00000
30000
,
00010
00000
00010
00000
,
00002
00000
00000
00003
,
01000
00000
01000
00000
,
02000
00000
00000
03000
,
00100
00000
00100
00000
,
00020
00000
00000
00030
,
00100
00000
00100
00000
,
20000
00000
00000
30000
,
00010
00000
01000
00000
,
00020
00000
00000
00030
,
00001
00000
10000
00000
,
00002
00000
00000
00003
,
00001
00000
10000
00000
,
20000
00000
00000
30000
,
00001
00000
10000
00000
,
00000
00100
00000
00100
,
00000
00100
00000
00100
,
00000
00100
00000
00100
,
00000
00100
00000
00100
,
00000
10000
00000
10000
,
00000
10000
00000
10000
,
00000
01000
00000
01000
,
00000
01000
00000
01000
,
01010
00010
00000
00010
,
00000
01000
00000
01000
,
00000
00010
00000
00010
,
00000
01000
00000
01000
,
00000
00100
00000
10000
,
00000
00100
00000
00010
,
00000
00100
00000
01000
,
00000
00010
00000
01000
,
02000
00000
00000
00000
,
03000
00000
00000
00000
,
00010
00000
00000
00000
,
10000
00000
00010
00000
,
10100
00000
00000
00000
,
00010
00000
01000
00000
,
00010
00000
00000
00000
,
00000
00000
00000
00000
,
02200
00000
00000
00000
,
03300
00000
00000
00000
,
00010
00000
10000
00000
,
00010
00000
00010
00000
,
01000
00000
01000
00000
,
00010
00000
00010
00000
,
01000
00000
01000
00000
,
00100
00000
00010
00000
,
00101
00000
00000
00000
,
10100
00000
00000
00010
,
01000
00000
00000
00000
,
00110
00000
00000
01000
,
00100
00000
00000
00000
,
10000
00000
00000
00000
,
20200
00000
00000
00000
,
30300
00000
00000
00000
;

//---------------pnm-nine - ----------------
#NOTES:
     pnm-nine:
     :
     Beginner:
     3:
     0.185896,0.265426,0.137883,0.103413,0.000000,151.000000,131.000000,16.000000,12.000000,0.000000,4.000000,0.185896,0.265426,0.137883,0.103413,0.000000,151.000000,131.000000,16.000000,12.000000,0.000000,4.000000:
000000000
010000000
000000000
000000010
,
000000000
010000000
000000000
000000010
,
000000000
010000000
000000000
000000010
,
000000000
010000000
000000000
000000010
,
000000000
010000000
000000000
000000010
,
000000000
010000000
000000000
000000010
,
000000000
010000000
000000000
000000010
,
000000000
010000000
000000000
000000000
,
101010000
000000000
000000000
000000000
,
000000000
000000000
000000000
000000000
,
101010000
000000000
000000000
000000000
,
000000000
000000000
000000000
000000000
,
010100000
000000000
000000000
000000000
,
000000000
000000000
000000000
000000000
,
000000001
000000000
000000010
000000000
,
000000100
000000000
000001000
000000000
,
000010000
000000000
000000000
001000000
,
100000000
000000000
000000000
000000000
,
000010000
000000000
000000000
000000100
,
000000001
000000000
000000000
000000000
,
000000000
100000000
000000000
010000000
,
000000000
100000000
000000000
010000000
,
000000000
000000001
000000000
000000010
,
000000000
000000001
000000000
000000010
,
000010000
000000000
000000000
001000000
,
100000000
000000000
000000000
000000000
,
000010000
000000000
000000000
000000100
,
000000001
000000000
000000000
000000000
,
000000000
100000000
000000000
010000000
,
000000000
100000000
000000000
010000000
,
000000000
000000001
000000000
000000010
,
000000000
000000001
000000000
000000010
,
000101000
000000000
000000000
000000000
,
000010000
000000000
001000000
000000000
,
001010000
000000000
000000000
000000000
,
000100000
000000000
000001000
000000000
,
000000101
000000000
000000000
000000000
,
000000100
000000000
000010000
000000000
,
000010100
000000000
000000000
000000000
,
100000000
000000000
001000000
000000000
,
101000000
000000000
000000000
000000000
,
001000000
000000000
001000000
000000000
,
000010000
000000000
000000000
000000000
,
000000100
000000000
000000100
000000000
,
100000000
000000000
000000000
000000000
,
001000000
000000000
010000000
000000000
,
001000000
000000000
000000000
000000000
,
000000100
000000000
000001000
000000000
,
000000200
000000000
000000000
000000300
,
000000000
000000000
000000000
000000000
,
020200000
000000000
000000000
030300000
,
000000000
000000000
000000000
000000000
,
000200000
000000000
000000000
000300000
,
000000000
000000000
000000000
000000000
,
000002200
000000000
000000000
000003300
,
000000000
000000000
000000000
000000000
,
000000000
100000000
000000000
001000000
,
000000000
100000000
000000000
001000000
,
000000000
100000000
000000000
001000000
,
000000000
100000000
000000000
001000000
,
000000000
000001000
000000000
000100000
,
000000000
000001000
000000000
000100000
,
000000000
000001000
000000000
000100000
,
000000000
000001000
000000000
000100000
,
000100000
000000000
000000000
000000000
,
101010000
000000000
000000000
000000000
,
002020000
000000000
003030000
000000000
,
000000001
000000000
000000010
000000000
,
000000100
000000000
000000000
000000000
,
010000000
000000000
001000000
000000000
,
000200000
000000000
000000000
000000000
,
000300000
000000000
000000000
000000000
,
000100000
000000000
000000000
000000000
,
010101000
000000000
000000000
000000000
,
000000001
000000000
000000010
000000000
,
000000100
000000000
000001000
000000000
,
000010000
000000000
000010000
000000000
,
000010000
000000000
000010000
000000000
,
000010000
000010000
000010000
000010000
,
000020000
000000000
000000000
000030000
,
010100000
000000000
000000000
000010000
,
000010000
000000000
000000000
000000000
,
000011000
000000000
000000000
010000000
,
010000000
000000000
000000000
000000000
,
100000000
000000000
001000000
000000000
,
000010000
000000000
000000100
000000000
,
000000001
000000000
000000100
000000000
,
002020000
000000000
000000000
000000000
,
003030000
000000000
000000000
000000000
;

//---------------pnm-five - ----------------
#NOTES:
     pnm-five:
     :
     Easy:
     6:
     0.309007,0.379180,0.413650,0.094795,0.000000,251.000000,202.000000,48.000000,11.000000,0.000000,5.000000,0.309007,0.379180,0.413650,0.094795,0.000000,251.000000,202.000000,48.000000,11.000000,0.000000,5.000000:
00000
00100
00000
10000
,
00000
00100
00000
10000
,
00000
00100
00000
10000
,
00000
00100
00000
10000
,
00000
00010
00000
00001
,
00000
00010
00000
00001
,
00000
00010
00000
00001
,
00000
00010
00000
00001
,
10010
10000
10000
00000
,
00000
00000
00000
00000
,
01010
00010
00010
00000
,
00000
00000
01100
00000
,
01001
00001
00001
00000
,
10000
10000
10000
00000
,
01000
00100
01000
00100
,
01000
00100
00000
00000
,
20200
00000
00000
30301
,
00001
00000
00000
00000
,
00202
00000
00000
10303
,
10000
00000
00000
00000
,
01000
00010
01000
00010
,
00100
00000
00100
00000
,
01000
00010
01000
00010
,
00100
00000
00100
00000
,
00202
00000
00000
10303
,
10000
00000
00000
00000
,
20200
00000
00000
30301
,
00001
00000
00000
00000
,
00100
10000
00100
01000
,
00100
10000
00100
01000
,
00100
00001
00100
00010
,
00100
00010
00000
00000
,
00000
01100
00000
01100
,
00000
01100
00000
01100
,
00000
10100
00000
10100
,
00000
10100
00000
10100
,
00000
00110
00000
00110
,
00000
00110
00000
00110
,
00000
00101
00000
00101
,
00000
00101
00000
00101
,
00000
01010
00000
01010
,
00000
01010
00000
01010
,
00000
10001
00000
10001
,
00000
10001
00000
10001
,
00000
10010
00000
10010
,
00000
10010
00000
10010
,
00000
00101
00000
00101
,
00000
00101
00000
00101
,
10000
00000
00000
00000
,
00010
00000
01000
00000
,
00100
00000
00000
00000
,
00010
00000
10000
00000
,
01010
00000
00000
00000
,
10000
00000
00001
00000
,
01001
00000
00000
00000
,
10000
00000
00010
00000
,
10000
00100
10000
00100
,
10000
00100
10000
00000
,
00001
01000
00001
01000
,
00001
01000
00001
00000
,
01000
00100
01000
00100
,
01000
00100
01000
00000
,
00001
00100
00001
00100
,
00001
00100
00001
00000
,
10100
00000
00000
00000
,
10000
00000
00000
00001
00000
00000
00000
00000
,
10110
00000
00000
00000
,
10000
00000
00010
00000
,
01000
00100
00010
00001
,
00100
00000
10000
00000
,
00010
01000
00000
01000
,
00010
00010
00000
00010
,
10010
00000
00000
00000
,
10000
00000
00000
00010
00000
00000
00000
00000
,
01000
00010
00010
00000
,
00001
01000
01000
00000
,
00100
00100
00100
00100
,
10000
10000
10000
10000
,
00010
00010
00010
00010
,
20020
00000
00000
30030
,
01010
00000
00000
00100
,
00100
00000
00000
00000
,
11000
00000
00000
00010
,
00010
00000
00000
00000
,
00001
00100
10000
00100
,
00001
00000
00001
00000
,
10000
00100
00001
00100
,
00200
00000
00000
00000
,
00300
00000
00000
00000
;

//---------------pnm-nine - ----------------
#NOTES:
     pnm-nine:
     :
     Easy:
     6:
     0.354558,1.023785,0.387797,0.043089,0.000000,288.000000,230.000000,45.000000,5.000000,0.000000,13.000000,0.354558,1.023785,0.387797,0.043089,0.000000,288.000000,230.000000,45.000000,5.000000,0.000000,13.000000:
000000000
000001010
000000000
000001010
,
000000000
000001010
000000000
000001010
,
000000000
010100000
000000000
010100000
,
000000000
010100000
000000000
010100000
,
000000000
000101000
000000000
000101000
,
000000000
000101000
000000000
000101000
,
000000000
010000010
000000000
010000010
,
000000000
010000010
000000000
010000010
,
001010000
000010000
000010000
000000000
,
000001000
000000000
000100000
000000000
,
000000101
000000100
000000100
000000000
,
100000000
000000000
001000000
000000000
,
010100000
010000000
010000000
000000000
,
000010000
000010000
000010000
000000000
,
100000000
001000000
100000000
001000000
,
100000000
001000000
000000000
000000000
,
000010000
000000000
000000000
000010000
000000000
000000000
100000000
000000000
,
100000000
000000000
000000000
000000000
,
000100000
000000000
000000000
000100000
000000000
000000000
000001000
000000000
,
000001000
000000000
000000000
000000000
,
100000000
001000000
000010000
000000100
,
000000001
000000000
000000001
000000000
,
010000000
000100000
000001000
000000010
,
000100010
000000000
000100010
000000000
,
000100000
000000000
000000000
000010000
000000000
000000000
000010000
000000000
,
000010000
000000000
000000000
000000000
,
100000000
000000000
000000000
000010000
000000000
000000000
001000000
000000000
,
001000000
000000000
000000000
000000000
,
010000000
000100000
000001000
000000010
,
010000010
000000000
010000010
000000000
,
000000001
000000100
000010000
001000000
,
100000000
000000000
100000000
000000000
,
000000000
001000000
001000000
001000000
,
000000000
000000100
000000100
000000100
,
000000000
000000010
000000010
000000010
,
000000000
010000000
010000000
010000000
,
000000000
000010000
000010000
000010000
,
000000000
000000010
000000010
000000010
,
000000000
100000000
100000000
100000000
,
000000000
000000001
000000001
000000001
,
000000000
001000000
001000000
001000000
,
000000000
000100000
000100000
000100000
,
000000000
000001000
000001000
000001000
,
000000000
010000000
010000000
010000000
,
000000000
000000010
000000010
000000010
,
000000000
000010000
000010000
000010000
,
000000000
100000000
100000000
100000000
,
000000000
000010000
000010000
000010000
,
000100000
000000000
000000000
000000000
,
000010000
000000000
001000000
000000000
,
000010000
000000000
000000000
000000000
,
000000100
000000000
000010000
000000000
,
000000100
000000000
000000000
000000000
,
000000001
000000000
000000100
000000000
,
000000001
000000000
000000000
000000000
,
010000000
000000000
000100000
000000000
,
010000000
000001000
000001000
000001000
,
000000000
001000000
001000000
001000000
,
000000000
000100000
000100000
000100000
,
000000000
000010000
000010000
000010000
,
000000000
000000010
000000010
000000010
,
000000000
001000000
001000000
001000000
,
000000000
000100000
000100000
000100000
,
000000000
000001000
000001000
000001000
,
101000000
000000000
000000000
001000000
000000000
000000000
000000000
000000000
,
001010000
000000000
000000000
000001000
000000000
000000000
000000000
000000000
,
001010000
001010000
001010000
001010000
,
010000000
000010000
001000000
000010000
,
000001000
000000100
001000000
000100000
,
000010000
000001000
000000000
000001000
,
001000000
000010000
001000000
000000000
,
000000100
000010000
000000100
000000000
,
001010000
000000000
000000000
000001000
000000000
000000000
000000000
000000000
,
000010100
000000000
000000000
000100000
000000000
000000000
000000000
000000000
,
010000000
000100000
001000000
000000000
,
000001000
000100000
000001000
000000000
,
010101000
010101000
010101000
010101000
,
010101000
010101000
010101000
010101000
,
001010100
001010100
001010100
001010100
,
002020200
000000000
000000000
003030300
,
100000000
000000000
000000000
001000000
000000000
000000000
000010000
000000000
,
000010000
000000000
000000000
000000000
,
000010000
000000000
000000000
001000000
000000000
000000000
100000000
000000000
,
100000000
000000000
000000000
000000000
,
000100000
010000000
000100000
000010000
,
000001000
000100000
000001000
000100000
,
000010000
000000000
000010000
000000000
,
202000000
000000000
000000000
000000000
,
303000000
000000000
000000000
000000000
;

//---------------pnm-five - ----------------
#NOTES:
     pnm-five:
     :
     Medium:
     8:
     0.512139,0.682523,0.473974,0.129266,0.000000,416.000000,358.000000,55.000000,15.000000,0.000000,3.000000,0.512139,0.682523,0.473974,0.129266,0.000000,416.000000,358.000000,55.000000,15.000000,0.000000,3.000000:
00001
00000
00010
00000
00000
10100
10100
00000
,
01000
00000
00010
00000
00000
01100
01100
00000
,
00010
00000
10000
00000
00000
00101
00101
00000
,
10000
00000
00100
00000
00000
01010
01010
00000
,
00001
00000
00100
00000
00000
10100
10100
00000
,
01000
00000
00010
00000
00000
00101
00101
00000
,
00100
00000
01000
00000
00000
01010
01010
00000
,
00001
00000
00100
00000
00000
01100
01100
00000
,
01000
00000
00000
00001
00000
00000
00000
00000
,
00100
00010
00100
00010
,
01000
00000
00000
00001
00000
00000
00000
00000
,
01000
00001
00100
00001
,
01010
00000
00000
00100
00000
00000
00000
00000
,
01000
01000
00001
00001
,
01000
00010
00100
00000
00001
01000
00100
00000
,
01000
00010
00100
00020
00000
00000
00030
00000
,
20000
00000
00000
30010
00000
00000
01000
00100
,
01000
00000
00000
10000
,
00020
00000
00000
10030
00000
00000
01000
00100
,
01000
00000
00000
00010
,
01000
00100
01000
00000
00010
01000
00010
00000
,
10000
00100
10000
00100
10000
00100
10000
00000
,
00010
00100
00010
00000
01000
00100
01000
00000
,
00001
00100
00001
00100
00001
00100
00001
00000
,
00200
00000
00000
10300
00000
00000
01000
00010
,
01000
00000
00000
00010
,
00200
00000
00000
00310
00000
00000
00010
00001
,
00010
00000
00000
10000
,
01000
00100
01000
00000
00010
10000
00010
00000
,
00010
10000
00010
01000
00010
01000
00010
00000
,
10000
00100
10000
00000
10000
00100
10000
00000
,
10000
00100
10000
00100
00001
00100
00001
00000
,
01010
00000
00100
00010
00000
00010
00000
01000
,
00000
01000
00000
00001
00000
00000
00100
00000
,
01010
00000
01000
01000
00000
00010
00000
01000
,
00000
01000
00000
00010
00000
00000
00001
00000
,
10010
00000
01000
00010
00000
00100
00000
00100
,
00000
01000
00000
00010
00000
00000
10100
00000
,
01010
00000
00010
01000
00000
01000
00000
00010
,
00000
01000
00000
00010
00000
00000
01100
00000
,
10010
00000
01000
00100
00000
00010
00000
01000
,
00000
00010
00000
00100
00000
00000
10100
00000
,
01000
00000
00010
01000
00000
00001
00000
10000
,
00000
00001
00000
10000
00000
00000
01100
00000
,
01010
00000
10000
00010
00000
01000
00000
00010
,
00000
01000
00000
00100
00000
00000
10010
00000
,
01000
00000
00010
01000
00000
00010
00000
01000
,
00000
00010
00000
00100
00000
00000
10100
00000
,
02020
00000
03030
00000
,
10000
00010
10000
00000
,
00202
00000
00303
00000
,
10000
00100
01000
00000
,
22000
00000
33000
00000
,
00100
00001
00100
00000
,
02200
00000
03300
00000
,
00001
00100
00001
00000
,
10110
00000
00001
00100
00000
00100
00000
00001
,
00000
00100
00000
00001
00000
00000
10100
00000
,
10100
00000
01000
00010
00000
01000
00000
00010
,
00000
01000
00000
00100
00000
00000
01010
00000
,
00101
00000
01000
00100
00000
01000
00000
00100
,
00000
01000
00000
00100
00000
00000
11000
00000
,
01010
00000
10000
00100
00000
01000
00000
00100
,
00000
01000
00000
00100
00000
00000
10100
00000
,
10101
00000
00000
00100
00000
00100
00000
00000
,
10000
00100
00000
00101
00000
00000
00000
00000
,
10000
00100
10000
00000
00001
00100
00001
00000
,
10000
00100
10000
00100
,
01010
00000
00100
00000
00001
00100
00001
00000
,
10100
00000
00101
00000
01000
00100
01000
00000
,
00001
00100
00001
00000
10000
00100
10000
00000
,
01000
00100
01000
00100
01000
00100
01000
00000
,
10101
00000
00000
10000
00000
10000
00000
00000
,
01000
00100
00000
00010
00000
00000
00000
00000
,
10100
00000
00010
01000
00000
01000
00000
00000
,
00010
01000
00010
01000
,
10000
00010
10000
00000
10000
00010
10000
00000
,
10000
00010
10000
00000
10000
00010
10000
00000
,
00001
00100
00001
00100
00001
00100
00001
00100
,
00001
10000
00001
10000
00001
10000
00001
10000
,
10001
00000
00000
01100
00000
00000
10000
00010
,
10000
00000
00000
01010
,
10001
00000
00000
01010
00000
00000
01000
00010
,
01000
00000
00000
00101
,
10000
00100
10000
00000
00001
01000
00001
00000
,
10000
00100
10000
00000
00001
00100
00001
00000
,
10000
01000
00100
00010
,
20002
00000
00000
00000
,
30003
00000
00000
00000
;

//---------------pnm-nine - ----------------
#NOTES:
     pnm-nine:
     :
     Medium:
     8:
     0.547841,0.674767,0.680800,0.034471,0.000000,445.000000,361.000000,79.000000,4.000000,0.000000,4.000000,0.547841,0.674767,0.680800,0.034471,0.000000,445.000000,361.000000,79.000000,4.000000,0.000000,4.000000:
101000000
000000000
010100000
000000000
000000000
001010000
001010000
000000000
,
000000101
000000000
000001010
000000000
000000000
000010100
000010100
000000000
,
101000000
000000000
010100000
000000000
000000000
001010000
001010000
000000000
,
000000101
000000000
000001010
000000000
000000000
000010100
000010100
000000000
,
001000000
000000000
000010000
000000000
000000000
000000100
000000100
000000000
,
010000000
000000000
000100000
000000000
000000000
000001000
000001000
000000000
,
000000001
000000000
000000100
000000000
000000000
000010000
000010000
000000000
,
000000010
000000000
000001000
000000000
000000000
000100000
000100000
000000000
,
010100000
000000000
000000000
000110000
000000000
000000000
000000000
000000000
,
100000000
000100000
100000000
000100000
,
000101000
000000000
000000000
000010010
000000000
000000000
000000000
000000000
,
100000000
000100000
100000000
000100000
,
000101000
000000000
000000000
000001010
000000000
000000000
000000000
000000000
,
010000000
000100000
010000000
000100000
,
000100000
000001000
000100000
000000000
000100000
000001000
000100000
000000000
,
000001000
000100000
000001000
000100000
000001000
000000000
000000000
000000000
,
101000000
000000000
000000000
001000100
000000000
000000000
100000000
000010000
,
100000000
000000000
000000000
001001000
,
000010100
000000000
000000000
000010100
000000000
000000000
100000000
000010000
,
100000000
000000000
000000000
000001010
,
001000000
000010000
001000000
000000000
000010000
001000000
000010000
001000000
,
000010000
001000000
000010000
000000000
000000100
000000010
000000100
000000010
,
000000100
000000010
000000100
000000000
100000000
001000000
100000000
001000000
,
100000000
001000000
100000000
000000000
000000000
000000000
100100000
000000000
,
100000100
000000000
000000000
101000000
000000000
000000000
001000000
000010000
,
001000000
000000000
000000000
001010000
,
000101000
000000000
000000000
000010100
000000000
000000000
010000000
000100000
,
010000000
000000000
000000000
110100000
,
000010000
001000000
000010000
000000000
000000100
000001000
000000100
000001000
,
000000100
000001000
000000100
000000000
100000000
001000000
100000000
001000000
,
100000000
001000000
100000000
000000000
001000000
000010000
001000000
000010000
,
001000000
000010000
001000000
000000000
000000000
000000000
100000000
000000000
,
010101000
000000000
010000000
001000000
000000000
000010000
000000000
001000000
,
000000000
000010000
000000000
001000000
000000000
000000000
000001000
000010000
,
000011000
000000000
001000000
000001000
000000000
000100000
000000000
000001000
,
000000000
001000000
000000000
000001000
000000000
000000000
001000000
000010000
,
101100000
000000000
000010000
010000000
000000000
000010000
000000000
010000000
,
000000000
000010000
000000000
010000000
000000000
000000000
000001000
000100000
,
010010000
000000000
000100000
000000100
000000000
000010000
000000000
000001000
,
000000000
000010000
000000000
000001000
000000000
000000000
100000000
010000000
,
101000000
000000000
000100000
000001000
000000000
000100000
000000000
000001000
,
000000000
000100000
000000000
000001000
000000000
000000000
000000010
000001000
,
001010000
000000000
001000000
000001000
000000000
000100000
000000000
000010000
,
000000000
000100000
000000000
000000100
000000000
000000000
100000000
010000000
,
001010000
000000000
000100000
100000000
000000000
000100000
000000000
000001000
,
000000000
000010000
000000000
000010000
000000000
000000000
000010000
001000000
,
000110000
000000000
000100000
000001000
000000000
000100000
000000000
000000100
,
000000000
001000000
000000000
000001000
000000000
000000000
000001000
000100000
,
001010000
100000000
001000000
100000000
,
001000000
000000000
000010000
000000000
,
001010000
000000100
000010000
000000100
,
000010000
000000000
001000000
000000000
,
000001100
000000010
000000100
000000010
,
000001000
000000000
001000000
000000000
,
010001000
000100000
000001000
000100000
,
000001000
000000000
000000100
000000000
,
001010000
000000000
000101000
000000000
000000000
000100000
000100000
000000000
,
000101000
000000000
001010000
000000000
000000000
000010000
000010000
000000000
,
000000101
000000000
000001010
000000000
000000000
001000000
001000000
000000000
,
010100000
000000000
001010000
000000000
000000000
000000100
000000100
000000000
,
010100000
000000000
000101000
000000000
000000000
000000100
000000100
000000000
,
000100010
000000000
000100100
000000000
000000000
000010000
000010000
000000000
,
010100000
000000000
001010000
000000000
000000000
000001000
000001000
000000000
,
010010000
000000000
001000100
000000000
000000000
000010000
000010000
000000000
,
010100000
000000000
000000000
010000000
000000000
010000000
000000000
000000000
,
100000000
001000000
000000000
000010000
000000000
000000000
000000000
000000000
,
000100000
010000000
000100000
000000000
000100000
010000000
000100000
000000000
,
100000000
000000000
010000000
000000000
100000000
010000000
100000000
000000000
,
000010000
001010000
000010000
001010000
,
000010000
000001000
000000100
000000010
,
000000101
000000000
000001000
000010000
000000000
000010000
000000000
100000000
,
000000000
000100000
000000000
000100000
000000000
000000000
000000000
000000000
,
010100000
000000000
000100000
000010000
000000000
000010000
000000000
000000000
,
100000000
001000000
000000000
000100000
000000000
000000000
000000000
000000000
,
000010000
001000000
000010000
000000000
000010000
001000000
000010000
000000000
,
101000000
010100000
101000000
010100000
,
000100000
000010000
000100000
000010000
,
000100000
000010000
000100000
000010000
,
010000000
000100000
010000000
000100000
010000000
000100000
010000000
000100000
,
010000000
000100000
010000000
000100000
010000000
000100000
010000000
000100000
,
010100000
000000000
000000000
001010000
000000000
000000000
000001000
000100000
,
000001000
000000000
000000000
001001000
,
000110000
000000000
000000000
000110000
000000000
000000000
100000000
001000000
,
000010000
000000000
000000000
001010000
,
100000000
000010000
100000000
000000000
100000000
000010000
100000000
000000000
,
100000000
001000000
000010000
000000000
100000000
001000000
000010000
000000000
,
202020200
000000000
000000000
000000000
,
303030300
000000000
000000000
000000000
;

//---------------pnm-five - ----------------
#NOTES:
     pnm-five:
     :
     Hard:
     11:
     0.695573,0.947949,0.594623,0.043089,0.060324,565.000000,496.000000,69.000000,5.000000,0.000000,0.000000,0.695573,0.947949,0.594623,0.043089,0.060324,565.000000,496.000000,69.000000,5.000000,0.000000,0.000000:
00010
01000
00010
00000
01000
00010
01000
00000
,
00010
01000
00010
00000
01000
00010
01000
00000
,
10000
00100
10000
00000
00100
10000
00100
00000
,
10000
00100
10000
00000
00100
10000
00100
00000
,
00001
00010
00001
00000
00010
00001
00010
00000
,
00001
00010
00001
00000
00010
00001
00010
00000
,
00100
01000
00100
00000
01000
00100
01000
00000
,
00100
01000
00100
00000
01000
00100
01000
00000
,
10100
00000
01010
01010
00000
00000
10001
00000
,
00010
01000
00010
01000
,
00101
00000
01010
01010
00000
00000
01010
00000
,
10000
00010
10100
11000
,
00100
00000
01010
01010
00000
00000
00110
00000
,
10000
00010
10000
00010
,
01000
00100
01000
00100
01000
00100
01000
00100
,
01000
00100
01000
00200
00000
00000
00300
00000
,
20000
00000
00100
30100
00000
00000
10000
00100
,
00001
00000
01000
00100
00000
00100
01000
00000
,
00002
00000
00100
00103
00000
00000
10000
01000
,
00100
00000
00010
01000
00000
01000
00010
00000
,
00101
00100
01000
00100
00000
00100
10000
00100
,
01000
10000
01000
00100
00000
00010
00001
00010
,
00001
00000
10000
00000
00100
00000
01000
00010
00000
00000
01000
00000
00010
00000
01000
00000
,
01000
00000
00000
01000
00000
00000
01000
00000
00000
00000
00000
00000
10010
00000
00000
00000
,
10001
00000
10000
01000
00000
00000
10000
01000
,
00010
00000
10000
00010
00000
00010
10000
00000
,
00011
00000
00000
10100
00000
00000
10000
00010
,
00010
00000
01000
00100
00000
10000
00100
00000
,
10010
01000
00100
00100
00000
10000
01000
00000
,
00010
01000
00010
00100
00000
00100
10000
00000
,
10000
00000
00010
00000
01000
00000
00100
00010
00000
00000
00010
00000
00010
00000
00010
00000
,
00001
00000
00000
00100
00000
00000
00100
00000
00000
00000
10000
00000
01000
00000
00000
00000
,
10000
00100
00100
01000
00000
00010
01000
00000
,
01010
01010
10000
00100
00000
01000
00010
00000
,
00001
00010
00001
00010
00000
01000
01100
00000
,
00010
01000
00010
01000
00000
10000
01001
00000
,
00010
01000
10000
01000
00000
01000
01010
00000
,
00001
10000
00010
01000
00000
01010
01010
00000
,
00001
01000
10000
00100
00000
10001
10001
00000
,
00100
00000
01000
00000
00010
00000
00100
00000
00000
00000
10000
00010
10000
00000
00000
00000
,
00001
10000
00010
01000
00000
00100
00100
00000
,
00100
00100
10000
00100
00000
01000
01000
00000
,
00001
00010
00100
01000
00000
10001
10001
00000
,
10000
00010
10000
00010
00000
01100
01100
00000
,
00001
00100
00001
00100
00000
10100
10100
00000
,
00100
10000
00100
10000
00000
01001
01001
00000
,
00100
01000
00010
00100
00000
00110
00110
00000
,
10000
00000
00100
00000
10000
00000
00100
00000
00000
00000
01000
00100
01000
00000
00000
00000
,
10100
01010
00000
01000
00000
00010
00000
01000
,
00000
00010
00000
01000
00000
00010
00000
01000
,
00100
00010
00000
10000
00000
00001
00000
10000
,
00000
00001
00000
10000
00000
00001
00000
10001
,
01010
00100
00000
10000
00000
00100
00000
10000
,
00000
00100
00000
10000
00000
00100
00000
01000
,
00001
00010
00000
01000
00000
10000
00000
01000
,
00000
00100
00000
00010
00000
00001
00000
10000
,
00100
10000
00100
00010
00000
00010
11000
00000
,
00100
10000
00100
01000
00000
00001
01010
00000
,
01000
00100
01000
00010
00000
01000
01010
00000
,
00100
10000
00100
10000
00000
00001
10100
00000
,
10000
00001
10000
00010
00000
10000
10010
00000
,
01000
00100
01000
01000
00000
00001
10001
00000
,
01000
00100
01000
00010
00000
10001
10001
00000
,
00100
10000
00100
00100
00000
01010
01010
00000
,
10000
00010
10000
00010
00000
00010
00000
00000
,
10100
01010
00000
01010
00000
00000
00000
00001
,
10000
00100
10000
00100
00000
00100
00000
00100
,
00000
10000
00010
10000
00010
10000
00000
00000
,
10001
01010
10001
00000
10001
01010
10001
01010
,
00100
01000
00010
00000
00001
00100
10000
00000
,
10000
00010
10000
00010
01000
00010
01000
00010
,
10000
00100
10000
00100
10000
00100
10000
00100
,
00100
00000
00010
10100
00000
10100
00000
00000
,
10000
01100
00000
01100
00000
00000
00000
10000
,
00010
00000
10000
00100
10000
00000
00010
01000
,
00010
00000
01000
00100
01000
00000
00010
01000
,
00100
01000
00100
01000
00100
01000
00100
01000
,
00100
01000
00100
01000
00100
01000
00100
01000
,
00100
10000
00100
10000
00100
10000
00100
10000
,
00100
00010
00100
00010
00100
00010
00100
00010
00100
00010
00100
00010
00100
00010
00100
00010
,
00100
00000
00000
00100
00000
00000
01000
00010
,
00010
00000
00000
00000
,
01010
00000
00000
01001
00000
00000
00001
00100
,
10000
00000
00000
00000
,
10000
00010
01000
00100
00000
00100
00000
10000
,
00010
01000
00010
00100
00000
00100
00000
10000
,
00010
01000
00010
01000
00001
01000
00100
01000
,
02020
00000
00000
00000
,
03030
00000
00000
00000
;

//---------------pnm-nine - ----------------
#NOTES:
     pnm-nine:
     :
     Hard:
     11:
     0.775595,0.947949,0.973802,0.077559,0.060324,630.000000,500.000000,113.000000,9.000000,0.000000,25.000000,0.775595,0.947949,0.973802,0.077559,0.060324,630.000000,500.000000,113.000000,9.000000,0.000000,25.000000:
000100000
010000000
000100000
000000000
010000000
000100000
010000000
000000000
,
000100000
010000000
000100000
000000000
010000000
000100000
010000000
000000000
,
100000000
001000000
100000000
000000000
001000000
100000000
001000000
000000000
,
100000000
001000000
100000000
000000000
001000000
100000000
001000000
000000000
,
000010000
000001000
000010000
000000000
000100000
000010000
000100000
000000000
,
000010000
000001000
000010000
000000000
000100000
000010000
000100000
000000000
,
001000000
000000100
001000000
000000000
000000100
001000000
000000100
000000000
,
001000000
000000100
001000000
000000000
000000100
001000000
000000100
000000000
,
000101010
000000000
000101010
000101010
000000000
000000000
001010000
000000000
,
000100000
010000000
000100000
010000000
,
001010000
000000000
010101000
010101000
000000000
000000000
000101000
000000000
,
100000000
000100000
101010000
101000000
,
001000000
000000000
010100000
010100000
000000000
000000000
100010000
000000000
,
100000000
000100000
000000001
000100000
,
010000000
001000000
010000000
001000000
010000000
001000000
010000000
001000000
,
010000000
001000000
010000000
022000000
000000000
000000000
033000000
000000000
,
200000000
000000000
001010000
301010000
000000000
000000000
100000000
001000000
,
000010000
000000000
000010000
000010100
000000000
000001000
000010000
000000000
,
000020000
000000000
000000101
000030101
000000000
000000000
100000000
010000000
,
001000000
000000000
000100000
000000010
000000000
000000010
000100000
000000000
,
001010000
100000000
010000000
000010000
000000000
001000000
100000000
001000000
,
010000000
100000000
010000000
001000000
000000000
000100000
000010000
000100000
,
000010000
000000000
100000000
000000000
001000000
000000000
010000000
000100000
000000000
000000000
010000000
000000000
000100000
000000000
010000000
000000000
,
010000000
000000000
000000000
010000000
000000000
000000000
010000000
000000000
000000000
000000000
000000000
000000000
100100000
000000000
000000000
000000000
,
100020000
000000000
101000000
101030000
000000000
000000000
100000000
010000000
,
000100000
000000000
100000000
000100000
000000000
000100000
100000000
000000000
,
000021000
000000000
000000101
000030101
000000000
000000000
100000000
000000100
,
000100100
000000000
010000000
001000000
000101000
100000000
001000000
000000000
,
100000000
001000000
001010000
000000101
000000000
100000000
010000000
000000000
,
000100000
010000000
000001000
001000000
000000000
001000000
100000000
000000000
,
100000000
000000000
000100000
000000000
010000000
000000000
001000000
000100000
000000000
000000000
000100000
000000000
000100000
000000000
000100000
000000000
,
000010000
000000000
000000000
001000000
000000000
000000000
001000000
000000000
000000000
000000000
100000000
000000000
010000000
000000000
000000000
000000000
,
100000000
001000000
000010000
000000100
000000000
000100000
010000000
000000000
,
010100000
010100000
100000000
001000000
000000000
000010000
000100000
000001000
,
000010000
000100000
000010000
000100000
000000000
000000010
000000110
000000000
,
000100000
010000000
000100000
010000000
000000000
100000000
001010000
000000000
,
000100000
000000010
000100000
000000010
000000000
010000000
010100000
000000000
,
000010000
100000000
000100000
010000000
000000000
000001010
000001010
000000000
,
000010000
000010000
100000000
001000000
000000000
001010100
001010100
000000000
,
001000000
000000000
000000100
000000000
000100000
000000000
001000000
000000000
000000000
000000000
100000000
000100000
100000000
000000000
000000000
000000000
,
000010000
000000001
000010000
000010000
000000000
001000100
001001000
000000000
,
001000000
001000000
100000000
001000000
000000000
010000010
010000010
000000000
,
000010000
000101000
001000100
010000010
000000000
100000001
100000001
000000000
,
100000001
010000010
001000100
000101000
000010000
000000000
000000000
000000000
,
000010000
001000000
000010000
001000000
000000000
101000000
101000000
000000000
,
001000000
000010000
001000000
000010000
000000000
000010001
000010001
000000000
,
001000000
000000010
000001000
001000000
000000000
001100000
001100000
000000000
,
100000000
000000000
001010000
000000000
100000000
000000000
001010000
000000000
000000000
000000000
010000000
001000000
010000000
000000000
000000000
000000000
,
101000000
010100000
000000000
010000000
000000000
000100000
000000000
010000000
,
000000000
000100000
000000000
010000000
000000000
000100000
000000000
010000000
,
001000000
000100000
000000000
100000001
000000000
000010000
000000000
100000001
,
000000000
000010000
000000000
100000001
000000000
000010000
000000000
100000000
,
010000000
001000100
000000000
000101000
000000000
001000100
000000000
000101000
,
000000000
001000100
000000000
000101000
000000000
001000100
000000000
000100000
,
000010000
000100000
000000000
010000000
000000000
100000000
000000000
010000000
,
000000000
001000000
000000000
000100000
000000000
000010000
000000000
100000000
,
001000000
100000000
001000000
000010000
000000000
000100000
100010000
000000000
,
001000000
000001000
001000000
001000000
000000000
000010000
000100010
000000000
,
010000000
001000000
010000000
001000000
000000000
010000000
010100000
000000000
,
001000000
000010000
001000000
000010000
000000000
000010000
000000101
000000000
,
000000001
000010000
000000001
000010000
000000000
100000000
100100000
000000000
,
010000010
001000100
010000010
001000100
000000000
000010000
100010000
000000000
,
010000000
001000000
010000000
000010100
000000000
100010000
100010000
000000000
,
001000100
100000001
001000100
100000001
000000000
000101010
000101010
000000000
,
100000000
000100000
100000000
000100000
000000000
000100000
000000000
000000000
,
101010000
001010100
000000000
000010101
000000000
000000000
000000000
000010100
,
100000000
001000000
000100000
001000000
000001000
001000000
000001000
001000000
,
000000000
100000000
000100000
100000000
000100000
100000000
000000000
000000000
,
100000001
010000010
100000001
000000000
001000100
000101000
001000100
000101000
,
001000000
010000000
000100000
000000000
000010000
001000000
100000000
000000000
,
100000000
000001000
100000000
000001000
010000000
000001000
010000000
000001000
,
100000000
001000000
100000000
001000000
100000000
001000000
100000000
001000000
,
001000000
000000000
000100000
101000010
000000000
101000010
000000000
000000000
,
011000000
000000000
000000110
000000110
000000000
000000000
000000000
100000000
,
000100000
000000000
100000000
001000000
100000000
000000000
000100000
010000000
,
000100000
000000000
010000000
001000000
010000000
000000000
000100000
010000000
,
000000010
010000000
000000010
010000000
000000010
010000000
000000010
010000000
,
000000010
010000000
000000010
010000000
000000010
010000000
000000010
010000000
,
001000000
100000000
001000000
100000000
001000000
100000000
001000000
100000000
,
001000000
000000001
001000000
000000001
001000000
000000001
001000000
000000001
001000000
000000001
001000000
000000001
001000000
000000001
001000000
000000001
,
001000000
000000000
000000000
001000000
000000000
000000000
010000000
000100000
,
000001000
000000000
000000000
000000000
,
010100000
000000000
000000000
010010000
000000000
000000000
000010000
000001000
,
100010100
000000000
000000000
000000000
,
100000000
000100000
010000000
000000100
000000000
001000000
000000000
100000000
,
000100000
000000010
000100000
001000000
000000000
000000100
000000000
100000000
,
000100000
010000010
000100000
010000000
000010000
010000000
001000000
010000000
,
220000200
000000000
000000000
000000000
,
330000300
000000000
000000000
000000000
;
