#TITLE:鏡面の波;
#SUBTITLE:;
#ARTIST:YURiKA;
#TITLETRANSLIT:Kyoumen no Nami;
#SUBTITLETRANSLIT:;
#ARTISTTRANSLIT:;
#GENRE:;
#CREDIT:caramelangel714;
#BANNER:Kyoumen no Nami.png;
#BACKGROUND:Kyoumen no Nami-bg.png;
#LYRICSPATH:;
#CDTITLE:;
#MUSIC:Kyoumen no Nami.mp3;
#OFFSET:-0.660000;
#SAMPLESTART:43.479992;
#SAMPLELENGTH:12.000000;
#SELECTABLE:YES;
#BPMS:0.000000=175.000000
;
#STOPS:
;
#BGCHANGES:;
#KEYSOUNDS:;
#ATTACKS:;

//---------------dance-single - ----------------
#NOTES:
     dance-single:
     :
     Beginner:
     1:
     0.079171,0.209486,0.110839,0.155175,0.000000,50.000000,40.000000,10.000000,14.000000,0.000000,0.000000,0.079171,0.209486,0.110839,0.155175,0.000000,50.000000,40.000000,10.000000,14.000000,0.000000,0.000000:
// measure 0
0000
0000
0000
0000
,  // measure 1
0000
0000
0000
0000
,  // measure 2
0000
0000
0000
0000
,  // measure 3
0000
0000
0000
0000
,  // measure 4
0000
0000
0000
0000
,  // measure 5
0000
0000
0000
0000
,  // measure 6
0000
0000
0000
0000
,  // measure 7
0000
0000
0000
0000
,  // measure 8
0110
0000
0000
0000
,  // measure 9
0000
0000
0000
0000
,  // measure 10
0000
0000
0000
0000
,  // measure 11
0000
0000
0000
0000
,  // measure 12
0110
0000
0000
0000
,  // measure 13
0000
0000
0000
0000
,  // measure 14
0000
0000
0000
0000
,  // measure 15
0000
0000
0000
0000
,  // measure 16
1000
0000
0000
0000
,  // measure 17
0001
0000
0000
0000
,  // measure 18
1000
0000
0000
0000
,  // measure 19
0001
0000
0000
0000
,  // measure 20
0100
0000
0000
0000
,  // measure 21
0010
0000
0000
0000
,  // measure 22
0100
0000
0000
0000
,  // measure 23
0010
0000
0000
0000
,  // measure 24
1000
0000
0000
0000
,  // measure 25
0001
0000
0000
0000
,  // measure 26
1000
0000
0000
0000
,  // measure 27
0001
0000
0000
0000
,  // measure 28
0100
0000
0000
0000
,  // measure 29
0010
0000
0000
0000
,  // measure 30
0100
0000
0000
0000
,  // measure 31
0010
0000
0000
0000
,  // measure 32
2000
0000
0000
0000
,  // measure 33
0000
0000
3000
0000
,  // measure 34
0002
0000
0000
0000
,  // measure 35
0000
0000
0003
0000
,  // measure 36
0220
0000
0000
0000
,  // measure 37
0000
0000
0330
0000
,  // measure 38
2002
0000
0000
0000
,  // measure 39
0000
0000
3003
0000
,  // measure 40
2000
0000
0000
0000
,  // measure 41
0000
0000
3000
0000
,  // measure 42
0200
0000
0000
0000
,  // measure 43
0000
0000
0300
0000
,  // measure 44
0020
0000
0000
0000
,  // measure 45
0000
0000
0030
0000
,  // measure 46
0002
0000
0000
0000
,  // measure 47
0000
0000
0003
0000
,  // measure 48
0100
0000
0000
0000
,  // measure 49
0100
0000
0000
0000
,  // measure 50
0010
0000
0000
0000
,  // measure 51
0010
0000
0000
0000
,  // measure 52
1000
0000
0000
0000
,  // measure 53
0100
0000
0000
0000
,  // measure 54
1000
0000
0000
0000
,  // measure 55
0001
0000
0000
0000
,  // measure 56
0220
0000
0000
0000
,  // measure 57
0000
0000
0330
0000
,  // measure 58
2002
0000
0000
0000
,  // measure 59
0000
0000
3003
0000
,  // measure 60
0110
0000
0000
0000
,  // measure 61
0110
0000
0000
0000
,  // measure 62
1001
0000
0000
0000
,  // measure 63
1001
0000
0000
0000
;

//---------------dance-single - ----------------
#NOTES:
     dance-single:
     :
     Easy:
     3:
     0.220094,0.349143,0.199510,0.177342,0.000000,139.000000,121.000000,18.000000,16.000000,0.000000,0.000000,0.220094,0.349143,0.199510,0.177342,0.000000,139.000000,121.000000,18.000000,16.000000,0.000000,0.000000:
0000
0000
0000
0000
,
0000
0000
0000
0000
,
0000
0000
0000
0000
,
0000
0000
0000
0000
,
0000
0000
0000
0000
,
0000
0000
0000
0000
,
0000
0000
0000
0000
,
0000
0000
0000
0000
,
1000
0000
0000
0001
,
0001
0000
0000
0100
,
0100
0000
0000
0010
,
0010
0000
0010
0000
,
0110
0000
0000
0100
,
0100
0000
0000
0010
,
1001
0000
0000
0000
,
0000
0000
0000
0000
,
1000
0000
0010
1000
,
0010
0000
0100
0001
,
0100
0000
0010
0100
,
0010
0000
0110
0000
,
1001
0000
0100
0010
,
0100
0000
0010
1000
,
0010
0000
0100
0001
,
0100
0000
0100
0100
,
0110
0000
1000
0100
,
1000
0000
0001
0100
,
0001
0000
0010
0100
,
0010
0110
0110
0000
,
1000
0000
1000
0010
,
1000
0000
0100
0010
,
0100
0000
0001
0100
,
0001
0001
0010
2000
,
0000
0000
0000
0000
,
0000
0000
3200
0000
,
0320
0000
0000
0000
,
0032
0000
2003
0000
,
3001
0000
0001
0000
,
0100
1000
0010
0100
,
0110
0000
0110
0000
,
0110
1000
0100
0002
,
0000
0000
0000
0000
,
0000
0000
0203
0000
,
0320
0000
0000
0000
,
2030
0000
3200
0000
,
0301
0000
0001
0000
,
1000
0010
0100
1000
,
1001
0000
1001
0000
,
1001
0000
0110
0000
,
1000
0100
0010
0001
,
1000
0100
1000
0001
,
0110
0010
0010
0000
,
0110
0100
0100
0000
,
1000
0010
0100
0010
,
1000
0001
0100
0010
,
0100
0000
0001
0000
,
1000
0000
0010
0000
,
2002
0000
0000
0000
,
3003
0000
0000
0000
,
0220
0000
0000
0000
,
0330
0000
0000
0000
,
2000
0000
0000
0000
,
3000
0000
0000
0000
,
0002
0000
0000
0000
,
0003
0000
0000
0000
;

//---------------dance-single - ----------------
#NOTES:
     dance-single:
     :
     Medium:
     6:
     0.292931,0.523714,0.310349,0.288181,0.000000,185.000000,157.000000,28.000000,26.000000,0.000000,0.000000,0.292931,0.523714,0.310349,0.288181,0.000000,185.000000,157.000000,28.000000,26.000000,0.000000,0.000000:
0000
0000
0000
0000
,
0000
0000
0000
0000
,
0000
0000
0000
0000
,
0000
0000
0000
0000
,
0000
0000
0000
0000
,
0000
0000
0000
0000
,
0000
0000
0000
0000
,
0000
0000
0000
0000
,
1010
0000
0000
0000
0000
0000
1000
0010
,
0000
0000
0000
0000
0000
0000
0001
0100
,
0000
0000
0000
0000
0000
0000
0010
0100
,
0000
0000
0100
0000
,
0101
0000
0000
0000
0000
0000
0001
0100
,
0000
0000
0000
0000
0000
0000
0010
1000
,
0000
0000
0000
0000
,
0000
0000
0000
0000
,
1001
0000
0010
0000
0010
0000
0100
0010
,
0100
0000
0100
0000
0100
0000
1000
0010
,
0100
0000
0001
0000
0100
0000
0001
0100
,
0010
1000
0010
0100
,
1001
0000
1000
0000
1000
0000
1000
0010
,
0001
0000
0001
0000
0001
0000
0100
0010
,
0100
0000
0100
0000
0100
0000
1000
0010
,
0100
0010
0100
0010
,
0110
0000
1000
0000
0010
0000
1000
0100
,
1000
0000
0001
0000
0100
0000
0010
0100
,
0010
0000
0001
0000
0100
0000
0001
0100
,
0001
0010
0100
1000
,
1001
0000
1000
0000
1000
0000
1000
0010
,
0100
0100
0100
1010
,
1100
1000
1010
0101
,
0010
0100
0010
2000
,
0000
0000
0000
0000
,
0000
0000
0000
0000
3200
0000
0000
0020
,
0300
0000
0000
0000
,
0230
0000
2300
0000
,
3001
0000
0001
0100
0010
0000
1000
0010
,
0100
0000
0010
0100
0010
0000
1000
0000
,
0110
0101
0110
1010
,
0001
0010
0100
2000
,
0000
0000
0000
0000
,
0000
0000
0000
0000
3200
0000
0000
0002
,
0300
0000
0000
0000
,
0023
0000
0230
0000
,
1300
0000
0100
0010
0100
0000
0001
0100
,
0010
0000
1000
0010
0100
0000
0100
0000
,
0110
1010
0110
0101
,
0002
0000
0000
2000
0003
0000
3000
0000
,
0110
0000
0000
1010
0000
0000
2000
0000
,
0000
0001
3001
0001
,
0220
0000
0000
0000
0330
0000
1000
0001
,
1000
0010
1000
0100
,
0110
0000
0000
1010
0000
0000
0002
0000
,
0000
0000
0100
0103
,
0220
0000
0330
0000
,
1000
0000
0000
0010
0000
0000
1000
0000
,
2002
0000
0000
0000
,
3003
0000
0000
0000
,
2020
0000
0000
0000
,
3030
0000
0000
0000
,
2200
0000
0000
0000
,
3300
0000
0000
0000
,
0220
0000
0000
0000
,
0330
0000
0000
0000
;

//---------------dance-single - ----------------
#NOTES:
     dance-single:
     :
     Hard:
     9:
     0.419605,0.632198,0.354685,0.310349,0.038794,265.000000,233.000000,32.000000,28.000000,0.000000,0.000000,0.419605,0.632198,0.354685,0.310349,0.038794,265.000000,233.000000,32.000000,28.000000,0.000000,0.000000:
0000
0000
0000
0000
,
0000
0000
0000
0000
,
0000
0000
0000
0000
,
0000
0000
0000
0000
,
0000
0000
0000
0000
,
0000
0000
0000
0000
,
0000
0000
0000
0000
,
0000
0000
0000
0000
,
0020
0000
0130
0000
1000
0000
0010
0100
,
0001
0000
0011
0000
0101
0000
0010
0100
,
0010
0000
1000
0000
0001
0000
0010
0100
,
0001
0000
0110
0000
1001
0000
1000
0010
,
0100
0000
0100
0000
0101
0000
0010
0100
,
0001
0000
1000
0000
0100
0000
0010
0100
,
0020
0000
0000
0000
,
0030
0000
0000
0000
,
1010
0000
0100
0001
0010
0100
0001
0100
,
0010
0000
1000
0010
0100
0001
0100
0010
,
0100
0000
0000
0000
0101
0000
0000
0000
0110
0000
0000
0100
0000
0000
1000
0000
,
0000
0000
0000
0000
2000
0000
0000
0000
3100
0000
0000
0001
0000
0000
0101
0000
,
0000
0010
0100
0001
0100
0010
1000
0010
,
1010
0000
0100
0001
0100
0010
1000
0010
,
0100
0000
0101
0000
0010
1000
0100
0010
,
0001
0000
1001
0100
0010
0100
1000
0100
,
0002
0000
0103
0010
0100
0001
0010
0100
,
1001
0000
1000
0010
0100
0001
0100
0010
,
0110
0000
1000
0010
0100
0001
0100
0010
,
0000
0000
0010
0000
2000
0000
0000
0000
3001
0000
0000
0101
0000
0000
0110
0000
,
0020
0000
1000
0100
1030
0010
0100
0101
,
0000
1010
0000
0110
0000
1001
0000
2010
,
0000
0100
0010
3001
,
1000
0010
0101
0000
0110
0000
2020
0000
,
0000
0000
0000
0000
,
0030
0000
0000
0000
3002
0000
0000
2000
,
0000
0000
0003
0000
,
3020
0000
0230
0000
,
1300
0000
0000
0001
0000
0000
0010
0000
1000
0000
0000
0100
0000
0000
0010
0000
,
0002
0000
0000
1003
0000
1000
0000
1001
,
0000
0000
1000
0010
0000
0100
0001
0000
,
0001
0100
0010
0000
0100
0000
0202
0000
,
0000
0000
0000
0000
,
0300
0000
0000
0000
0023
0000
0000
2000
,
0030
0020
0030
0002
,
0003
0000
3020
0000
0000
0030
0000
0010
,
1000
0000
0000
0010
0000
0000
0100
0000
0001
0000
0000
0010
0000
0000
0100
0000
,
0020
0000
0000
1000
0030
0000
2000
0000
,
0000
0001
0001
0000
0000
0000
3001
0000
,
0010
0000
0000
1010
0000
0000
0000
0010
,
0100
0000
0001
0100
0000
0010
1000
0000
,
0000
0100
0001
0010
0010
0001
1000
0010
,
0110
0000
0001
0001
0000
1000
0010
0000
,
0000
0001
1000
0010
0100
0001
0100
0010
,
0000
0001
1000
0010
0100
0001
0200
0000
,
0000
0000
0000
0001
0301
0000
1010
0000
,
0202
0000
0000
0000
0303
0000
0000
1000
,
0010
0000
0100
0001
0000
0010
0220
0000
,
0000
0000
0000
0000
,
0000
0000
0330
0000
,
1000
0000
0010
0100
0000
0000
0010
0000
,
0001
1000
0000
0100
0010
0000
0100
0001
,
0010
0000
0010
0001
0000
0001
0010
0000
,
0100
0000
0000
0001
0000
0000
0100
0010
,
0000
0000
0001
0000
0000
0100
0000
0000
,
0100
0000
0000
0101
0000
0000
0000
0000
;

//---------------pnm-five - ----------------
#NOTES:
     pnm-five:
     :
     Hard:
     9:
     0.644449,0.737564,0.731537,0.310349,0.038794,407.000000,338.000000,66.000000,28.000000,0.000000,9.000000,0.644449,0.737564,0.731537,0.310349,0.038794,407.000000,338.000000,66.000000,28.000000,0.000000,9.000000:
00100
00000
00000
00000
00000
00000
10000
00100
,
00000
00000
00000
00000
00000
00000
00010
01000
,
00000
00000
00000
00000
00000
00000
10000
02000
,
00000
00000
03010
00000
00000
00000
00010
00010
,
00000
00000
00000
00000
00000
00000
00100
01000
,
00000
00000
00000
00000
00000
00000
10000
00010
,
00000
00000
00000
00000
00000
00000
00010
01000
,
00000
10100
00000
00000
,
01010
10000
00100
00010
00000
00000
10100
01010
,
00010
01000
00100
10000
00000
00000
01010
01100
,
00010
01000
10000
01000
00000
00000
10100
02010
,
00000
00000
03001
00000
00000
00000
10100
10100
,
01000
00010
01000
00100
00000
00000
01010
01100
,
01000
10000
01000
00100
00000
00000
10010
10100
,
00000
00000
10000
00000
00000
00100
00000
00000
,
00010
00000
00000
00001
00000
00000
00000
00000
,
00020
00000
10030
01000
00100
10000
00010
01010
,
00100
00010
01000
10000
00100
00000
00010
01010
,
10100
00000
01000
00000
00100
00000
10000
00000
00010
00000
00000
10010
00000
00000
10100
00000
,
00000
00001
00100
00010
01000
10000
00010
01010
,
00000
01000
00100
00010
10000
00010
01000
01100
,
00000
00001
01000
00100
11000
00100
01000
00101
,
00000
10000
01000
00100
10000
00001
01000
00010
,
00000
10010
00000
10100
00000
21000
00000
00000
,
30100
00000
00001
00010
00100
00001
00010
10010
,
00000
01010
00100
00010
10000
00100
00001
01000
,
00000
10100
00001
01000
01000
00100
00001
20000
,
00000
00000
00100
00000
30010
00000
00000
00000
00110
00000
00000
01010
00000
00000
10010
00000
,
01100
00000
00001
01000
00100
10000
01000
01001
,
00000
00100
01000
00010
01000
10000
00100
00002
,
00000
10103
11000
01010
,
10000
00000
01000
00000
00100
00000
00010
00000
00001
00000
00000
10010
00000
00000
20100
00000
,
00010
00001
00010
00100
00001
00100
00001
00100
,
00001
00010
00100
00010
30002
00010
00100
01000
,
20003
00100
00010
00100
00010
00001
30100
00010
,
02010
00001
03201
00010
,
10300
00000
00000
01000
00000
00000
00100
00000
00010
00000
00000
10010
00000
00000
10010
00000
,
00002
00000
00000
01000
00003
10100
00000
00102
,
00000
00000
10003
00100
00000
01010
10100
00000
,
10100
01010
00101
20100
,
00001
00010
00100
00010
00100
00010
01000
00010
,
00100
00010
00001
00010
30200
00000
00000
00320
,
00000
20030
00000
30020
,
00000
00000
02030
00000
00000
00000
03000
00001
,
10010
00000
00000
10100
00000
00000
01100
00000
00100
00000
00000
00001
00000
00000
10000
00000
,
20000
00000
00000
30200
00000
00000
00302
00000
,
00000
10000
10003
01000
00100
00010
00001
10000
,
02000
00000
00000
03020
00000
00000
00000
10030
,
01010
00100
01000
10000
00100
00010
01000
01010
,
01000
00100
10010
00000
10100
00000
11000
00000
,
20210
00000
00010
00000
30310
00000
10000
01010
,
00000
00010
01000
10000
01000
00100
01000
00000
,
10100
01000
00010
00001
00000
10000
01000
00100
,
00000
10000
01000
00010
00001
00100
10010
00000
,
10202
00000
10000
00000
10303
00000
00000
00100
,
00010
00000
00010
01000
00000
10000
01010
00000
,
00010
01000
10000
01000
00010
01000
10000
01000
,
00010
01000
10000
01000
00010
01000
10000
01000
,
00010
00001
00010
01000
00010
00001
00010
01000
,
00010
00001
00010
01000
00010
00001
00010
01000
,
00010
00100
01000
00100
00010
00100
01000
00100
,
00010
00100
01000
00100
00010
00100
01000
00100
,
00010
00000
01000
00000
00000
00010
00000
00000
,
01000
00000
00000
10110
00000
00000
00000
00000
;

//---------------pnm-nine - ----------------
#NOTES:
     pnm-nine:
     :
     Hard:
     9:
     0.733120,0.948296,1.075138,0.343601,0.038794,463.000000,345.000000,97.000000,31.000000,0.000000,31.000000,0.733120,0.948296,1.075138,0.343601,0.038794,463.000000,345.000000,97.000000,31.000000,0.000000,31.000000:
001000000
000000000
000000000
000000000
000000000
000000000
100000000
001000000
,
000000000
000000000
000000000
000000000
000000000
000000000
000001000
000000010
,
000000000
000000000
000000000
000000000
000000000
000000000
000000100
000020000
,
000000000
000000000
010030000
000000000
000000000
000000000
000000001
000000001
,
000000000
000000000
000000000
000000000
000000000
000000000
000001000
000000100
,
000000000
000000000
000000000
000000000
000000000
000000000
000100000
000001000
,
000000000
000000000
000000000
000000000
000000000
000000000
000100000
010000000
,
000000000
101000000
000000000
000000000
,
000000101
000000010
000000100
000001000
000000000
000000000
101000000
010100000
,
000001000
000000010
000001000
000000001
000000000
000000000
000010100
000010100
,
000100000
010000000
100000000
010000000
000000000
000000000
000000101
020100000
,
000000000
000000000
030100000
000000000
000000000
000000000
101010000
101010000
,
010000000
000100000
000000100
001000000
000000000
000000000
000000011
000000011
,
000000100
000001000
000010000
000100000
000000000
000000000
100100000
110000000
,
000000000
000000000
100000000
000000000
000000000
001000000
000000000
000000000
,
000100000
000000000
000000000
000010000
000000000
000000000
000000000
000000000
,
000202000
000000000
010303000
100000000
010000000
001000000
010101000
010101000
,
001010000
000100000
010000000
100000000
001000000
000000000
000000010
000001010
,
000000101
000000000
000000010
000000000
000001000
000000000
000000100
000000000
000001000
000000000
000000000
001010100
000000000
000000000
101010000
000000000
,
000000000
001010100
000100000
010000000
000100000
100000000
000100000
010100010
,
000000000
010000000
001000000
000100000
000000010
000100000
010000010
000001010
,
000000000
001010000
010100000
101000000
010100000
001010000
010100000
001010000
,
000000000
100000000
010000000
001000000
000100000
000010000
000001010
000101010
,
000000000
101010000
000000000
110100000
000000000
210000000
000000000
000000000
,
301100000
000000000
000010000
000100000
001000000
000010000
000100000
000100100
,
000000000
010100000
001000000
000100000
000010000
001000000
000010000
010100000
,
000000000
101000000
000010000
001000000
010000000
001000000
000010000
200000000
,
000000000
000000000
001000000
000000000
300100000
000000000
000000000
000000000
001100000
000000000
000000000
010100000
000000000
000000000
100100000
000000000
,
011000000
000000000
000000001
000000010
000000100
100100000
011000000
011000000
,
000000000
001000000
010000000
000100000
010000000
100000000
001000000
000020000
,
000000000
101030000
110000000
010100000
,
100000000
000000000
010000000
000000000
001000000
000000000
000100000
000000000
000010000
000000000
000000000
100100000
000000000
000000000
201000000
000000000
,
000100000
000010000
000001000
000000100
000000010
000000001
000000010
000000100
,
000001000
000010000
000100000
001000000
320000000
001000000
000100000
000010000
,
030002000
000010000
000100000
001000000
010000000
001000000
000103000
000010000
,
000200000
001000000
010000000
100000000
020300000
001000000
000100000
000010000
,
030101000
000000000
000000000
010101000
000000000
000000000
001100000
000000000
001100000
000000000
000000000
101010000
000000000
000000000
101010000
000000000
,
000020000
000000000
000000000
001000000
000030000
101000000
000000000
002020000
,
000000000
000000000
103030000
100000000
000000000
010101000
001010100
000000000
,
000000101
000000000
000001010
000000000
001010100
000000000
201000000
000100000
,
000010000
000001000
000000100
000000010
000000001
000000010
000000100
000001000
,
000010000
000100000
001000000
010000000
302000000
000100000
000010000
003002000
,
000000000
000023000
000000000
000230000
,
000000000
000000000
002300000
000000000
000000000
000000000
003000000
000010000
,
000001100
000000000
000000000
000010100
000000000
000000000
001010000
000000000
011000000
000000000
000000000
000010100
000000000
000000000
100100000
000000000
,
200000000
000000000
000000000
302000000
000000000
000000000
003020000
000000000
,
000000000
100000000
100030000
010000000
001000000
000100000
000010000
000000001
,
020000020
000000000
000000000
230000030
000000000
000000000
300000000
100000000
,
010100000
001010000
010100000
100000000
001000000
000000100
010000000
010100000
,
010001000
001000000
000100100
000000000
101010000
000000000
110000000
000000000
,
202100000
000000000
000100000
000000000
303100000
000000000
000000010
010100000
,
000000000
000100010
010000000
100000000
010000000
001000000
010000000
000000000
,
001000100
000001000
000100000
000010000
000000000
100000001
010000010
001000100
,
000000000
000010000
100000000
000100000
000010000
001000000
100100000
000000000
,
002020001
000000000
000000001
000000000
003030001
000000000
000000000
001000000
,
000100000
000000000
000100000
000010000
000000000
100000001
000001010
000000000
,
000100000
010000000
100000000
010000000
000100000
000000010
000000001
000000010
,
000001000
010000000
100000000
010000000
000001000
000000010
000000001
000000010
,
000100000
000010000
000100000
001000000
000100000
000010000
000100000
001000000
,
000100000
000010000
000100000
001000000
000100000
000010000
000100000
001000000
,
000100000
001000000
010000000
001000000
000100000
001000000
010000000
001000000
,
000100000
001000000
010000000
001000000
000100000
001000000
010000000
001000000
,
000100000
000000000
000000001
000000000
000000000
000000010
000000000
000000000
,
010000100
000000000
000000000
001011000
000000000
000000000
000000000
000000000
;

//---------------pnm-five - ----------------
#NOTES:
     pnm-five:
     :
     Beginner:
     1:
     0.140924,0.316722,0.166258,0.077587,0.000000,89.000000,71.000000,15.000000,7.000000,0.000000,3.000000,0.140924,0.316722,0.166258,0.077587,0.000000,89.000000,71.000000,15.000000,7.000000,0.000000,3.000000:
00010
00000
00000
00000
,
00000
00000
00000
00000
,
00000
00000
00000
00000
,
00000
00000
00000
00000
,
01000
00000
00000
00000
,
00000
00000
00000
00000
,
00000
00000
00000
00000
,
00000
00000
00000
00000
,
10001
00000
00000
00000
,
00100
00000
00000
00000
,
00100
00000
00000
00000
,
00100
00000
00000
00000
,
10001
00000
00000
00000
,
00100
00000
00000
00000
,
00100
00000
00000
00000
,
00000
00000
00000
00000
,
01010
00000
00000
00100
,
00100
00000
00000
10000
,
10000
00000
10000
00000
,
10000
00000
00000
00000
,
01010
00000
00000
00100
,
00100
00000
00000
00100
,
00100
00000
00000
00000
,
00010
00000
00010
00000
,
10001
00000
00000
00100
,
00100
00000
00000
00100
,
00100
00000
00100
00000
,
10000
00000
00000
00000
,
01010
00000
00000
00100
,
00100
00000
00000
10000
,
10000
00000
00100
00000
,
00001
00000
00000
00000
,
20202
00000
00000
00000
,
00000
00000
00000
00000
,
30303
00000
00000
00000
,
10000
00000
00100
00000
,
00001
00000
00100
00000
,
10000
00000
00000
00000
,
00100
00000
10000
00000
,
00100
00000
00000
00000
,
20202
00000
00000
00000
,
00000
00000
00000
00000
,
30303
00000
00000
00000
,
00000
00000
00000
00000
,
01000
00000
00010
00000
,
01000
00000
00010
00000
,
01010
00000
00000
00000
,
01010
00000
00000
00000
,
10000
00000
00100
00000
,
00001
00000
00100
00000
,
20000
00000
00000
30000
,
00001
00000
00001
00000
,
00100
00000
01000
00000
,
00100
00000
00000
00000
,
10100
00000
00000
00000
,
10100
00000
01010
00000
,
10101
00000
00000
00000
,
00000
00000
00000
00000
,
01010
00000
00000
00000
,
00000
00000
00000
00000
,
10000
00000
00000
00000
,
00000
00000
00000
00000
,
00010
00000
00000
00000
,
00000
00000
00010
00000
;

//---------------pnm-five - ----------------
#NOTES:
     pnm-five:
     :
     Easy:
     3:
     0.280264,0.422296,0.332517,0.110839,0.000000,177.000000,144.000000,30.000000,10.000000,0.000000,3.000000,0.280264,0.422296,0.332517,0.110839,0.000000,177.000000,144.000000,30.000000,10.000000,0.000000,3.000000:
10001
00000
00000
00000
,
00000
00000
00000
00000
,
00000
00000
00000
00000
,
00000
00000
00000
00000
,
01010
00000
00000
00000
,
00000
00000
00000
00000
,
00000
00000
00000
00000
,
00000
00000
00000
00000
,
10001
00000
00000
10000
,
00001
00000
00000
00001
,
10000
00000
00000
01000
,
00100
00000
00000
00000
,
01010
00000
00000
00001
,
01000
00000
00000
01000
,
00001
00000
00000
00000
,
00000
00000
00000
00000
,
10001
00000
00000
00100
00000
00000
10000
00000
,
00100
00000
00000
10001
00000
00000
00001
00000
,
00100
00000
00000
00100
00000
00000
00001
00000
,
10100
00000
00000
00100
00000
00000
00100
00000
,
01010
00000
00000
10000
00000
00000
10000
00000
,
01000
00000
00000
00001
00000
00000
10000
00000
,
01000
00000
00000
00001
00000
00000
00100
00000
,
00001
00000
00000
00001
00000
00000
10000
00000
,
10001
00000
00000
01000
00000
00000
00100
00000
,
00100
00000
00000
00001
00000
00000
10000
00000
,
10100
00000
00000
01000
00000
00000
01000
00000
,
10000
00000
00000
01010
00000
00000
00000
00000
,
01010
00100
10000
00100
,
01001
00001
01000
00001
,
10100
01000
00100
00010
,
00001
00010
00100
01000
,
20202
00000
00000
00000
,
30303
00000
00000
00000
,
00202
00000
00000
00303
,
10000
00000
00100
00000
,
00001
00010
00100
01000
,
10000
00000
00000
10001
00000
00000
00000
00000
,
00100
01000
10000
01000
,
00100
00001
01000
00100
,
20202
00000
00000
00000
,
30303
00000
00001
00000
,
10000
00000
00100
00000
,
01000
00000
00010
00000
,
01000
00100
10000
01000
,
00001
00100
01000
10000
,
01001
00000
01001
00000
,
01010
00000
00000
00000
,
10000
00100
10000
01000
,
10001
00001
00010
00001
,
10000
01000
10000
01000
,
00001
00010
00001
00100
,
01000
10000
01000
00010
,
00100
00010
00100
00001
,
20200
00000
00000
30300
,
01010
00000
00000
10100
00000
00000
10101
00000
,
01010
00000
10000
00000
,
00100
00000
01000
00000
,
01100
00000
00001
00000
,
00100
00000
01000
00000
,
10100
00000
00010
00000
,
01000
00000
00001
00000
,
10010
00000
01000
00000
,
00100
00000
00010
00000
;

//---------------pnm-five - ----------------
#NOTES:
     pnm-five:
     :
     Medium:
     7:
     0.414854,0.597076,0.421188,0.332517,0.038794,262.000000,218.000000,38.000000,30.000000,0.000000,15.000000,0.414854,0.597076,0.421188,0.332517,0.038794,262.000000,218.000000,38.000000,30.000000,0.000000,15.000000:
00100
00000
00000
00000
00000
00000
10000
00001
,
00000
00000
00000
00000
00000
00000
00010
10000
,
00000
00000
00000
00000
00000
00000
10000
00200
,
00000
00000
00310
00000
00000
00000
00010
01000
,
00000
00000
00000
00000
00000
00000
00100
10000
,
00000
00000
00000
00000
00000
00000
10000
00100
,
00000
00000
00000
00000
00000
00000
00010
01000
,
00000
10100
00000
00000
,
01010
00000
00000
00000
00000
00000
00100
01000
,
00000
00000
00000
00000
00000
00000
00010
10000
,
00000
00000
00000
00000
00000
00000
00100
02010
,
00000
00000
03001
00000
00000
00000
10000
00100
,
00000
00000
00000
00000
00000
00000
01000
00100
,
00000
00000
00000
00000
00000
00000
10000
00010
,
00000
00000
00000
00000
,
00000
00000
00000
00000
,
00020
00000
00030
00000
00000
00000
00010
20000
,
00000
00000
30010
00000
10010
00000
00010
02000
,
00000
00000
00000
00000
03001
00000
00000
00000
10001
00000
00000
10010
00000
00000
10100
00000
,
00000
00000
00000
00000
20000
00000
00000
00000
31000
00000
00000
00010
00000
00000
01000
00000
,
00000
00000
10000
00000
10000
00000
01000
01000
,
00000
00000
00001
00000
01000
00000
01000
00001
,
00000
00000
10000
00000
00100
00000
01000
00010
,
00000
00010
00000
00100
00000
10000
00000
00000
,
10101
00000
00001
00000
10000
00000
00010
01000
,
00000
00000
00100
00000
00001
00000
00100
01000
,
00000
00000
01000
00000
00001
00000
00001
10000
,
00000
00000
00100
00000
00010
00000
00000
00000
00110
00000
00000
01010
00000
00000
10010
00000
,
01010
00000
00001
00000
00100
00000
01010
01010
,
00000
00000
10000
00000
00100
00000
00100
00001
,
00000
10100
11000
01010
,
10001
01010
00100
20101
,
00000
00000
00000
00000
,
00000
00000
30102
00000
,
20103
00000
00000
30000
,
02000
00000
23200
00000
,
30300
00000
00000
00001
00000
00000
00010
00000
00100
00000
00000
01000
00000
00000
10000
00000
,
00002
00000
00000
01000
00003
10000
00000
01002
,
00000
00000
10003
00100
00000
00100
01000
00000
,
00000
10001
01010
20101
,
00000
00000
00000
00000
,
00000
00000
00000
00000
30201
00000
00000
00320
,
00000
00230
00000
02300
,
00000
00000
23000
00000
00000
00000
30000
00001
,
10000
00000
00000
01000
00000
00000
00100
00000
00100
00000
00000
00010
00000
00000
10001
00000
,
20002
00000
00000
30203
00000
00000
00302
00000
,
00000
10000
10003
00000
00100
00000
00010
00000
,
02000
00000
00000
03020
00000
00000
00000
10030
,
01010
00000
00000
10010
00000
00000
01010
00000
,
00000
00000
10000
00100
10000
00100
10000
00100
,
20210
00000
00010
00000
30310
00000
10000
01000
,
00000
00010
10000
00010
01000
00100
01000
00000
,
10000
01000
00000
10001
00000
00000
01000
00100
,
00010
10000
00000
00010
00001
00100
10000
00000
,
10202
00000
10000
00000
10303
00000
00000
00100
,
00010
00000
00010
01000
00000
10000
01010
00000
,
00010
01000
00010
00000
00010
01000
00010
00000
,
00010
01000
00010
00000
00010
01000
00010
00000
,
00100
01000
00100
00000
00100
01000
00100
00000
,
10000
01000
10000
00000
10000
01000
10000
00000
,
00010
00100
00010
00000
00010
00100
00010
00000
,
00010
00100
00010
00000
00010
00100
00010
00000
,
10000
00000
01000
00000
00000
00100
00000
00000
,
00010
00000
00000
10110
00000
00000
00000
00000
;

//---------------pnm-nine - ----------------
#NOTES:
     pnm-nine:
     :
     Beginner:
     1:
     0.142507,0.351914,0.177342,0.055419,0.000000,90.000000,71.000000,16.000000,5.000000,0.000000,3.000000,0.142507,0.351914,0.177342,0.055419,0.000000,90.000000,71.000000,16.000000,5.000000,0.000000,3.000000:
000100000
000000000
000000000
000000000
,
000000000
000000000
000000000
000000000
,
000000000
000000000
000000000
000000000
,
000000000
000000000
000000000
000000000
,
000001000
000000000
000000000
000000000
,
000000000
000000000
000000000
000000000
,
000000000
000000000
000000000
000000000
,
000000000
000000000
000000000
000000000
,
000010100
000000000
000000000
000000000
,
001010000
000000000
000000000
000000000
,
000000100
000000000
000000000
000000000
,
000000010
000000000
000000000
000000000
,
000101000
000000000
000000000
000000000
,
000000010
000000000
000000000
000000000
,
000001000
000000000
000000000
000000000
,
000000000
000000000
000000000
000000000
,
010100000
000000000
000000000
000001000
,
000001000
000000000
000000000
000000100
,
000000100
000000000
000000100
000000000
,
000000100
000000000
000000000
000000000
,
010100000
000000000
000000000
000000010
,
000000010
000000000
000000000
000001000
,
000001000
000000000
000000000
000000000
,
000010000
000000000
000010000
000000000
,
000010001
000000000
000000000
000001000
,
000001000
000000000
000000000
000000010
,
000000010
000000000
000001000
000000000
,
010000000
000000000
000000000
000000000
,
000001010
000000000
000000000
000000100
,
000000100
000000000
000000000
000010000
,
000010000
000000000
000001000
000000000
,
000000100
000000000
000000000
000000000
,
020200000
000000000
000000000
000000000
,
000000000
000000000
000000000
000000000
,
030300000
000000000
000000000
000000000
,
100000000
000000000
001000000
000000000
,
000010000
000000000
000000100
000000000
,
000000001
000000000
000000000
000000000
,
000000100
000000000
000010000
000000000
,
000000100
000000000
000000000
000000000
,
000002020
000000000
000000000
000000000
,
000000000
000000000
000000000
000000000
,
000003030
000000000
000000000
000000000
,
000000000
000000000
000000000
000000000
,
010000000
000000000
000100000
000000000
,
000001000
000000000
000000010
000000000
,
000101000
000000000
000000000
000000000
,
010100000
000000000
000000000
000000000
,
100000000
000000000
001000000
000000000
,
000010000
000000000
000000100
000000000
,
000000002
000000000
000000000
000000003
,
000010000
000000000
000100000
000000000
,
001000000
000000000
010000000
000000000
,
001000000
000000000
000000000
000000000
,
101010000
000000000
000000000
000000000
,
101000000
000000000
010100000
000000000
,
001010001
000000000
000000000
000000000
,
000000000
000000000
000000000
000000000
,
010101000
000000000
000000000
000000000
,
000000000
000000000
000000000
000000000
,
000000100
000000000
000000000
000000000
,
000000000
000000000
000000000
000000000
,
000001000
000000000
000000000
000000000
,
000000000
000000000
000100000
000000000
;

//---------------pnm-nine - ----------------
#NOTES:
     pnm-nine:
     :
     Easy:
     3:
     0.297682,0.492679,0.387936,0.110839,0.000000,188.000000,144.000000,35.000000,10.000000,0.000000,9.000000,0.297682,0.492679,0.387936,0.110839,0.000000,188.000000,144.000000,35.000000,10.000000,0.000000,9.000000:
001010100
000000000
000000000
000000000
,
000000000
000000000
000000000
000000000
,
000000000
000000000
000000000
000000000
,
000000000
000000000
000000000
000000000
,
010101000
000000000
000000000
000000000
,
000000000
000000000
000000000
000000000
,
000000000
000000000
000000000
000000000
,
000000000
000000000
000000000
000000000
,
001010100
000000000
000000000
100000000
,
010000000
000000000
000000000
000010000
,
000100000
000000000
000000000
010000000
,
001000000
000000000
000000000
000000000
,
000101000
000000000
000000000
000010000
,
000000100
000000000
000000000
010000000
,
000100000
000000000
000000000
000000000
,
000000000
000000000
000000000
000000000
,
000000101
000000000
000000000
000000100
000000000
000000000
100000000
000000000
,
001000000
000000000
000000000
000010000
000000000
000000000
000010000
000000000
,
001000000
000000000
000000000
001000000
000000000
000000000
000010000
000000000
,
001000100
000000000
000000000
001000100
000000000
000000000
001000100
000000000
,
010100000
000000000
000000000
000000001
000000000
000000000
000000001
000000000
,
010000000
000000000
000000000
000100000
000000000
000000000
000010000
000000000
,
000100000
000000000
000000000
000000010
000000000
000000000
000000100
000000000
,
000010000
000000000
000000000
000010000
000000000
000000000
000000100
000000000
,
000010100
000000000
000000000
010000000
000000000
000000000
101000000
000000000
,
101000000
000000000
000000000
000000010
000000000
000000000
000000001
000000000
,
000010100
000000000
000000000
001000000
000000000
000000000
001000000
000000000
,
100000000
000000000
000000000
010100000
000000000
000000000
000000000
000000000
,
010100000
000001000
100000000
001000000
,
000010001
000010000
000000100
000010000
,
101000000
010000000
001000000
000100000
,
000010000
000001000
000000100
000000010
,
000020202
000000000
000000000
000000000
,
000030303
000000000
000000000
000000000
,
002020000
000000000
000000000
003030000
,
100000000
000000000
001000000
000000000
,
000010000
000100000
001000000
010000000
,
100000000
000000000
000000000
000010001
000000000
000000000
000000000
000000000
,
000000100
000000010
000000001
000000010
,
000000100
000010000
000100000
001000000
,
202020000
000000000
000000000
000000000
,
303030000
000000000
000010000
000000000
,
000010000
000000000
000001000
000000000
,
010000010
000000000
000101000
000000000
,
000000100
000000010
000000100
000001000
,
000010000
001000000
010000000
100000000
,
000010100
000000000
000010100
000000000
,
010100000
000000000
000000000
000000000
,
010100000
001000000
010000000
001000000
,
000100000
000010000
000100000
000010000
,
000000100
000001000
000000100
000001000
,
000010000
000100000
000010000
001000000
,
010000000
100000000
010000000
000100000
,
000010000
000100000
001000000
000010000
,
000000202
000000000
000000000
000000303
,
010101000
000000000
000000000
101010000
000000000
000000000
101010000
000000000
,
010101000
000000000
000000001
000000000
,
000000010
000000000
010000000
000000000
,
110000000
000000000
000010000
000000000
,
000100000
000000000
010000000
000000000
,
101000000
000000000
000100000
000000000
,
000000100
000000000
000000001
000000000
,
000101000
000000000
000000100
000000000
,
000000010
000000000
000000001
000000000
;

//---------------pnm-nine - ----------------
#NOTES:
     pnm-nine:
     :
     Medium:
     7:
     0.427522,0.597076,0.487691,0.332517,0.038794,270.000000,218.000000,44.000000,30.000000,0.000000,16.000000,0.427522,0.597076,0.487691,0.332517,0.038794,270.000000,218.000000,44.000000,30.000000,0.000000,16.000000:
001000000
000000000
000000000
000000000
000000000
000000000
000000010
000000100
,
000000000
000000000
000000000
000000000
000000000
000000000
000001000
000000100
,
000000000
000000000
000000000
000000000
000000000
000000000
000000100
000002000
,
000000000
000000000
000103000
000000000
000000000
000000000
000010000
000100000
,
000000000
000000000
000000000
000000000
000000000
000000000
001000000
100000000
,
000000000
000000000
000000000
000000000
000000000
000000000
100000000
010000000
,
000000000
000000000
000000000
000000000
000000000
000000000
000001000
000000001
,
000000000
101001000
000000000
000000000
,
010101000
000000000
000000000
000000000
000000000
000000000
000000100
000000010
,
000000000
000000000
000000000
000000000
000000000
000000000
000000010
000000100
,
000000000
000000000
000000000
000000000
000000000
000000000
001000000
020100000
,
000000000
000000000
030100000
000000000
000000000
000000000
000100000
000010000
,
000000000
000000000
000000000
000000000
000000000
000000000
000001000
000000100
,
000000000
000000000
000000000
000000000
000000000
000000000
000000010
000000001
,
000000000
000000000
000000000
000000000
,
000000000
000000000
000000000
000000000
,
000200020
000000000
000300030
000000000
000000000
000000000
000000100
000000020
,
000000000
000000000
000100030
000000000
000110000
000000000
000100100
020000000
,
000000000
000000000
000000000
000000000
030100000
000000000
000000000
000000000
100010000
000000000
000000000
100100000
000000000
000000000
101000000
000000000
,
000000000
000000000
000000000
000000000
200000000
000000000
000000000
000000000
310000000
000000000
000000000
000100000
000000000
000000000
000000010
000000000
,
000000000
000000000
100000001
000000000
100000001
000000000
010000010
010000010
,
000000000
000000000
000010000
000000000
010000000
000000000
010000000
000010000
,
000000000
000000000
100000000
000000000
001000000
000000000
000000100
000000001
,
000000000
000010000
000000000
001000000
000000000
100000000
000000000
000000000
,
101010000
000000000
000010100
000000000
100000000
000000000
000100000
000000010
,
000000000
000000000
001000000
000000000
000010000
000000000
000000100
000000001
,
000000000
000000000
010000000
000000000
000100000
000000000
000000100
000000001
,
000000000
000000000
000000001
000000000
000000010
000000000
000000000
000000000
000011000
000000000
000000000
010100000
000000000
000000000
101000000
000000000
,
010100000
000000000
000010000
000000000
000010000
000000000
000001010
000001010
,
000000000
000000000
000000001
000000000
000000100
000000000
000000100
000010000
,
000000000
101000000
110000000
010100000
,
100010000
010100000
001000000
201010000
,
000000000
000000000
000000000
000000000
,
000000000
000000000
300020100
000000000
,
200030100
000000000
000000000
300000000
,
020000000
000000000
032000000
000000000
,
003000000
000000000
000000000
000010000
000000000
000000000
000100000
000000000
001000000
000000000
000000000
010000000
000000000
000000000
100000000
000000000
,
000020000
000000000
000000000
100000000
000030000
100000000
000000000
010000020
,
000000000
000000000
100000030
001000000
000000000
001000000
010000000
000000000
,
000000000
100010000
010100000
201010000
,
000000000
000000000
000000000
000000000
,
000000000
000000000
000000000
000000000
302010000
000000000
000000000
003200000
,
000000000
000320000
000000000
000030200
,
000000000
000000000
000000302
000000000
000000000
000000000
000000003
000010000
,
100000000
000000000
000000000
010000000
000000000
000000000
001000000
000000000
001000000
000000000
000000000
000100000
000000000
000000000
100010000
000000000
,
200020000
000000000
000000000
302030000
000000000
000000000
003020000
000000000
,
000000000
100000000
100030000
000000000
001000000
000000000
000100000
000000000
,
000000020
000000000
000000000
000200030
000000000
000000000
000000000
100300000
,
010100000
000000000
000000000
000100100
000000000
000000000
000100100
000000000
,
000000000
000000000
000000001
000000010
000000001
000000010
000000001
000000010
,
202000100
000000000
000000100
000000000
303000100
000000000
100000000
010000000
,
000000000
000100000
000001000
000100000
010000000
001000000
010000000
000000000
,
000000010
000000001
000000000
100100000
000000000
000000000
000000010
000000100
,
000001000
000000100
000000000
000100000
000010000
000000100
100000000
000000000
,
102020000
000000000
100000000
000000000
103030000
000000000
000000000
000000001
,
000000010
000000000
000100000
010000000
000000000
100000000
010100000
000000000
,
000100000
000001000
000100000
000000000
000100000
000001000
000100000
000000000
,
000100000
000001000
000100000
000000000
000100000
000001000
000100000
000000000
,
001000000
010000000
001000000
000000000
001000000
010000000
001000000
000000000
,
100000000
000000001
100000000
000000000
100000000
000000001
100000000
000000000
,
000100000
000010000
000100000
000000000
000100000
000010000
000100000
000000000
,
000100000
000010000
000100000
000000000
000100000
000010000
000100000
000000000
,
100000000
000000000
010000000
000000000
000000000
001000000
000000000
000000000
,
000100000
000000000
000000000
000010101
000000000
000000000
000000000
000000000
;
