#VERSION:0.83;
#TITLE:青空のKNIFE;
#SUBTITLE:;
#ARTIST:守永初美;
#TITLETRANSLIT:AOZORA NO KNIFE;
#SUBTITLETRANSLIT:;
#ARTISTTRANSLIT:Hatsumi Morinaga;
#GENRE:;
#ORIGIN:;
#CREDIT:caramelangel714;
#BANNER:AOZORA NO KNIFE.png;
#BACKGROUND:AOZORA NO KNIFE-bg.png;
#PREVIEWVID:;
#JACKET:AOZORA NO KNIFE-jacket.png;
#CDIMAGE:;
#DISCIMAGE:;
#LYRICSPATH:;
#CDTITLE:;
#MUSIC:AOZORA NO KNIFE.mp3;
#OFFSET:-0.040000;
#SAMPLESTART:64.060051;
#SAMPLELENGTH:12.000000;
#SELECTABLE:YES;
#BPMS:0.000=132.000;
#STOPS:;
#DELAYS:;
#WARPS:;
#TIMESIGNATURES:0.000=4=4;
#TICKCOUNTS:0.000=4;
#COMBOS:0.000=1;
#SPEEDS:0.000=1.000=0.000=0;
#SCROLLS:0.000=1.000;
#FAKES:;
#LABELS:0.000=Song Start;
#BGCHANGES:;
#KEYSOUNDS:;
#ATTACKS:
;

//---------------dance-single - ----------------
#NOTEDATA:;
#CHARTNAME:;
#STEPSTYPE:dance-single;
#DESCRIPTION:;
#CHARTSTYLE:;
#DIFFICULTY:Beginner;
#METER:1;
#RADARVALUES:0.120037,0.158635,0.123141,0.094167,0.000000,116.000000,99.000000,17.000000,13.000000,0.000000,0.000000,0.000000,0.000000,0.000000,0.120037,0.158635,0.123141,0.094167,0.000000,116.000000,99.000000,17.000000,13.000000,0.000000,0.000000,0.000000,0.000000,0.000000;
#CREDIT:;
#NOTES:
// measure 0
0000
0000
0000
0000
,  // measure 1
0000
0000
0000
0000
,  // measure 2
0000
0000
0000
0000
,  // measure 3
0000
0000
0000
0000
,  // measure 4
0001
0000
0000
0000
,  // measure 5
0001
0000
0000
0000
,  // measure 6
0001
0000
0000
0000
,  // measure 7
0001
0000
0000
0000
,  // measure 8
0110
0000
0010
0000
,  // measure 9
0100
0000
0000
0000
,  // measure 10
1001
0000
1000
0000
,  // measure 11
0001
0000
0000
0000
,  // measure 12
0110
0000
1000
0000
,  // measure 13
0001
0000
0000
0000
,  // measure 14
1001
0000
0100
0000
,  // measure 15
0010
0000
0010
0000
,  // measure 16
1000
0000
1000
0000
,  // measure 17
0100
0000
0010
0000
,  // measure 18
2002
0000
0000
3003
,  // measure 19
0000
0000
0000
0000
,  // measure 20
0220
0000
0000
0330
,  // measure 21
0000
0000
0000
0000
,  // measure 22
1000
0000
0000
0000
,  // measure 23
0010
0000
0100
0000
,  // measure 24
0010
0000
0020
0000
,  // measure 25
0000
0000
0030
0000
,  // measure 26
0100
0000
0000
0000
,  // measure 27
0001
0000
0010
0000
,  // measure 28
0010
0000
0200
0000
,  // measure 29
0000
0000
0300
0000
,  // measure 30
1001
0000
1000
0000
,  // measure 31
0010
0000
1000
0000
,  // measure 32
0001
0000
0002
0000
,  // measure 33
1003
0000
1000
0000
,  // measure 34
2000
0000
0000
3000
,  // measure 35
1001
0000
0000
0000
,  // measure 36
0110
0000
0010
0000
,  // measure 37
0010
0000
0010
0000
,  // measure 38
0100
0000
0001
0000
,  // measure 39
0100
0000
0010
0000
,  // measure 40
0110
0000
0000
0000
,  // measure 41
1000
0000
1000
0000
,  // measure 42
1001
0000
0000
0000
,  // measure 43
0100
0000
0000
0000
,  // measure 44
0010
0000
0010
0000
,  // measure 45
1000
0000
0000
0000
,  // measure 46
0002
0000
0000
0003
,  // measure 47
0000
0000
0000
0000
,  // measure 48
2000
0000
0000
3000
,  // measure 49
0000
0000
0000
0000
,  // measure 50
1001
0000
0010
0000
,  // measure 51
0010
0000
0100
0000
,  // measure 52
1000
0000
0001
0000
,  // measure 53
0010
0000
0000
0000
,  // measure 54
0110
0000
0010
0000
,  // measure 55
0010
0000
1000
0000
,  // measure 56
0010
0000
0100
0000
,  // measure 57
0001
0000
0010
0000
,  // measure 58
1001
0000
0000
0000
,  // measure 59
0100
0000
0010
0000
,  // measure 60
0100
0000
0001
0000
,  // measure 61
1000
0000
0110
0000
,  // measure 62
0100
0000
0010
0000
,  // measure 63
0100
0000
0010
0000
,  // measure 64
0001
0000
1000
0000
,  // measure 65
0100
0000
0010
0000
,  // measure 66
0001
0000
0000
0000
,  // measure 67
1000
0000
0001
0000
,  // measure 68
2002
0000
0000
3003
,  // measure 69
0000
0000
0000
0000
,  // measure 70
0001
0000
1000
0000
,  // measure 71
1001
0200
0000
0000
,  // measure 72
0000
0000
0000
0000
,  // measure 73
0300
0000
0000
0000
;

//---------------dance-single - ----------------
#NOTEDATA:;
#CHARTNAME:;
#STEPSTYPE:dance-single;
#DESCRIPTION:;
#CHARTSTYLE:;
#DIFFICULTY:Easy;
#METER:3;
#RADARVALUES:0.209029,0.264391,0.202821,0.166603,0.000000,202.000000,174.000000,28.000000,23.000000,0.000000,0.000000,0.000000,0.000000,0.000000,0.209029,0.264391,0.202821,0.166603,0.000000,202.000000,174.000000,28.000000,23.000000,0.000000,0.000000,0.000000,0.000000,0.000000;
#CREDIT:;
#NOTES:
0000
0000
0000
0000
,
0000
0000
0000
0000
,
0000
0000
0000
0000
,
0000
0000
0000
0000
,
1001
0000
0100
0010
,
0110
0000
0100
0010
,
0110
0000
0100
0010
,
0110
1000
0001
1000
,
0001
0100
0020
0000
,
0030
0000
0010
1000
,
0010
0010
0100
0100
,
0001
0000
1000
0010
,
0100
0100
0002
0000
,
1003
1000
0010
0100
,
0010
0001
0010
0000
,
1000
0000
0001
0100
,
0110
0000
1000
0000
,
0001
0000
1000
0000
,
0220
0000
0330
0000
,
1000
0001
1000
0000
,
1001
0000
0000
0000
,
0010
0000
0000
0000
,
1010
0000
0000
0000
,
0100
0010
0100
0000
,
0001
0000
1000
0000
,
1001
0000
0100
0010
,
0110
0000
0000
0000
,
0001
0100
0001
0010
,
0002
0000
2003
0000
,
3001
0000
0001
0000
,
2000
0000
3002
0000
,
2003
0000
3002
0000
,
0103
0000
0100
0000
,
1000
0010
0001
0001
,
2002
0000
0000
3003
,
1001
0000
0000
0000
,
0100
0010
0020
0000
,
1030
0000
1000
0000
,
0001
0010
0001
0100
,
1000
0000
0100
0100
,
0010
0000
0010
1000
,
0010
0000
0001
0100
,
0001
0000
0001
0000
,
1000
0000
1000
0000
,
0010
0100
0010
0000
,
0001
0000
1000
0000
,
2002
0000
0000
3003
,
1000
0000
0001
0000
,
0220
0000
0000
0330
,
0110
0000
0000
0000
,
1001
0000
0100
0010
,
0100
0001
0100
0001
,
0101
0000
0010
0100
,
0010
0000
0010
0010
,
1000
0100
0110
0000
,
0100
0010
0001
1000
,
1001
0000
0100
0010
,
0100
0100
0100
0100
,
0110
0000
1000
0001
,
1010
0000
1000
1000
,
1000
0001
0100
0010
,
0010
0000
0100
0010
,
0010
0100
0010
0000
,
1000
0001
1000
0001
,
2000
0000
3000
0000
,
0002
0000
0003
0000
,
0220
0000
0330
0000
,
1001
0000
0100
0010
,
0110
0000
1000
0001
,
1001
0000
0100
0010
,
0110
0000
1000
0001
,
1001
0220
0000
0000
,
0000
0000
0000
0000
,
0330
0000
0000
0000
;

//---------------dance-single - ----------------
#NOTEDATA:;
#CHARTNAME:;
#STEPSTYPE:dance-single;
#DESCRIPTION:;
#CHARTSTYLE:;
#DIFFICULTY:Medium;
#METER:5;
#RADARVALUES:0.348727,0.423026,0.412885,0.246282,0.000000,337.000000,280.000000,57.000000,34.000000,0.000000,0.000000,0.000000,0.000000,0.000000,0.348727,0.423026,0.412885,0.246282,0.000000,337.000000,280.000000,57.000000,34.000000,0.000000,0.000000,0.000000,0.000000,0.000000;
#CREDIT:;
#NOTES:
0000
0000
0000
0000
,
0000
0000
0000
0000
,
0000
0000
0000
0000
,
0000
0000
0000
0000
,
0010
0100
0010
0000
1000
0000
0001
0000
,
0100
0010
0100
0000
0001
0000
1000
0000
,
0010
0100
0010
0000
0001
0000
1000
0000
,
0100
0000
0001
1000
,
0002
0000
1003
0000
0100
0010
0100
0000
,
2000
0000
3001
0000
0100
0010
0100
0000
,
0020
0000
0130
0000
1000
0001
1000
0000
,
0200
0000
0310
0000
0001
1000
0010
0000
,
0020
0000
1030
0000
0010
0100
0100
0000
,
0020
0000
1030
0000
0100
0010
0100
0000
,
0020
0000
0031
0000
0001
1000
0001
0000
,
0002
2003
3200
0310
,
1001
1000
0001
1000
,
0110
0000
0000
0110
0000
0000
0000
0000
,
2000
0000
0100
3010
,
0002
0000
1000
0103
,
0200
0000
0010
0301
,
0020
0000
1000
0130
,
1000
0000
0000
0000
,
1001
1010
0101
0110
,
1000
0000
0001
0002
0000
0000
0003
0000
,
1000
0100
0010
0001
,
0001
0000
0000
0100
,
0110
0000
1000
0001
0000
0000
0001
0000
,
0010
0000
0000
0200
0000
0000
0000
0000
,
0301
0001
1000
1000
,
2000
3001
0200
0310
,
0002
1003
0020
1030
,
0110
1000
1001
1000
,
1000
0000
0010
0100
0000
0010
0000
0000
,
0101
0010
0100
1010
,
0110
0000
0000
1000
,
0101
0000
0001
0000
0100
0010
0100
0000
,
1010
0000
1100
0000
1000
0100
1000
0000
,
1001
0000
0100
0000
0010
0001
0010
0000
,
1010
0000
0101
0000
0100
0010
0100
0000
,
0110
0000
1001
0000
0100
0010
0100
0000
,
0101
0000
0011
0000
1000
0010
1000
0000
,
2000
3010
0200
0301
,
0010
0000
0100
0010
0000
0100
0000
0000
,
1001
0000
0010
1000
0000
0000
1000
0000
,
1001
0000
0000
1010
0000
0000
0000
0000
,
1001
0101
0011
0001
,
1001
1010
1100
1000
,
1001
0100
0010
0100
,
0110
0000
0000
0010
,
1001
0000
1100
0000
0100
0010
0100
0000
,
0101
0000
0110
0000
0100
0010
0100
0000
,
1010
0000
0101
0000
0100
0010
0100
0000
,
0110
0000
1001
0000
0100
0010
0100
0000
,
0002
0000
1003
0000
1000
0010
1000
0000
,
0200
0000
0310
0000
0100
0010
0100
0000
,
0020
0000
0130
0000
0001
1000
0001
0000
,
1001
0000
0110
1010
,
0110
0000
0101
0000
0100
0010
0100
0000
,
0110
0000
1001
0000
0100
0010
0100
0000
,
1010
0000
1100
0000
1000
0100
1000
0000
,
0101
0000
0011
0000
0001
0010
0001
0000
,
2000
0000
3100
0000
0010
0001
0010
0000
,
0002
0000
0013
0000
0100
1000
0100
0000
,
0020
0000
0130
0000
0100
0010
0100
0000
,
2000
3020
0230
0302
,
1003
0000
1000
0000
1000
0001
1000
0000
,
0110
0000
0000
1010
0000
0000
0000
0000
,
1000
0001
1000
0000
0100
0000
0010
0000
,
0001
0100
0001
0000
0010
0000
0100
0000
,
0100
0010
0100
0000
1000
0000
0010
0000
,
0110
2020
0000
0000
,
0000
0000
0000
0000
,
3030
0000
0000
0000
;

//---------------dance-single - ----------------
#NOTEDATA:;
#CHARTNAME:;
#STEPSTYPE:dance-single;
#DESCRIPTION:;
#CHARTSTYLE:;
#DIFFICULTY:Hard;
#METER:7;
#RADARVALUES:0.380806,0.423026,0.325962,0.115898,0.032596,368.000000,323.000000,45.000000,16.000000,0.000000,0.000000,0.000000,0.000000,0.000000,0.380806,0.423026,0.325962,0.115898,0.032596,368.000000,323.000000,45.000000,16.000000,0.000000,0.000000,0.000000,0.000000,0.000000;
#CREDIT:;
#NOTES:
0000
0000
0000
0000
,
0000
0000
0000
0000
,
0000
0000
0000
0000
,
0000
0000
0000
0000
,
1000
0010
1000
0000
0001
0100
0001
0000
,
0100
0010
0100
0000
1000
0001
1000
0000
,
0100
0010
0100
0000
0001
1000
0001
1000
,
0001
0000
0000
0000
0000
0000
0100
0010
,
0110
0000
1001
0000
1000
0010
1000
0100
,
1000
0000
0101
0000
0100
0010
1000
0010
,
0100
0000
0010
0100
0000
0100
0000
0101
,
0000
0000
0010
0000
0100
0000
0010
0100
,
1001
0000
0100
0000
0010
0100
0010
0000
,
1001
0000
1010
0000
1000
0010
1000
0000
,
0001
0000
0100
0000
0010
0001
0010
0000
,
2000
3020
0230
0302
,
1003
0000
1000
1000
0000
0000
1001
0000
,
0110
0000
0100
0010
0000
0010
0000
0000
,
1001
0000
0000
0000
1010
0000
0000
1000
0000
0000
0001
0000
0000
0000
0100
0000
,
0110
0000
0000
0000
0101
0000
0000
0100
0000
0000
1000
0000
0000
0000
0100
0000
,
0110
0000
0000
0000
1010
0000
0000
1000
0000
0000
1000
0000
0000
0000
0100
0000
,
0101
0000
0000
1000
,
0002
0000
0000
1003
,
0100
0010
0100
0001
,
0100
0000
0010
0200
0000
0000
0300
0000
,
1000
0010
0100
0000
0010
0000
0100
0000
,
0020
0000
0000
1030
,
0100
0000
0001
0100
0000
0000
0010
0000
,
0100
0000
0010
2000
0000
0000
0000
0000
,
3001
0001
0001
0001
,
2000
3010
0200
0310
,
0002
1003
0020
1030
,
0100
0010
0100
0000
0001
0100
0010
0000
,
1000
0010
0001
0010
0000
1000
0010
0200
,
0000
0001
0001
0301
,
0101
0000
0000
0000
0000
0000
0010
0100
,
0110
0000
0001
0000
1000
0010
0100
0001
,
0010
0000
0100
0000
0010
0100
0010
0001
,
0010
0000
1000
0000
0010
0100
0010
0001
,
0010
0000
0010
0000
1000
0010
1000
0100
,
1001
0000
0100
0001
0100
0001
0010
0100
,
0010
0000
0100
0010
0000
0010
0000
0000
,
1000
0001
0100
0000
0010
0100
0001
0000
,
0010
0000
0010
1000
0000
1000
0000
0000
,
1001
0000
0100
0020
0000
0130
0100
0000
,
1001
0000
0110
0000
1000
0001
1000
0001
,
1000
0000
0000
0000
1000
0000
0000
0001
0000
0000
0001
0000
0000
0000
0001
0000
,
0010
0000
0000
0000
0100
0000
0000
1000
0000
0000
1000
0000
0000
0000
0100
0000
,
0010
0000
0000
0000
0010
0000
0000
0100
0000
0000
0100
0000
0000
0000
0001
0000
,
1001
0000
0000
0000
0000
0000
1000
0001
,
1001
0000
1010
0000
1000
0010
0100
0001
,
0001
0000
0110
0000
0100
0010
0100
0001
,
0010
0000
1000
0010
0000
0010
0000
0010
,
0000
0000
0100
0000
0010
0000
0001
1000
,
1001
0000
0110
0000
0100
0010
0100
0001
,
0010
0000
1010
0000
0100
0010
0100
0010
,
0100
0000
0001
1000
0000
1000
0000
1000
,
0000
0000
0100
0000
0010
0000
0100
0010
,
0110
0000
1010
0000
0001
0100
0001
0010
,
0001
0000
0011
0000
1000
0010
0100
0010
,
0100
0000
0010
0010
0000
0010
0000
1000
,
0000
0000
0000
0000
0110
0000
0010
0100
,
0110
0000
1001
0000
0100
1000
0100
0010
,
0100
0000
0110
0000
0001
1000
0001
0100
,
0010
0000
0100
0100
0000
0000
0001
0000
,
1000
0000
0010
0100
0000
0100
0000
0000
,
0001
0000
0100
0010
0000
0000
1001
0000
,
1010
0000
1000
0001
0000
0001
0000
1000
,
0110
0000
0000
0000
0101
0000
0000
0010
0000
0000
0010
0000
0000
0000
0100
0000
,
0110
0000
0000
0000
0001
0000
0000
0001
0000
0000
1000
0000
0000
0000
1000
0000
,
1001
0000
0000
0000
0101
0000
0000
0001
0000
0000
0001
0000
0000
0000
0100
0000
,
0110
2002
0000
0000
,
0000
0000
0000
0000
,
3003
0000
0000
0000
;

//---------------pnm-five - ----------------
#NOTEDATA:;
#CHARTNAME:;
#STEPSTYPE:pnm-five;
#DESCRIPTION:;
#CHARTSTYLE:;
#DIFFICULTY:Beginner;
#METER:1;
#RADARVALUES:0.117967,0.211513,0.130385,0.217308,0.000000,114.000000,91.000000,18.000000,30.000000,0.000000,5.000000,0.000000,0.000000,0.000000,0.117967,0.211513,0.130385,0.217308,0.000000,114.000000,91.000000,18.000000,30.000000,0.000000,5.000000,0.000000,0.000000,0.000000;
#CREDIT:;
#NOTES:
01010
00000
00000
00000
,
00000
00000
00000
00000
,
01010
00000
00000
00000
,
00000
00000
00000
00000
,
10000
00000
00000
00000
,
00100
00000
00000
00000
,
10000
00000
00000
00000
,
00010
00000
00000
00000
,
00202
00000
00000
00303
,
00000
00000
00000
00000
,
20200
00000
00000
30300
,
00000
00000
00000
00000
,
01000
00000
00010
00000
,
01000
00000
00000
00000
,
00010
00000
10000
00000
,
00020
00000
00000
00030
,
10000
00000
00000
00000
,
00100
00000
01000
00000
,
00200
00000
00000
00000
,
00300
00000
00000
00000
,
20020
00000
00000
00000
,
30030
00000
00000
00000
,
10100
00000
00000
00000
,
00001
00000
00100
00000
,
00002
00000
20003
00000
,
30001
00000
00000
00000
,
01100
00000
00000
00000
,
00010
00000
01000
00000
,
00020
00000
00000
00030
,
10000
00000
00000
00000
,
10000
00000
00100
00000
,
01000
00000
00010
00000
,
00100
00000
00000
00000
,
00001
00000
10000
00000
,
10101
00000
00000
00000
,
10101
00000
00000
00000
,
00010
00000
02000
00000
,
03010
00000
00000
00000
,
00100
00000
20000
00000
,
30010
00000
00000
00000
,
00001
00000
00100
00000
,
00001
00000
00100
00000
,
10000
00000
00010
00000
,
10000
00000
00010
00000
,
00100
00000
00100
00000
,
10100
00000
00000
00000
,
20202
00000
00000
30303
,
00000
00000
00000
00000
,
20200
00000
00000
30300
,
00000
00000
00000
00000
,
10000
00000
00002
00000
,
10003
00000
00000
00000
,
00100
00000
02000
00000
,
03010
00000
00000
00000
,
10000
00000
00100
00000
,
00001
00000
00100
00000
,
10000
00000
00001
00000
,
10001
00000
00000
00000
,
00010
00000
20000
00000
,
30001
00000
00100
00000
,
10000
00000
00200
00000
,
10300
00000
00000
00000
,
00001
00000
00010
00000
,
00100
00000
01000
00000
,
10000
00000
00100
00000
,
10000
00000
00001
00000
,
10001
00000
00000
00000
,
01010
00000
00000
00000
,
20202
00000
00000
00000
,
30303
00000
00000
00000
,
02020
00000
00000
00000
,
03030
20202
00000
00000
,
00000
00000
00000
00000
,
30303
00000
00000
00000
;

//---------------pnm-nine - ----------------
#NOTEDATA:;
#CHARTNAME:;
#STEPSTYPE:pnm-nine;
#DESCRIPTION:;
#CHARTSTYLE:;
#DIFFICULTY:Beginner;
#METER:1;
#RADARVALUES:0.135559,0.237952,0.210064,0.246282,0.000000,131.000000,91.000000,29.000000,34.000000,0.000000,11.000000,0.000000,0.000000,0.000000,0.135559,0.237952,0.210064,0.246282,0.000000,131.000000,91.000000,29.000000,34.000000,0.000000,11.000000,0.000000,0.000000,0.000000;
#CREDIT:;
#NOTES:
010101000
000000000
000000000
000000000
,
000000000
000000000
000000000
000000000
,
010101000
000000000
000000000
000000000
,
000000000
000000000
000000000
000000000
,
100000000
000000000
000000000
000000000
,
001000000
000000000
000000000
000000000
,
000010000
000000000
000000000
000000000
,
000100000
000000000
000000000
000000000
,
002020200
000000000
000000000
003030300
,
000000000
000000000
000000000
000000000
,
202000020
000000000
000000000
303000030
,
000000000
000000000
000000000
000000000
,
000000001
000000000
000100010
000000000
,
010100000
000000000
000000000
000000000
,
000100000
000000000
100000000
000000000
,
000202020
000000000
000000000
000303030
,
100000000
000000000
000000000
000000000
,
001000000
000000000
000000010
000000000
,
000000200
000000000
000000000
000000000
,
000000300
000000000
000000000
000000000
,
000200002
000000000
000000000
000000000
,
000300003
000000000
000000000
000000000
,
101010000
000000000
000000000
000000000
,
000010000
000000000
000000100
000000000
,
000020000
000000000
200030000
000000000
,
300010000
000000000
000000000
000000000
,
001000010
000000000
000000000
000000000
,
000100000
000000000
010000000
000000000
,
000200000
000000000
000000000
000300000
,
100010000
000000000
000000000
000000000
,
100010000
000000000
001000000
000000000
,
010000000
000000000
000100000
000000000
,
000000001
000000000
000000000
000000000
,
000010100
000000000
100000000
000000000
,
101010000
000000000
000000000
000000000
,
101010000
000000000
000000000
000000000
,
000100000
000000000
020000000
000000000
,
030100000
000000000
000000000
000000000
,
001000000
000000000
200000000
000000000
,
300100000
000000000
000000000
000000000
,
000010000
000000000
000000100
000000000
,
000010000
000000000
001000000
000000000
,
100000000
000000000
000100000
000000000
,
000000010
000000000
000100000
000000000
,
000000010
000000000
001000000
000000000
,
101000000
000000000
000000000
000000000
,
002020002
000000000
000000000
003030003
,
000000000
000000000
000000000
000000000
,
202000000
000000000
000000000
303000000
,
000000000
000000000
000000000
000000000
,
000000010
000000000
000020000
000000000
,
100030000
000000000
000000000
000000000
,
001000100
000000000
020000000
000000000
,
030100000
000000000
000000000
000000000
,
100010000
000000000
001000000
000000000
,
000010000
000000000
000000100
000000000
,
100000001
000000000
000010000
000000000
,
000010001
000000000
000000000
000000000
,
000100000
000000000
200000000
000000000
,
300010000
000000000
001000000
000000000
,
100000000
000000000
002000000
000000000
,
103000000
000000000
000000000
000000000
,
000010000
000000000
000101000
000000000
,
001000000
000000000
000101000
000000000
,
100000000
000000000
001000000
000000000
,
000000100
000000000
000010000
000000000
,
000010100
000000000
000000000
000000000
,
010100000
000000000
000000000
000000000
,
202020000
000000000
000000000
000000000
,
303030000
000000000
000000000
000000000
,
000202000
000000000
000000000
000000000
,
000303000
002020200
000000000
000000000
,
000000000
000000000
000000000
000000000
,
003030300
000000000
000000000
000000000
;

//---------------pnm-five - ----------------
#NOTEDATA:;
#CHARTNAME:;
#STEPSTYPE:pnm-five;
#DESCRIPTION:;
#CHARTSTYLE:;
#DIFFICULTY:Easy;
#METER:3;
#RADARVALUES:0.294918,0.370148,0.434616,0.202821,0.000000,285.000000,209.000000,60.000000,28.000000,0.000000,17.000000,0.000000,0.000000,0.000000,0.294918,0.370148,0.434616,0.202821,0.000000,285.000000,209.000000,60.000000,28.000000,0.000000,17.000000,0.000000,0.000000,0.000000;
#CREDIT:;
#NOTES:
10110
00000
00010
01000
,
10110
00000
01000
00010
,
10101
00000
01000
00100
,
10101
00000
00010
01000
,
10110
01000
01000
01000
,
00101
00100
00100
00100
,
10100
01000
01000
01000
,
10001
00000
00000
00000
,
10100
00000
02000
00100
,
03001
00000
10000
00100
,
10000
01000
00100
00000
,
10000
00000
20000
32000
,
03100
10000
00010
00100
,
10010
01000
01000
00100
,
00002
00000
10003
00000
,
02020
00000
00000
03030
,
10000
00100
10000
00000
,
00010
01000
00010
01000
,
00101
01000
00100
00000
,
10110
01000
00100
00000
,
10100
10000
00100
00000
,
10101
00000
00000
00000
,
11010
00000
00000
00000
,
10000
00100
00001
00100
,
10000
00000
00010
01000
00000
00000
00000
00000
,
00000
00000
00100
10000
,
10100
00000
00000
00000
,
10000
00000
00010
00010
00000
00000
10000
00000
,
10100
00000
22020
00000
,
33030
00000
00000
00000
,
20000
32000
03200
00320
,
00031
00000
10000
00000
,
10100
01000
00010
01000
,
10101
00000
00000
00000
,
10110
00000
00000
00000
,
10101
00000
00000
10010
,
01100
00000
00002
00100
,
10003
01010
10000
01010
,
00100
10000
00100
01000
,
10100
00000
10000
00100
,
10100
01000
01000
00010
,
01000
00100
10000
00100
,
10100
01010
10100
01010
,
00101
00000
10000
00100
,
02000
00000
03010
00000
,
20002
00000
30003
00000
,
10110
01000
01000
01000
,
10101
00010
00010
00010
,
01100
00100
00100
00100
,
10100
00000
00000
00000
,
20000
30101
00100
00010
,
00100
01000
00100
10000
,
01010
00100
00010
00100
,
10100
00000
10000
01000
,
01010
00001
00100
00001
,
10100
01000
00010
01000
,
01100
10000
00100
10000
,
00010
00000
10000
01000
,
10101
00000
02000
00100
,
03010
10000
00100
10000
,
01010
10100
01000
00010
,
01000
00000
10000
01000
,
10100
01000
00100
01000
,
01010
00100
00001
00100
,
00110
01010
10010
00000
,
10000
00100
10000
01000
,
10100
00010
01000
00000
,
10100
00000
00000
00000
,
02020
00000
03030
00000
,
20200
00000
30300
00000
,
00202
00000
00303
00000
,
01010
20202
00000
00000
,
00000
00000
00000
00000
,
30303
00000
00000
00000
;

//---------------pnm-nine - ----------------
#NOTEDATA:;
#CHARTNAME:;
#STEPSTYPE:pnm-nine;
#DESCRIPTION:;
#CHARTSTYLE:;
#DIFFICULTY:Easy;
#METER:3;
#RADARVALUES:0.337345,0.502343,0.644680,0.231795,0.000000,326.000000,210.000000,89.000000,32.000000,0.000000,32.000000,0.000000,0.000000,0.000000,0.337345,0.502343,0.644680,0.231795,0.000000,326.000000,210.000000,89.000000,32.000000,0.000000,32.000000,0.000000,0.000000,0.000000;
#CREDIT:;
#NOTES:
101100000
000000000
000100000
000000010
,
000001011
000000000
000000010
000001000
,
101010000
000000000
010000000
001000000
,
101010000
000000000
000100000
000010000
,
100010100
010000000
010000000
010000000
,
001010001
001000000
001000000
001000000
,
101010000
000001000
000001000
000001000
,
010101000
000000000
000000000
000100000
,
101000000
000000000
020000000
001000000
,
030010000
000000000
000000001
000000100
,
101000000
010000000
001000000
000000100
,
000000100
000000000
020000000
030020000
,
001030000
100000000
010000000
001000000
,
100100000
000000010
000000010
000000000
,
000000200
101000000
101000300
000000000
,
020200020
000000000
000000000
030300030
,
100000000
001000000
000010100
000000000
,
000100000
000000010
000100010
000000000
,
001011000
010100000
001001000
000000000
,
101100000
010000000
001000000
000000000
,
101000000
100000000
001000000
000000000
,
001010001
000000000
000000000
000000000
,
100100100
000000000
000000000
000000000
,
100000001
001000100
000010000
001000100
,
100000001
000000000
001000000
000010000
000000000
000000000
000000000
000000000
,
000000000
000000000
001000000
010000000
,
101000000
000000000
000000000
000000000
,
100000000
000000000
001100000
001100000
000000000
000000000
000010000
000000000
,
000001100
000000000
020200020
000000000
,
030300030
000000000
000000000
000000000
,
200000000
302000000
003020000
000030200
,
000000301
000000000
100000000
000000000
,
101000000
000010000
000000010
010000000
,
101010000
000000000
000000000
000000000
,
010101000
000000000
000000000
000000000
,
101010000
000000000
000000000
100100000
,
011000000
000000000
000020000
001000000
,
101030000
010100000
100000000
010100000
,
000000100
100000100
001000000
010000000
,
101000000
000000000
000000001
001000100
,
101000000
010000000
000000010
000100000
,
010000000
000000100
000000001
001000000
,
001000001
010100000
101000000
010100000
,
001010000
000000000
100000001
001000000
,
020000000
000000000
030101000
000000000
,
200020000
000000000
300030000
000000000
,
101010000
010000010
010000010
010000010
,
101010000
000101000
000101000
000101000
,
001000000
000001000
001000000
000001000
,
101000000
000000000
000000000
000000000
,
200000000
301010000
000000010
000100000
,
001000010
010000000
001000010
100000000
,
010100000
001000000
000100000
000000100
,
101000100
000000000
100000000
010000000
,
010100010
000010000
000000100
000010000
,
001000100
010000000
000100000
010000000
,
001000010
100000000
001000000
100000000
,
000100000
000000000
000000100
000010000
,
101010000
000000000
020000000
001000000
,
030100000
100000000
000001000
100000000
,
010100000
101000000
010000000
000100000
,
000000010
000000000
100000000
001000000
,
101000000
000000010
001000000
010000010
,
010100000
001000000
000010000
001000000
,
001100000
010100000
100100000
000000000
,
100000000
001010000
100010000
010100000
,
101000000
000100000
010000000
000000000
,
001011000
000000000
000000000
000000000
,
020202000
000000000
030303000
000000000
,
202200000
000000000
303300000
000000000
,
002022000
000000000
003033000
000000000
,
010100000
200020200
000000000
000000000
,
000000000
000000000
000000000
000000000
,
300030300
000000000
000000000
000000000
;

//---------------pnm-five - ----------------
#NOTEDATA:;
#CHARTNAME:;
#STEPSTYPE:pnm-five;
#DESCRIPTION:;
#CHARTSTYLE:;
#DIFFICULTY:Medium;
#METER:5;
#RADARVALUES:0.383911,0.502343,0.659167,0.188333,0.000000,371.000000,275.000000,91.000000,26.000000,0.000000,10.000000,0.000000,0.000000,0.000000,0.383911,0.502343,0.659167,0.188333,0.000000,371.000000,275.000000,91.000000,26.000000,0.000000,10.000000,0.000000,0.000000,0.000000;
#CREDIT:;
#NOTES:
10100
00000
01000
00010
,
00001
00000
00100
01000
,
10100
00000
10000
00100
,
01010
00000
00010
00100
,
10100
00000
01000
00000
00010
10000
00010
10000
,
00010
00000
01000
00000
00001
01000
00001
01000
,
00001
00000
00100
00000
01000
00100
01000
00100
,
01000
00000
00000
10100
,
01010
00000
10000
00200
10000
00000
10000
00000
,
10300
10100
01010
00101
,
10000
00100
10000
00000
01000
00000
00100
00000
,
00101
00000
10000
01000
,
00100
00000
00010
20000
00100
00000
00100
00000
,
30100
10100
01010
00101
,
10000
00000
00100
00101
00000
00000
10100
00000
,
01000
00100
00010
00001
,
10000
00000
01010
01010
00000
00000
10001
00000
,
01000
00100
01000
00000
,
10100
01010
10100
00000
,
00101
01010
00101
00000
,
10100
01010
10100
00000
,
10101
00000
00000
00000
,
10110
00000
00000
00000
,
00001
10000
00001
00000
01000
00000
00100
00000
,
01000
00000
00010
00020
00000
00000
00000
00000
,
10030
00000
10000
00100
,
10110
00000
00000
10000
,
00010
00000
01000
00010
00000
00000
10100
00000
,
01010
00000
00100
20200
00000
00000
00000
00000
,
30301
00000
00000
00000
,
20000
30100
00020
01030
,
00200
01300
00002
10003
,
01100
00000
10010
00000
,
10000
00100
10000
00000
00010
00000
01000
00000
,
00020
10000
10000
10000
,
10030
00000
00000
10100
,
01010
00000
00100
20000
00100
00000
00010
00000
,
30001
01100
10100
01000
,
00010
00000
10000
00100
,
01010
00000
00100
00010
,
00001
00000
10000
02000
00010
00000
00100
00000
,
03010
00100
10000
00000
00010
01000
00010
00000
,
00100
01000
10000
01000
,
20000
30100
00200
10300
,
01010
00100
01010
00100
,
10000
00000
00010
00020
00000
00000
10000
00000
,
10030
10100
10100
10100
,
10010
00101
00101
00101
,
01100
01010
01010
01010
,
10110
00000
00000
10000
,
01010
00000
01000
00200
10000
00000
10000
00000
,
10300
00000
00000
00000
10000
00010
10000
00010
,
01100
10100
01000
00010
,
01000
00000
00000
00000
10000
00100
10000
00100
,
10000
00000
01010
00020
10000
00000
10000
00000
,
00130
10100
01100
01010
,
00101
00000
01000
00100
01000
00000
00010
01000
,
00010
00000
01000
00100
,
10100
00000
10100
00020
00100
00000
01000
00000
,
10030
01000
00100
01010
,
00100
10000
00010
00000
00001
01000
00100
00000
,
01000
00000
01000
00010
,
10100
00000
00010
00002
10100
00000
10100
00000
,
10103
01100
10010
10001
,
01100
00000
10000
00100
00000
00000
10100
00000
,
20000
30100
00200
10300
,
01010
00000
10100
20200
00000
00000
30301
00000
,
01000
00100
01000
00000
,
10010
10100
10100
10100
,
10001
00101
00101
00101
,
01100
10010
10010
10010
,
10100
20202
00000
00000
,
00000
00000
00000
00000
,
30303
00000
00000
00000
;

//---------------pnm-five - ----------------
#NOTEDATA:;
#CHARTNAME:;
#STEPSTYPE:pnm-five;
#DESCRIPTION:;
#CHARTSTYLE:;
#DIFFICULTY:Hard;
#METER:8;
#RADARVALUES:0.498773,0.608100,0.818526,0.210064,0.115898,482.000000,362.000000,113.000000,29.000000,0.000000,9.000000,0.000000,0.000000,0.000000,0.498773,0.608100,0.818526,0.210064,0.115898,482.000000,362.000000,113.000000,29.000000,0.000000,9.000000,0.000000,0.000000,0.000000;
#CREDIT:;
#NOTES:
10100
00000
00000
00000
01000
00010
01000
00010
,
01000
00000
00000
00000
00100
01000
00010
01000
,
00010
00000
00000
00000
00001
01000
00001
01000
,
01010
00000
00000
00000
01000
00100
01000
00100
,
10100
00000
00000
00000
10100
00000
00000
10100
00000
00000
10100
00000
00000
00000
01010
00000
,
01010
00000
00000
00000
01010
00000
00000
01010
00000
00000
01010
00000
00000
00000
00011
00000
,
00011
00000
00000
00000
00011
00000
00000
00011
00000
00000
00011
00000
00000
00000
10100
00000
,
11000
00000
00000
00000
00000
00000
00000
00001
10000
00001
10000
00001
10000
00001
10000
00001
,
10000
00000
10000
00200
10000
00000
10300
00000
,
10010
00000
10000
00100
10000
00100
01001
00000
,
10000
00100
10000
00010
00000
00100
00000
10110
,
00000
00000
00000
00000
10000
00000
01000
00100
,
01000
00000
00010
20000
00100
00000
30010
00000
,
01001
00000
10100
00100
00000
01000
00000
00000
,
10000
00000
00100
00101
00000
10100
10100
00000
,
01000
00000
00100
01000
00000
00100
00000
00010
,
10000
00000
01010
01010
00000
00000
10001
00000
,
01000
00100
01000
00000
,
10100
00000
00000
00000
01010
00000
00000
00101
00000
00000
01010
00000
00000
00000
01000
00000
,
00101
00000
00000
00000
01010
00000
00000
00101
00000
00000
10100
00000
00000
00000
01000
00000
,
10100
00000
00000
00000
01010
00000
00000
10100
00000
00000
10100
00000
00000
00000
10101
00000
,
10101
00000
00000
10000
,
20220
00000
00000
00000
30330
00000
00000
10000
,
00001
10000
00001
10000
00010
01000
00010
01000
,
00100
00000
01010
02020
00000
00000
00000
00000
,
03030
00000
10000
00100
,
20220
00000
00000
30330
00000
00000
10000
00000
,
00010
00000
01100
01010
00000
00000
10100
00000
,
01010
00000
00100
20200
00000
00000
00000
00000
,
30301
00001
00001
00001
,
20000
31000
02000
03100
,
00200
00000
00000
00000
00310
00000
00000
00000
00020
00000
00000
00000
00031
00000
10000
00100
,
00001
00000
00000
10010
10010
00000
00000
00000
,
10000
00100
10000
00100
10000
00100
10000
00000
,
00020
00000
00000
00000
10000
00000
00000
00100
00000
00000
10000
00000
00000
00000
00100
00000
,
10030
00000
00000
00000
00000
00000
00000
01000
00100
01000
00100
01000
00100
01000
00100
01000
,
00100
00000
00100
20000
00100
00000
00010
00000
,
30001
00000
10000
00100
10100
10000
10100
00000
,
00010
10000
00100
10000
00000
00100
00000
00001
,
01010
00000
10100
00000
00100
10000
00100
10000
,
10001
00000
10000
02000
00010
00000
00100
00000
,
03010
00100
10000
00000
00010
01000
00010
00101
,
00101
00000
01010
01010
00000
10000
00010
00000
,
10000
01000
00100
00000
00001
00100
10000
00000
,
01010
00000
01010
01010
00000
00000
10100
00000
,
10000
00000
00010
00020
00000
00000
10000
00000
,
10030
00000
00000
00000
00110
00000
00000
00110
00000
00000
00110
00000
00000
00000
10010
00000
,
10010
00000
00000
00000
10010
00000
00000
10010
00000
00000
10010
00000
00000
00000
01100
00000
,
01100
00000
00000
00000
01100
00000
00000
01100
00000
00000
01100
00000
00000
00000
10000
00000
,
10110
00000
00000
00000
00000
00000
00000
01000
00010
01000
00010
01000
00010
01000
00010
01000
,
00010
00000
01000
00200
10000
00000
10000
00000
,
10300
00000
00000
00000
10000
00010
10000
00010
,
01100
00000
10100
10100
00000
01000
00000
00010
,
00000
00000
00010
00000
10000
00100
10000
00100
,
10000
00000
01010
00020
10000
00000
00100
00000
,
00130
00000
00100
00010
01000
10000
01010
00000
,
00101
00000
01000
00100
00000
00100
00000
00100
,
00000
00000
00000
00000
00010
00000
10000
00010
10000
00000
00010
00000
00100
00000
00100
00000
,
10100
00000
10100
00020
00100
00000
01000
00000
,
10030
00000
01000
00001
01000
00000
01010
00000
,
00100
10000
00010
00010
00000
01000
00000
00010
,
01010
00000
00000
00000
00000
00000
00100
10000
00100
00000
01000
00000
00100
00000
00000
00000
,
10100
00000
00000
00002
10000
00000
10000
00000
,
10003
00000
01100
01010
00000
01010
00000
00000
,
01100
00000
10000
00100
00000
00100
10000
00000
,
10000
01000
00100
00000
00100
01000
10000
00000
,
01010
00000
10100
20200
00000
00000
30301
00000
,
01000
00000
00010
00000
00100
00000
01000
00000
00000
00000
01000
00000
00000
00000
10000
00100
,
00010
00000
00000
00000
10100
00000
00000
10100
00000
00000
10100
00000
00000
00000
10010
00000
,
10010
00000
00000
00000
10010
00000
00000
10010
00000
00000
10010
00000
00000
00000
01100
00000
,
01100
00000
00000
00000
01100
00000
00000
01100
00000
00000
01100
00000
00000
00000
10000
00000
,
00100
20202
00000
00000
,
00000
00000
00000
00000
,
30303
00000
00000
00000
;

//---------------pnm-nine - ----------------
#NOTEDATA:;
#CHARTNAME:;
#STEPSTYPE:pnm-nine;
#DESCRIPTION:;
#CHARTSTYLE:;
#DIFFICULTY:Medium;
#METER:6;
#RADARVALUES:0.428407,0.687417,0.775065,0.239039,0.000000,414.000000,285.000000,107.000000,33.000000,0.000000,28.000000,0.000000,0.000000,0.000000,0.428407,0.687417,0.775065,0.239039,0.000000,414.000000,285.000000,107.000000,33.000000,0.000000,28.000000,0.000000,0.000000,0.000000;
#CREDIT:;
#NOTES:
101010000
000000000
000001000
000100000
,
000010100
000000000
001000000
000000100
,
000010101
000000000
100000000
001000000
,
000100010
000000000
000100000
000000010
,
000010100
000000000
000100000
000000000
000100000
100000000
000100000
100000000
,
000100000
000000000
000000100
000000000
000010000
000000010
000010000
000000010
,
000010000
000000000
001000100
000000000
000000010
000001000
000000010
000001000
,
000000010
000000000
000000000
000000000
000000000
000000000
010000000
001000000
,
000100000
000000000
100000000
002000000
000010000
000000000
000001000
000000000
,
003000010
101000000
000101000
000010100
,
100000000
000000010
100000000
000000000
010000000
000010000
001000000
000000000
,
000010100
000000000
101000000
010100000
,
001010000
000000000
000100000
200000000
010000000
000000000
001000000
000000000
,
300100000
101000000
010100000
001010000
,
000000001
000000000
001000000
001010100
000000000
000000000
000010101
000000000
,
010000000
000100000
000000010
000000000
000100000
000100000
000010000
000000000
,
000001010
000000000
010100000
010100000
000000000
000000000
100010000
000000000
,
010000000
001000000
000100000
000000000
,
101000000
010100000
101000000
000000000
,
001010000
010100000
001010000
000000000
,
000000101
000001010
000000101
000000000
,
001010001
000000000
000000000
000000000
,
202200000
000000000
303300000
000000000
,
000010000
100000000
000010000
000000000
010000000
000000000
001000000
000000000
,
010000000
000000000
000100100
000200200
000000000
000000000
000000000
000000000
,
100300300
000000000
100000000
001000000
,
002200002
000000000
003300003
100001000
,
000100000
000000000
010000000
000100000
000000000
000000000
101000000
000000000
,
010100000
000000000
001000000
202000000
000000000
000000000
000000000
000000000
,
303010000
000001000
000000100
000000010
,
200000000
301000000
000200000
000300010
,
002000000
003000100
000020000
100030000
,
011000000
000000000
100100000
000000000
,
000000001
001000000
000000001
000000000
000100000
000000000
010000000
000000000
,
000201000
000001000
000001000
000001000
,
000301000
000000000
000000000
101000000
,
010100010
000000000
001000000
200000000
001000000
000000000
000100000
000000000
,
300010000
001000010
001000010
010000000
,
000100000
000010000
100000000
001000000
,
010100010
000000000
001010000
000101000
,
000010100
000000000
100000000
020000000
000100000
000000000
001000000
000000000
,
030100000
001000000
100000000
000000000
000100000
010000000
000100000
000000000
,
001000000
000100000
100010000
010000000
,
200000000
300000001
002000000
003001000
,
000001010
000000101
000001010
001010000
,
101000000
000000000
000100000
000200000
000000000
000000000
100000000
000000000
,
100300000
101000000
101000000
101000000
,
100100000
001010000
001010000
001010000
,
011000000
010100000
010100000
010100000
,
100101000
000000000
000000000
000000000
000000000
000000000
100000000
000010000
,
000101000
000000000
010000000
002000000
000000001
000000000
000000001
000000000
,
003000001
000000000
000000000
000000000
100000000
000100000
100000000
000100000
,
011000000
101000001
000001000
000100000
,
010000000
000000000
000000000
000000000
100000000
001000000
100000000
001000000
,
100000000
000000000
010100000
000200000
000010000
000000000
000010000
000000000
,
000310000
000000101
000000110
010101000
,
001010100
000000000
000000001
000001000
000000001
000000000
000100000
000000010
,
000100000
000000000
010000000
001000000
,
000000101
000000000
000000101
000200000
000001000
000000000
000001000
000000000
,
000301000
010000000
001000000
000100010
,
001001000
100000000
000100000
000000000
000010000
000000001
001000000
000000000
,
000000010
000001000
010000000
000100000
,
001000100
000000000
000100000
000020000
101000000
000000000
101000000
000000000
,
101030000
010000100
100100000
100010000
,
001000010
000000000
000000001
001000000
000000000
000000000
001000001
000000000
,
200000000
301000000
002000000
003000010
,
000100010
000000000
101000000
202000000
000000000
000000000
303010000
000000000
,
000000010
000100000
010000000
000000000
,
100100100
101000000
101000000
101000000
,
100010000
001010001
001010001
001010001
,
001010000
100100010
100100010
100100010
,
001010001
002020002
000000000
000000000
,
000000000
000000000
000000000
000000000
,
003030003
000000000
000000000
000000000
;

//---------------pnm-nine - ----------------
#NOTEDATA:;
#CHARTNAME:;
#STEPSTYPE:pnm-nine;
#DESCRIPTION:;
#CHARTSTYLE:;
#DIFFICULTY:Hard;
#METER:8;
#RADARVALUES:0.586731,0.713856,0.919937,0.239039,0.166603,567.000000,400.000000,127.000000,33.000000,0.000000,50.000000,0.000000,0.000000,0.000000,0.586731,0.713856,0.919937,0.239039,0.166603,567.000000,400.000000,127.000000,33.000000,0.000000,50.000000,0.000000,0.000000,0.000000;
#CREDIT:;
#NOTES:
101010000
000000000
000000000
000000000
000000010
000100000
000000010
000100000
,
000000010
000000000
000000000
000000000
000010000
001000000
000010000
001000000
,
000101000
000000000
000000000
000000000
000010000
010000000
000010000
010000000
,
000101010
000000000
000000000
000000000
000000100
001000000
000000100
000000000
,
001010001
000000000
000000000
000000000
001010000
000000000
001000000
000010000
000000000
000010000
001000000
000000000
000000000
000000000
010100010
000000000
,
010100010
000000000
000000000
000000000
010100000
000000000
000000010
000100000
000000000
000000010
000100000
000000000
000000000
000000000
000110010
000000000
,
000110010
000000000
000000000
000000000
000110000
000000000
000000010
000010000
000000000
000000010
000010000
000000000
000000000
000000000
100101000
000000000
,
100101000
000000000
000000000
000000000
000000000
000000000
000000000
000010000
000000100
000010000
000000100
000010000
000000100
000010000
000000100
000010000
,
000000100
000000000
101000000
202000000
000010000
000000000
303010000
000000000
,
100100000
000000000
100000000
001000000
000010000
001000000
000010000
000000000
,
101000000
001000000
100000000
000000100
000000000
000010100
000000000
001010100
,
000000000
000000000
000000000
000000000
000000000
000000000
000000001
010000000
000000001
000000000
000100000
000000000
010000000
000000000
000100000
000000000
,
010010000
000000000
000100000
200000000
001000000
000000000
300100000
000000000
,
000010100
000000000
000001100
000001100
000000000
010010000
000000000
000000000
,
100100000
000000000
001000000
001010100
000000000
101001000
101001000
000000000
,
010000000
000001000
010000000
000000000
000010000
001000000
000010000
000100000
,
100000000
000000000
010100010
010100010
000000000
100010000
100010000
000000000
,
010000000
000010000
001000000
000000000
010000000
000000100
000010000
000000000
,
101000000
000000000
000000000
000000000
010100000
000000000
010000000
000100000
000000000
010000000
000100000
000000000
000000000
000000000
010100000
000000000
,
001010000
000000000
000000000
000000000
000101000
000000000
000100000
000001000
000000000
000100000
000001000
000000000
000000000
000000000
000101000
000000000
,
000010100
000000000
000000000
000000000
000010100
000000000
000010000
000000100
000000000
000010000
000000100
000000000
000000000
000000000
101010000
000000000
,
101010000
000000000
000000000
100000000
,
202200000
000000000
000000000
000000000
303300000
000000000
000000000
100000000
,
001000000
100000000
000010000
100000000
001000000
100000000
000010000
100000000
,
001000000
000000000
010100010
020200020
000000000
000000000
000000000
000000000
,
030300030
000000000
100000000
001000000
,
002200002
000000000
000000000
003300003
000000000
000000000
100000000
000000000
,
000100000
000000000
010101000
010100010
000000000
000000000
101000000
000000000
,
010100000
000000000
001000000
002020002
000000000
000000000
000000000
000000000
,
003030003
000100000
000010000
001000000
,
200000000
301000000
002000000
003010000
,
000020000
000000000
000000000
000000000
000030100
000000000
000000000
000000000
000000200
000000000
000000000
000000000
000000301
000000000
000000001
000000100
,
000010000
000000000
000000000
100100000
100100000
000100000
100000000
000000000
,
010000010
000101000
010000010
000101000
010000010
000101000
010000010
000000000
,
020100020
000000000
000000000
000000000
000100000
000000000
000000000
000100000
000000000
000000000
000100000
000000000
030000030
000000000
110000000
000000000
,
110000000
000000000
000000000
000000000
000000000
000000000
000000000
000000010
001000000
000000010
001000000
000000010
001000000
000000010
001000000
000000010
,
001000000
000000000
001000000
000000002
001000000
000000000
000010000
000000000
,
000010103
000000000
100000000
000000100
101000100
101000100
101000100
000000000
,
000100000
100000000
000000100
100000000
000000000
001010000
000000000
000010100
,
000010100
000000000
000000000
000000000
101000000
000000000
000000100
000010000
000000100
000000000
100000000
000000000
001000000
000000000
100000000
000000000
,
101010000
000000000
100000000
020000000
000100000
000000000
000000100
000000000
,
030100000
000010000
100000100
000000000
000100000
010000000
000100000
001010100
,
001010100
000000000
010101000
010101000
000000000
000000001
000100000
000000000
,
100000000
010000000
001000000
000000000
000010000
000000100
100000001
000000000
,
000100010
000000000
000100010
000100010
000000000
000000000
101000000
000000000
,
100000000
000000000
000100000
000200000
000000001
000000000
000000001
000000000
,
000300001
000000000
000000000
000000000
001100000
000000000
100000000
000100000
000000000
100000000
000100000
000000000
000000000
000000000
100100000
000000000
,
100100000
000000000
000000000
000000000
100100000
000000000
000010000
100000000
000000000
000010000
100000000
000000000
000000000
000000000
100010000
000000000
,
100010000
000000000
000000000
000000000
100010000
000000000
000100000
010000000
000000000
000100000
010000000
000000000
000000000
000000000
010100000
000000000
,
010100000
000000000
000000000
000000000
000000000
000000000
000000000
010000000
000100000
010000000
000100000
010000000
000100000
010000000
000100000
010000000
,
000100000
000000000
000000010
000000200
101000000
000000000
101000000
000000000
,
101000300
000000000
000100000
000000000
000000001
000100000
000000001
000100000
,
001000100
000000000
001010100
001010100
000000000
010000000
000000000
000100000
,
000000000
000000000
000101000
000000000
000100000
001000000
000100000
001000000
,
000100000
000000000
010100010
000000020
100000000
000000000
001000000
000000000
,
001000030
000000000
001000000
000100000
000010000
100000000
000010000
000000000
,
001010100
000000000
010000000
001000000
000000000
000000100
000000000
001000001
,
000000000
000000000
000000000
000000000
000100000
000000000
100000000
000100000
100000000
000000000
000100000
000000000
001000000
000000000
000000100
000000000
,
101000000
000000000
101000000
000200000
000010000
000000000
000001000
000000000
,
000300010
000000000
010000000
000010000
010000000
000000000
010100000
000000000
,
001000000
100000000
000100000
000100000
000000000
010000000
000000000
000100010
,
010100010
000000000
000000000
000000000
000000000
000000000
001000000
000000001
001000000
000000000
000010000
000000000
001000000
000000000
000000000
000000000
,
001001000
000000000
100000000
000020000
100000000
000000000
100000000
000000000
,
100030000
000000000
010010000
010100000
000000000
010010000
000000000
000000000
,
010000010
000000000
100000000
000000100
000000000
000000100
100000000
000000000
,
100000000
001000000
000010000
000000000
000010000
001000000
100000000
000000000
,
010101000
000000000
101000000
202000000
000000000
000000000
303010000
000000000
,
010000010
000000000
000101000
000000000
010000010
000000000
010000000
000000000
000000000
000000000
010000000
000000000
000000000
000000000
100000000
001000000
,
000010000
000000000
000000000
000000000
101000000
000000000
000010000
001000000
000000000
000010000
001000000
000000000
000000000
000000000
100100000
000000000
,
100100000
000000000
000000000
000000000
100100000
000000000
010000000
000100000
000000000
010000000
000100000
000000000
000000000
000000000
011000000
000000000
,
011000000
000000000
000000000
000000000
011000000
000000000
000000100
001000000
000000000
000000100
001000000
000000000
000000000
000000000
101000000
000000000
,
001010000
002020002
000000000
000000000
,
000000000
000000000
000000000
000000000
,
003030003
000000000
000000000
000000000
;
