#TITLE:AIR MAN;
#SUBTITLE:~Techno Remix~;
#ARTIST:TateMatsu;
#TITLETRANSLIT:;
#SUBTITLETRANSLIT:;
#ARTISTTRANSLIT:;
#GENRE:;
#CREDIT:caramelangel714;
#BANNER:AIR MAN ~Techno Remix~.png;
#BACKGROUND:AIR MAN ~Techno Remix~-bg.png;
#LYRICSPATH:;
#CDTITLE:;
#MUSIC:AIR MAN ~Techno Remix~.mp3;
#OFFSET:0.000000;
#SAMPLESTART:42.560009;
#SAMPLELENGTH:12.000000;
#SELECTABLE:YES;
#BPMS:0.000000=90.160004
,16.000000=180.880005
,96.000000=90.160004
,104.000000=180.880005
,144.375000=86.639999
,152.000000=180.880005
,272.375000=86.660004
,280.000000=90.400002
;
#STOPS:
;
#BGCHANGES:;
#KEYSOUNDS:;
#ATTACKS:;

//---------------dance-single - ----------------
#NOTES:
     dance-single:
     :
     Beginner:
     3:
     0.166924,0.230618,0.099935,0.053811,0.007687,152.000000,139.000000,13.000000,7.000000,0.000000,0.000000,0.166924,0.230618,0.099935,0.053811,0.007687,152.000000,139.000000,13.000000,7.000000,0.000000,0.000000:
0010
0000
0000
0000
,
0100
0000
0000
0000
,
0001
0000
0000
0000
,
1000
0000
0000
0000
,
0100
0000
0010
0000
,
0100
0000
0010
0000
,
1000
0000
0001
0000
,
1001
0001
0001
0000
,
1000
0000
0001
0000
,
0010
0000
0100
0000
,
1000
0000
0010
0000
,
1001
1000
1000
0000
,
0000
0100
0000
0100
,
0000
0100
0000
0100
,
0000
0010
0000
0010
,
0000
0010
0000
0010
,
0000
0100
0000
0100
,
0000
0100
0000
0100
,
0000
0010
0000
0010
,
0000
0010
0000
0010
,
0000
1000
0000
0001
,
0000
1000
0000
0001
,
0000
0100
0000
0010
,
0000
0100
0000
0010
,
0010
0000
1000
0000
,
1000
0000
0010
0000
,
0001
0000
0000
0000
,
0001
0000
1000
0000
,
2002
0000
3003
0000
,
0100
0000
0010
0000
,
0000
2000
0000
3001
,
0000
0001
0000
0001
,
1001
0000
0000
0000
,
1000
0000
0010
0000
,
0010
0000
0000
0000
,
0000
0000
0000
0000
,
0000
0000
0000
1001
0000
0000
0000
0000
0000
0000
0000
0000
0000
0000
0000
0000
0000
0000
0000
0000
0000
0000
0000
0000
0000
0000
0000
0000
0000
0000
0000
0000
,
0000
0000
0000
0000
,
1001
0000
0000
0000
,
0100
0000
0010
0010
,
0010
0000
1000
0000
,
0001
0100
0001
0000
,
1001
0000
0000
0000
,
0100
0000
0010
0100
,
0010
0000
0000
0000
,
1000
0000
0001
0000
,
0110
0000
0001
0000
,
1000
0000
0001
0000
,
0220
0000
0330
0000
,
1000
0000
0001
0000
,
0100
0000
0100
0000
,
0010
0000
0010
0000
,
0110
0000
1000
0001
,
1000
0000
0010
0000
,
0110
0000
0100
0000
,
0001
0100
0001
0000
,
0010
0000
0100
0000
,
0010
0000
1000
0010
,
1000
0000
0010
0000
,
0100
0000
0100
0000
,
0010
0000
0010
0000
,
1000
0000
0001
0000
,
0100
0000
0010
0000
,
0001
0000
0100
0000
,
0010
0100
0010
0000
,
0001
1000
0001
0000
,
0000
0000
0000
0000
,
0000
0000
0000
0000
,
0000
0000
0000
1001
0000
0000
0000
0000
0000
0000
0000
0000
0000
0000
0000
0000
0000
0000
0000
0000
0000
0000
0000
0000
0000
0000
0000
0000
0000
0000
0000
0000
,
0000
0000
0000
0000
,
1000
0010
1000
0000
,
0001
0001
1000
0000
,
0100
0010
0100
0000
,
0001
0001
0100
0000
,
0220
0000
0000
0000
,
0330
0000
0000
0000
;

//---------------dance-single - ----------------
#NOTES:
     dance-single:
     :
     Easy:
     4:
     0.287724,0.317100,0.169120,0.122996,0.007687,262.000000,240.000000,22.000000,16.000000,0.000000,0.000000,0.287724,0.317100,0.169120,0.122996,0.007687,262.000000,240.000000,22.000000,16.000000,0.000000,0.000000:
0010
0010
1000
0000
,
0100
0100
0001
0000
,
0010
0010
1000
0000
,
0100
0100
0001
0000
,
1001
0010
0100
0010
,
1000
0010
1000
0010
,
0100
0001
0100
0000
0100
0000
0001
0000
,
0100
0010
1000
0010
,
1010
0100
0001
0100
,
0010
0100
1000
0100
,
0010
0100
0010
0000
0100
0000
0010
0000
,
0100
0001
0100
0001
,
0110
0100
0010
0100
,
0001
0010
0100
1000
,
1001
0100
0010
0100
,
1000
0100
0010
0001
,
0101
0001
0100
0001
,
0010
0100
0001
1000
,
1010
1000
0010
0100
,
0001
0100
0010
1000
,
0110
0100
1000
0100
,
0001
0100
0001
0100
,
0110
0100
0001
0100
,
0001
0010
0100
0010
,
1000
1000
0001
0001
,
1000
1000
0001
0001
,
0100
0000
0100
0000
1000
0001
1000
0000
,
0100
0010
0010
0010
,
2000
0000
3001
0000
,
0001
0010
0100
1000
,
0000
1000
0010
0100
,
0010
0100
0001
0100
,
0002
0000
0013
0010
,
0100
0010
1000
0010
,
0110
0000
0000
0000
,
0000
0000
0000
0000
,
0000
0000
0000
2002
0000
0000
0000
0000
0000
0000
0000
0000
0000
0000
0000
0000
0000
0000
0000
0000
0000
0000
0000
0000
0000
0000
0000
0000
0000
0000
0000
0000
,
0000
0000
3003
0000
,
1000
0001
0110
0000
,
0010
0100
0010
0001
,
2002
0000
0000
3003
,
1000
0100
0010
0001
,
0001
0100
0110
0000
,
0001
0100
0010
0010
,
2020
0000
0000
3030
,
0220
0000
0330
0010
,
0100
0001
1000
0010
,
0100
0000
0100
0000
,
0220
0000
0330
1000
,
0001
0100
0010
0100
,
0000
0100
0010
0100
,
0001
1000
0010
0100
,
0010
0000
0100
0000
1000
0010
1000
0000
,
0100
0010
0100
0010
,
0010
0000
1000
0000
0001
0100
0001
0000
,
0010
0100
1000
0000
,
1001
0000
0110
0100
,
0100
0010
0010
1000
,
0001
0100
0010
0001
,
1000
0001
1000
0000
,
0000
0010
0100
0010
,
0001
0100
0010
0000
,
0000
1000
0010
0100
,
0010
1000
0001
0000
,
1001
1000
0010
1000
,
0010
1000
0010
0100
,
1010
0000
0000
0000
,
0000
0000
0000
0000
,
0000
0000
0000
2002
0000
0000
0000
0000
0000
0000
0000
0000
0000
0000
0000
0000
0000
0000
0000
0000
0000
0000
0000
0000
0000
0000
0000
0000
0000
0000
0000
0000
,
0000
3003
0000
0000
,
1000
0010
0100
0000
,
0001
0100
0010
0000
,
1000
0010
0100
0000
,
0001
0100
0010
0000
,
0220
0000
0000
0000
,
0330
0000
0000
0000
;

//---------------dance-single - ----------------
#NOTES:
     dance-single:
     :
     Medium:
     8:
     0.388757,0.432410,0.192182,0.115309,0.007687,354.000000,329.000000,25.000000,15.000000,0.000000,0.000000,0.388757,0.432410,0.192182,0.115309,0.007687,354.000000,329.000000,25.000000,15.000000,0.000000,0.000000:
0010
0000
1000
0010
0100
0000
0001
0000
,
0010
0000
0100
0010
0100
0000
0001
0000
,
1000
0000
0010
0100
0010
0000
0001
0000
,
0100
0000
0010
0100
0010
0000
1010
0000
,
1000
0001
0100
0010
0100
0000
1000
0000
,
0010
1000
0010
0100
,
1000
0001
1000
0000
0100
0010
0100
0010
,
0100
0010
0100
0000
0001
1000
0010
0100
,
0010
0000
0100
0010
1000
0010
0100
0000
,
0010
0100
0010
0001
,
0010
1000
0010
0000
0100
0001
0100
0001
,
0100
0001
0100
0000
1000
0010
0100
0000
,
1001
0000
0100
0010
0100
0000
0001
0100
,
0001
0000
1000
0010
1000
0000
1000
0000
,
0110
0000
1000
0010
1000
0000
0001
0100
,
0001
0000
0010
0100
0010
0000
0010
0000
,
0110
0000
0010
0100
0001
0000
0010
0100
,
1000
0000
0100
0010
0100
0000
0100
0000
,
1010
0000
0100
0001
0100
0000
0100
0001
,
0010
0000
1000
0010
0100
0000
0100
0000
,
1001
0000
0100
0010
0100
0000
0001
1000
,
0001
0000
0100
0010
0100
0000
0001
0000
,
1010
0000
0100
0010
0100
0000
0001
0100
,
0001
0000
1000
0010
0100
0000
0100
0000
,
1000
0000
0001
0100
0010
0000
1001
0000
,
0001
0000
0010
0100
1000
0000
1010
0000
,
1100
0000
0001
0010
0000
0100
0000
0001
,
0000
0010
0000
0100
0000
1010
0000
0000
,
2000
0000
0000
0000
3001
0010
0001
0010
,
0000
1000
0010
0100
0000
0010
0001
0010
,
0000
0000
0100
0010
0000
0010
0000
1000
,
0000
0010
0000
0001
0000
0101
0000
0000
,
1000
0010
0100
0000
0001
0100
0010
0000
,
1000
0010
0100
0010
0001
0100
0010
0100
,
0010
0000
0000
0000
,
0000
0000
0000
0000
,
0000
0000
0000
2002
0000
0000
0000
0000
0000
0000
0000
0000
0000
0000
0000
0000
0000
0000
0000
0000
0000
0000
0000
0000
0000
0000
0000
0000
0000
0000
0000
0000
,
0000
0000
3003
0000
,
1000
0001
0000
0001
0100
0000
0000
0000
,
0110
0000
0001
1000
0001
0100
0000
0010
,
0000
0220
0000
0000
0000
0330
0000
0000
,
1001
0000
1010
0000
1001
0000
0001
0001
,
0000
0100
0010
0100
0020
0000
0000
0030
,
0100
0000
0010
0100
0010
0100
0000
0001
,
0000
2000
0000
0000
0000
0000
0000
3002
,
0000
0000
0000
0000
1000
0003
1000
0000
,
0110
0000
1000
0001
0000
0010
0000
0001
,
0000
0100
0000
0010
0000
1000
0000
0000
,
2000
0000
0000
0000
3001
0010
0001
0010
,
0000
0100
0010
0100
0000
0001
1000
0001
,
0000
0000
0100
0010
0000
0010
0000
1000
,
0000
0010
0000
0001
0000
0100
0000
0000
,
0002
0000
0000
0000
1003
0100
1000
0100
,
0000
0010
0100
0010
0000
0001
1000
0001
,
1000
0000
0100
1000
0000
0010
0000
1000
,
0000
0001
0000
0100
0000
0001
0000
0000
,
0002
0000
0000
0000
1003
0100
1000
0100
,
0000
0010
0100
0010
0000
0001
0100
0001
,
0000
0000
0010
0100
0000
0001
0000
1000
,
0000
0100
0000
0010
0000
0001
0000
0000
,
0000
0000
0100
0010
0000
0100
0000
0010
,
0000
1000
0000
0001
0000
1000
0000
0000
,
0000
0000
0100
1000
0000
0001
0000
0100
,
0000
0010
0000
0100
0000
0010
0000
0000
,
0001
0100
0001
0000
1000
0010
0100
0000
,
0001
0100
0010
0100
0001
1000
0010
0100
,
0010
0000
0000
0000
,
0000
0000
0000
0000
,
0000
0000
0000
2002
0000
0000
0000
0000
0000
0000
0000
0000
0000
0000
0000
0000
0000
0000
0000
0000
0000
0000
0000
0000
0000
0000
0000
0000
0000
0000
0000
0000
,
0000
0000
3003
0000
,
0100
0000
0001
0100
0010
0000
0110
0000
,
1000
0000
0010
0100
0001
0000
0101
0000
,
0010
0000
0100
0010
0100
0000
1010
0000
,
0100
0000
0001
0100
0001
0000
1100
0000
,
0202
0000
0000
0000
,
0303
0000
0000
0000
;

//---------------dance-single - ----------------
#NOTES:
     dance-single:
     :
     Hard:
     11:
     0.440371,0.490064,0.376677,0.130684,0.126840,401.000000,352.000000,49.000000,17.000000,0.000000,0.000000,0.440371,0.490064,0.376677,0.130684,0.126840,401.000000,352.000000,49.000000,17.000000,0.000000,0.000000:
0001
0000
0000
0000
0000
0000
0000
0000
0000
0000
0100
0000
0000
0000
0000
0000
0000
0000
0100
0000
0000
0010
0000
0000
0100
0000
0000
0000
0000
0000
0000
0000
0000
0100
0000
0000
0000
0000
0000
0000
0000
0000
0010
0000
0000
0000
0000
0000
,
0010
0000
0000
0000
0000
0000
0000
0000
0000
0000
0001
0000
0000
0000
0000
0000
0000
0000
0001
0000
0000
0100
0000
0000
0001
0000
0000
0000
0000
0000
0000
0000
0000
1000
0000
0000
0000
0000
0000
0000
0000
0000
0100
0000
0000
0000
0000
0000
,
0010
0000
0000
0000
0000
0000
0000
0000
0000
0000
0010
0000
0000
0000
0000
0000
0000
0000
1000
0000
0000
0010
0000
0000
1000
0000
0000
0000
0000
0000
0000
0000
0000
1000
0000
0000
0000
0000
0000
0000
0000
0000
0010
0000
0000
0000
0000
0000
,
0100
0000
0000
0000
0000
0000
0000
0000
0000
0000
0010
0000
0000
0000
0000
0000
0000
0000
0001
0000
0000
0100
0000
0000
0001
0000
0000
0000
0000
0000
0000
0000
0000
0001
0000
0000
0000
0000
0000
0000
0000
0000
0001
0000
0000
0000
0000
0000
,
1000
0000
0010
0000
0100
0000
0001
0000
0000
0000
0010
0000
0000
0000
1000
0001
,
1000
0100
0010
0010
0000
0110
0000
0000
,
1000
0010
1000
0000
0100
0001
0100
0001
,
0100
0010
0100
0000
1000
0010
1000
0010
,
1000
0000
0001
0000
0100
0000
0010
0000
0000
0000
0110
0000
0000
0000
0100
0010
,
0100
0001
0100
0010
0000
1010
0000
0000
,
1000
0010
1000
0000
0001
0100
0001
0100
,
0001
0010
0001
0000
1000
0010
1010
0000
,
1000
0000
0010
0001
0000
0000
1000
0010
,
0100
0000
0010
0100
0000
0001
1000
0000
,
0110
0000
0001
1000
0000
0000
0100
0010
,
0100
0000
0001
1000
0000
0100
0010
0000
,
0010
0000
1000
0001
0000
0000
0010
0100
,
0010
0000
0001
1000
0000
1000
0001
0000
,
0110
0000
1000
0010
0000
0000
0010
0100
,
0100
0000
0001
0010
0000
0010
0001
0000
,
0100
0000
1000
0001
0000
0000
0100
0010
,
0100
0000
0001
0010
0000
1000
0010
0000
,
0110
0000
0001
1000
0000
0000
0100
0001
,
0100
0000
0010
1000
0000
1000
0001
0000
,
1000
0000
0000
0000
0000
0000
0000
0000
0000
0000
0001
0000
0000
0000
0000
0000
0000
0000
1000
0000
0000
0010
0000
0000
1000
0000
0000
0000
0000
0000
0000
0000
0000
1000
0000
0000
0000
0000
0000
0000
0000
0000
0001
0000
0000
0000
0000
0000
,
0010
0000
0000
0000
0000
0000
0000
0000
0000
0000
0010
0000
0000
0000
0000
0000
0000
0000
0100
0000
0000
0010
0000
0000
0100
0000
0000
0000
0000
0000
0000
0000
0000
0100
0000
0000
0000
0000
0000
0000
0000
0000
0100
0000
0000
0000
0000
0000
,
1010
0000
0001
0100
0000
0010
0000
1010
,
0000
0110
0000
0101
0000
0110
0000
0000
,
2000
0000
3001
0000
0001
0010
0001
0010
,
1000
0010
1000
0000
0100
0001
0100
0100
,
0000
0000
0100
0010
0000
0100
0000
0101
,
0000
0110
0000
0101
0000
0110
0000
0000
,
1000
0010
1000
0010
1000
0010
1000
0010
,
2000
0000
0000
0000
,
0000
0000
0000
0000
,
3000
0000
0000
0000
,
2020
0000
0000
0000
,
0000
0000
3030
0000
,
1000
0001
0100
0001
0010
0000
0110
0000
,
1000
0000
0001
0100
0010
0100
0000
0110
,
0000
2002
0000
0000
0000
3003
0000
0000
,
1000
0000
0100
0000
0010
0000
0001
1000
,
0001
0100
0010
0100
0000
0000
1010
0000
,
0100
0000
0010
0100
0001
0100
0000
0101
,
0000
2020
0000
0000
0000
3030
0000
0002
,
0000
0000
0000
0003
1000
0010
1000
0100
,
1000
0000
0001
0010
0000
1000
0000
0110
,
0000
0101
0000
1010
0000
1100
0000
0000
,
2000
0000
3001
0000
0100
0010
0100
0001
,
0100
0010
1000
0010
0100
0010
0100
0001
,
0000
0000
0100
0010
0000
1000
0000
0101
,
0000
0101
0000
1010
0000
1010
0000
0000
,
0020
0000
1030
0000
0100
0010
0100
0001
,
0100
0010
0100
0010
0001
0100
0001
0100
,
0100
0000
0010
0100
0000
0001
0000
0101
,
0000
1001
0000
1010
0000
1100
0000
0000
,
0020
0000
0031
0000
0001
0010
0001
1000
,
0001
0010
0001
0100
0001
0100
0010
0100
,
0000
0000
0100
0010
0000
0100
0000
1010
,
0000
1010
0000
1010
0000
1010
0000
0000
,
0000
0000
0100
0001
0000
0010
0000
0011
,
0000
0011
0000
0011
0000
0011
0000
0000
,
0100
0000
1000
0010
0000
0100
0000
0110
,
0000
0110
0000
0110
0000
0110
0000
0000
,
1000
0001
1000
0001
1000
0001
1000
0001
,
2000
0000
0000
0000
,
0000
0000
0000
0000
,
3000
0000
0000
0000
,
0000
0000
0000
0220
0000
0000
0000
0000
0000
0000
0000
0000
0000
0000
0000
0000
0000
0000
0000
0000
0000
0000
0000
0000
0000
0000
0000
0000
0000
0000
0000
0000
,
0000
0000
0330
0000
,
1000
0000
0000
0000
0000
0000
0000
0000
0000
0000
0010
0000
0000
0000
0000
0000
0000
0000
0100
0000
0000
0010
0000
0000
0100
0000
0000
0000
0000
0000
0000
0000
0000
0001
0000
0000
0000
0000
0000
0000
0000
0000
0001
0000
0000
0000
0000
0000
,
0001
0000
0000
0000
0000
0000
0000
0000
0000
0000
1000
0000
0000
0000
0000
0000
0000
0000
0100
0000
0000
0010
0000
0000
0100
0000
0000
0000
0000
0000
0000
0000
0000
1000
0000
0000
0000
0000
0000
0000
0000
0000
1000
0000
0000
0000
0000
0000
,
0100
0000
0000
0000
0000
0000
0000
0000
0000
0000
0010
0000
0000
0000
0000
0000
0000
0000
0100
0000
0000
1000
0000
0000
0100
0000
0000
0000
0000
0000
0000
0000
0000
0100
0000
0000
0000
0000
0000
0000
0000
0000
0100
0000
0000
0000
0000
0000
,
0010
0000
0000
0000
0000
0000
0000
0000
0000
0000
0001
0000
0000
0000
0000
0000
0000
0000
0100
0000
0000
0001
0000
0000
0100
0000
0000
0000
0000
0000
0000
0000
0000
0001
0000
0000
0000
0000
0000
0000
0000
0000
0001
0000
0000
0000
0000
0000
,
2002
0000
0000
0000
,
3003
0000
0000
0000
;

//---------------pnm-five - ----------------
#NOTES:
     pnm-five:
     :
     Beginner:
     3:
     0.209753,0.374755,0.307491,0.138371,0.007687,191.000000,148.000000,40.000000,18.000000,0.000000,4.000000,0.209753,0.374755,0.307491,0.138371,0.007687,191.000000,148.000000,40.000000,18.000000,0.000000,4.000000:
00001
00000
00010
00000
,
00100
00000
01000
00000
,
10000
00000
01000
00000
,
00100
00000
00010
00000
,
00001
00000
10000
00000
,
00001
00000
10000
00000
,
01100
00000
01100
00000
,
00100
00100
00100
00000
,
10000
00000
00001
00000
,
10000
00000
00001
00000
,
00110
00000
00110
00000
,
00010
01000
00010
00000
,
00000
10000
00000
11000
,
00000
10000
00000
11000
,
00000
00010
00000
00110
,
00000
00010
00000
00110
,
00000
00001
00000
10001
,
00000
00001
00000
10001
,
00000
01000
00000
01010
,
00000
01000
00000
01010
,
00000
00100
00000
10100
,
00000
00100
00000
10100
,
00000
00010
00000
10010
,
00000
00010
00000
10010
,
01000
00000
00010
00000
,
01000
00000
10000
00000
,
10100
00000
00101
00000
,
10000
00100
00001
00000
,
20200
00000
30301
00000
,
00001
00100
10000
00000
,
00000
01000
00000
00010
,
00000
01000
00000
00010
,
02020
00000
00000
00000
,
00000
00000
00000
00000
,
03030
00000
00000
00000
,
00000
00000
00000
00000
,
00000
00000
00000
10101
00000
00000
00000
00000
00000
00000
00000
00000
00000
00000
00000
00000
00000
00000
00000
00000
00000
00000
00000
00000
00000
00000
00000
00000
00000
00000
00000
00000
,
00000
00000
00000
00000
,
00010
01000
00010
00000
,
10001
00000
01010
00000
,
10000
00020
00000
00000
,
10030
00000
00001
00000
,
01100
01010
01010
00000
,
10000
00000
00100
00000
,
20200
00000
30300
00000
,
01010
00000
10000
00100
,
10000
00000
00010
00000
,
10000
00000
00010
00000
,
22000
33000
00010
00000
,
00010
01000
00010
00000
,
10010
00000
00101
00000
,
01000
00100
01000
00000
,
00010
00000
10000
00000
,
00010
01000
00100
00000
,
10010
00000
01100
00000
,
10000
00100
10000
00000
,
10100
00000
00100
01000
,
00100
00000
00001
00000
,
20000
00000
00010
00000
,
30020
00000
10000
00000
,
00230
00000
01000
00000
,
02300
00000
00100
00000
,
03002
00000
00100
00000
,
00203
00000
00001
00000
,
00301
00000
00000
00000
,
00000
00000
00000
00000
,
00000
00000
00000
00000
,
00000
00000
00000
00000
,
00000
00000
00000
10101
00000
00000
00000
00000
00000
00000
00000
00000
00000
00000
00000
00000
00000
00000
00000
00000
00000
00000
00000
00000
00000
00000
00000
00000
00000
00000
00000
00000
,
00000
00000
00000
00000
,
01100
01000
00100
00010
,
10100
00010
10000
00010
,
00011
01000
00100
01000
,
10100
01000
00100
01000
,
20202
00000
00000
00000
,
30303
00000
00000
00000
;

//---------------pnm-five - ----------------
#NOTES:
     pnm-five:
     :
     Easy:
     5:
     0.307491,0.432410,0.422800,0.184495,0.007687,280.000000,220.000000,55.000000,24.000000,0.000000,6.000000,0.307491,0.432410,0.422800,0.184495,0.007687,280.000000,220.000000,55.000000,24.000000,0.000000,6.000000:
10001
10000
00010
00000
,
11000
00010
01000
00000
,
10010
01000
01000
00000
,
00011
01000
00010
00000
,
00001
00010
10000
00100
,
00001
00010
01000
00100
,
01100
00100
01100
00000
,
10100
01000
10100
00000
,
10000
00100
00001
00100
,
10000
00100
00001
00100
,
11000
00100
11000
00000
,
10010
01000
10010
00000
,
00000
00011
00000
00110
,
00000
00001
00100
10000
,
00000
00010
00000
00110
,
00000
00010
10000
00001
,
00000
00001
00000
10001
,
00000
00100
00001
00010
,
00000
01001
00000
10010
,
00000
10000
00100
00001
,
00000
01010
00000
01010
,
00000
10000
00100
11000
,
00000
10000
00000
00011
,
00000
00010
01000
10000
,
01010
10000
00010
00000
,
01100
00001
10000
00000
,
10100
00000
01000
01000
00000
00010
00000
00000
,
01000
00010
01001
00010
,
20200
00000
30301
00010
,
10000
01000
00010
01000
,
00000
01000
00100
00010
,
00100
01000
10000
00001
,
10100
10100
10100
10100
,
10101
00000
00000
00000
,
00000
00000
00000
00000
,
00000
00000
00000
00000
,
00000
00000
00000
20202
00000
00000
00000
00000
00000
00000
00000
00000
00000
00000
00000
00000
00000
00000
00000
00000
00000
00000
00000
00000
00000
00000
00000
00000
00000
00000
00000
00000
,
00000
30303
00000
00000
,
00010
00000
01000
01000
01010
00000
00000
00000
,
00100
10000
00100
10000
,
22000
00000
00000
33000
,
00001
00010
00100
01000
,
10100
01010
01010
00000
,
10000
01000
00100
00001
,
20200
00000
30300
00000
,
01010
00000
00001
00001
,
00010
01000
00010
00000
,
10000
00001
00010
00000
,
02000
03001
01010
00100
,
00010
10000
01000
00100
,
00110
10000
01000
10000
,
01000
00001
01000
10000
,
00010
01000
10101
00000
,
00010
10000
00001
00010
,
10100
01000
01001
00100
,
10000
00100
00010
01000
,
00100
01000
00100
01000
,
00100
10001
10001
10001
,
20000
30100
00100
00100
,
00002
10003
10000
10000
,
20000
31000
01000
01000
,
00200
01300
01000
01000
,
20000
30100
00100
00100
,
00002
10003
10000
10000
,
10010
10010
10010
10010
,
02200
00000
00000
00000
,
00000
00000
00000
00000
,
03300
00000
00000
00000
,
00000
00000
00000
20202
00000
00000
00000
00000
00000
00000
00000
00000
00000
00000
00000
00000
00000
00000
00000
00000
00000
00000
00000
00000
00000
00000
00000
00000
00000
00000
00000
00000
,
30303
00000
00000
00000
,
10000
01000
00100
00010
,
00001
00010
00100
01000
,
10000
01000
00100
00010
,
00001
00010
00100
01000
,
20202
00000
00000
00000
,
30303
00000
00000
00000
;

//---------------pnm-five - ----------------
#NOTES:
     pnm-five:
     :
     Medium:
     9:
     0.470022,0.663028,0.584233,0.238306,0.084560,428.000000,346.000000,76.000000,31.000000,0.000000,14.000000,0.470022,0.663028,0.584233,0.238306,0.084560,428.000000,346.000000,76.000000,31.000000,0.000000,14.000000:
10000
00000
00010
00000
00000
00000
01000
00000
00100
00000
00000
00000
,
00110
00000
10000
00000
00000
00000
01000
00000
00001
00000
00000
00000
,
10001
00000
01000
00000
00000
00000
01000
00000
00100
00000
00000
00000
,
10100
00000
10000
00000
00000
00000
00010
00000
01000
00000
00000
00000
,
20002
00000
30103
00100
00000
10000
00000
00100
,
00001
01010
00110
01010
00000
01000
00100
00010
,
01100
01100
01100
00000
01010
01010
01010
00000
,
10000
00100
10100
00000
00100
00010
00110
00000
,
20200
00000
30310
00010
00000
00010
00000
00010
,
10000
00010
00001
01000
00000
00100
00000
00000
,
10100
10100
10010
00000
00110
10100
10001
00000
,
00010
00010
01000
01000
00010
00010
01000
00000
,
10000
00100
10000
00000
10000
00010
10100
00000
,
00001
00010
10100
00000
10000
00100
10010
00000
,
01000
00100
01010
00000
00001
00100
01100
00000
,
01000
00100
00011
00000
00001
00010
10100
00000
,
10000
00100
10001
00000
00001
00100
10001
00000
,
01000
00100
01000
00000
00001
00100
00010
00000
,
01000
01000
01000
00000
00001
00001
00001
00000
,
10000
00010
10000
00000
01000
00100
01000
00000
,
01000
01000
01100
00000
00010
00010
10100
00000
,
10000
00100
11000
00000
00010
01000
10000
00000
,
10000
00001
01010
00000
00001
01000
00110
00000
,
10000
01000
00010
00000
00001
00100
10000
00000
,
01010
00000
01000
00000
00000
00000
00010
00000
10000
00000
00000
00000
,
01000
00000
00010
00000
00000
00000
10000
00000
00100
00000
00000
00000
,
10100
00000
10100
10100
00000
00101
00000
10100
,
00000
01100
00000
01010
00000
01010
00000
00000
,
20200
00000
00001
00000
30301
00100
10000
00100
,
00000
00001
00100
00001
00000
10000
01000
00100
,
00000
00000
01000
00010
00000
10000
00000
00010
,
00000
01000
00000
10000
00000
00100
00000
00000
,
00100
10000
00100
10000
00100
10000
00100
10000
,
10000
00001
10000
00001
10000
00001
10000
00001
,
10000
00000
00000
00000
,
00000
00000
00000
00000
,
00000
00000
00000
20202
00000
00000
00000
00000
00000
00000
00000
00000
00000
00000
00000
00000
00000
00000
00000
00000
00000
00000
00000
00000
00000
00000
00000
00000
00000
00000
00000
00000
,
30303
00000
00000
00000
,
00010
10000
00100
10000
10010
00000
01010
00000
,
10001
00000
01000
00100
01000
00010
00000
10110
,
00000
20220
00000
00000
30330
00000
00001
00000
,
10000
00000
01000
00000
00100
00000
00001
00010
,
00000
10000
00010
10000
00010
00000
01100
00000
,
10000
00000
00010
00001
00010
00010
00000
11000
,
00000
20020
00000
00000
30030
00000
00000
00000
,
00220
00000
00000
00000
10330
01000
10000
01000
,
10000
00000
00010
00100
00000
00001
00000
10000
,
00000
00001
00000
01000
00000
00101
00000
00000
,
20000
00000
30110
00000
10000
01000
00100
00020
,
00000
00130
01000
00100
00000
10000
01000
10000
,
00000
00000
10000
00100
00000
00101
00000
01010
,
00000
10100
00000
01010
00000
00101
00000
00000
,
20000
00000
30010
00000
10000
00100
00001
00020
,
00000
10030
01000
20000
00000
30010
01000
00100
,
20200
00000
30310
00010
00000
10100
00000
00100
,
00000
10000
00000
00010
00000
10100
00000
00000
,
20200
00000
30301
00000
00001
00010
00100
10000
,
00000
10000
00100
10000
00000
00001
10000
00001
,
10000
00100
10000
01000
00000
00010
00000
10000
,
00000
00010
00000
10000
00000
01000
00000
01000
,
01100
00000
00010
01000
00000
00010
00000
10000
,
00000
00001
00000
10000
00000
00100
00000
00010
,
00010
00000
10000
00100
00000
10000
00000
00001
,
00000
10000
00000
01000
00000
00100
00000
00010
,
10000
00100
10000
00100
10000
00100
10000
00100
,
10000
00001
10000
00001
10000
00001
10000
00001
,
10000
00000
00000
00000
,
00000
00000
00000
00000
,
00000
00000
00000
20202
00000
00000
00000
00000
00000
00000
00000
00000
00000
00000
00000
00000
00000
00000
00000
00000
00000
00000
00000
00000
00000
00000
00000
00000
00000
00000
00000
00000
,
30303
00000
00000
00000
,
10110
00000
00000
00000
00000
00010
00000
00000
00000
00000
00000
00000
00100
00000
00000
00000
10000
00000
00000
00000
00000
00000
00000
00000
,
10100
00000
01000
00000
00000
00000
10000
00000
00010
00000
00000
00000
,
00011
00000
10000
00000
00000
00000
00100
00000
00010
00000
00000
00000
,
10100
00000
00010
00000
00000
00000
10100
00000
01010
00000
00000
00000
,
20202
00000
00000
00000
,
30303
00000
00000
00000
;

//---------------pnm-five - ----------------
#NOTES:
     pnm-five:
     :
     Hard:
     12:
     0.610590,0.720683,0.837914,0.330553,0.230618,556.000000,436.000000,109.000000,43.000000,0.000000,24.000000,0.610590,0.720683,0.837914,0.330553,0.230618,556.000000,436.000000,109.000000,43.000000,0.000000,24.000000:
10100
00000
00000
00000
00000
00000
00000
00000
01010
00000
00000
00000
00000
00000
00000
00000
00000
00000
10000
00000
00000
00010
00000
00000
00001
00000
00000
00000
00000
00000
00000
00000
00100
00000
00000
00000
00000
00000
00000
00000
00000
00000
10000
00000
00000
00000
00000
00000
,
00110
00000
00000
00000
00000
00000
00000
00000
10000
00000
00000
00000
00000
00000
00000
00000
00000
00000
01000
00000
00000
00010
00000
00000
01000
00000
00000
00000
00000
00000
00000
00000
00001
00000
00000
00000
00000
00000
00000
00000
00000
00000
10000
00000
00000
00000
00000
00000
,
10101
00000
00000
00000
00000
00000
00000
00000
01010
00000
00000
00000
00000
00000
00000
00000
00000
00000
10000
00000
00000
00010
00000
00000
00100
00000
00000
00000
00000
00000
00000
00000
00100
00000
00000
00000
00000
00000
00000
00000
00000
00000
01000
00000
00000
00000
00000
00000
,
10100
00000
00000
00000
00000
00000
00000
00000
10100
00000
00000
00000
00000
00000
00000
00000
00000
00000
00001
00000
00000
00010
00000
00000
00100
00000
00000
00000
00000
00000
00000
00000
01000
00000
00000
00000
00000
00000
00000
00000
00000
00000
00001
00000
00000
00000
00000
00000
,
20002
00000
00000
00000
30103
00000
00100
00000
00000
00000
10000
00000
00000
00000
00100
10000
,
00100
00000
00010
00000
01000
00000
00020
00000
00000
00000
01030
00000
10000
00100
10000
00100
,
10000
00000
00100
00000
01000
00010
00000
00000
01000
00000
00010
00000
01000
00001
00000
00000
,
10000
00000
00100
00000
01000
00010
00000
00000
00100
00000
01000
00000
10000
00100
00000
00000
,
20200
00000
00000
00000
30310
00000
00010
00000
00000
00000
00010
00000
00000
00000
00010
00100
,
10000
00000
00010
00000
10000
00000
02000
00000
00000
00000
03100
00000
00010
10000
00010
10000
,
00010
00000
10000
00000
00010
10000
00000
00000
00010
00000
00100
00000
10100
00000
10100
00000
,
00010
00000
01000
00000
00001
00010
00000
00000
10000
00000
00010
00000
01000
00000
00000
00000
,
10000
00100
01000
00010
01000
00010
10000
00100
,
00001
00010
00100
01000
10000
00100
00010
10000
,
01010
00100
00010
10000
00010
00100
01000
10000
,
01000
00100
00010
00001
00100
00010
00100
00000
,
10000
00100
00001
00100
00001
00100
00001
01000
,
00100
10000
01000
10000
00100
10000
00010
00100
,
01000
00100
00001
10000
00001
10000
00001
10000
,
01000
00100
01000
00100
01000
00100
01000
00100
,
01000
10000
00001
10000
00010
01000
00100
01000
,
01010
00100
01000
00100
00010
01000
10000
00001
,
10000
00001
01000
10000
00001
01000
00100
00001
,
10000
01000
00010
10000
00001
00100
10000
00001
,
01010
00000
00000
00000
00000
00000
00000
00000
01000
00000
00000
00000
00000
00000
00000
00000
00000
00000
10000
00000
00000
01000
00000
00000
00100
00000
00000
00000
00000
00000
00000
00000
10000
00000
00000
00000
00000
00000
00000
00000
00000
00000
00001
00000
00000
00000
00000
00000
,
01000
00000
00000
00000
00000
00000
00000
00000
00010
00000
00000
00000
00000
00000
00000
00000
00000
00000
00010
00000
00000
00100
00000
00000
01000
00000
00000
00000
00000
00000
00000
00000
00100
00000
00000
00000
00000
00000
00000
00000
00000
00000
10100
00000
00000
00000
00000
00000
,
10101
00000
01010
10100
00000
01010
00000
10110
,
00000
01100
00000
01010
00000
10101
00000
00000
,
20200
00000
00001
00000
30301
00100
00001
00200
,
00000
00301
00100
20000
00000
31000
00100
00010
,
01010
00000
01000
10010
00000
10100
00000
00110
,
00000
01001
00000
10100
00000
01100
00000
00000
,
00100
10000
00100
00001
00100
10000
00100
00001
,
10000
00010
10000
00010
10000
00010
10000
00010
10000
00010
10000
00010
10000
00010
10000
00010
,
20000
00000
00000
00000
,
30000
00000
00000
00000
,
00000
00000
00000
20202
00000
00000
00000
00000
00000
00000
00000
00000
00000
00000
00000
00000
00000
00000
00000
00000
00000
00000
00000
00000
00000
00000
00000
00000
00000
00000
00000
00000
,
30303
00000
00000
00000
,
10010
10000
00100
10000
10020
00000
01030
00000
,
10001
00000
01000
00100
01000
00010
00000
10110
,
00000
20220
00000
00000
30330
00000
00001
00100
,
10000
00100
00010
00100
01000
00100
00001
00010
,
00000
10000
00010
10000
02010
00000
03100
00000
,
10000
00000
00010
00001
00010
10100
00000
11000
,
00000
20020
00000
00000
30030
00000
00000
00220
,
00000
00000
00000
00000
10330
01000
10000
01000
,
20200
00000
30310
00101
00000
10001
00000
01100
,
00000
01010
00000
10100
00000
00101
10000
00000
,
20000
00000
30110
00000
10100
01010
00101
00002
,
00000
10103
01100
10100
00000
10001
01010
10001
,
00000
00000
10100
00101
00000
10100
00000
01010
,
00000
10100
00000
01010
00000
00101
00000
00000
,
20200
00000
30310
00000
10000
00100
00001
00002
,
00000
10103
10100
20000
00000
30101
00101
00101
,
20200
00000
30310
00100
00000
10100
00000
01100
,
00000
10001
00000
01010
00000
01100
00000
00000
,
20200
00000
30301
00000
00001
00010
00100
20000
,
00000
30001
00100
10000
00000
00001
10000
00001
,
10100
00100
10000
00001
00100
01000
00000
10100
,
00000
01010
00000
10010
00000
01100
00000
01000
,
01100
00000
00010
01000
00000
10010
00000
10001
,
00000
01100
00000
10010
00000
11000
00000
00010
,
10010
00000
10000
00100
00000
10001
00000
01100
,
00000
01010
00000
01100
00000
10100
00000
01100
,
10000
00100
00001
00100
10000
00100
00001
00100
,
10000
00001
10000
00001
10000
00001
10000
00001
10000
00001
10000
00001
10000
00001
10000
00001
,
20000
00000
00000
00000
,
30000
00000
00000
00000
,
00000
00000
00000
20202
00000
00000
00000
00000
00000
00000
00000
00000
00000
00000
00000
00000
00000
00000
00000
00000
00000
00000
00000
00000
00000
00000
00000
00000
00000
00000
00000
00000
,
30303
00000
00000
00000
,
10110
00000
00000
00000
00000
00000
00000
00000
00000
00000
00010
00000
00000
00000
00000
00000
00000
00000
10000
00000
00000
01000
00000
00000
00100
00000
00000
00000
00000
00000
00000
00000
10001
00000
00000
00000
00000
00000
00000
00000
00000
00000
01000
00000
00000
00000
00000
00000
,
10100
00000
00000
00000
00000
00000
00000
00000
01000
00000
00000
00000
00000
00000
00000
00000
00000
00000
00001
00000
00000
00100
00000
00000
10000
00000
00000
00000
00000
00000
00000
00000
01010
00000
00000
00000
00000
00000
00000
00000
00000
00000
00001
00000
00000
00000
00000
00000
,
00011
00000
00000
00000
00000
00000
00000
00000
10000
00000
00000
00000
00000
00000
00000
00000
00000
00000
10000
00000
00000
01000
00000
00000
00100
00000
00000
00000
00000
00000
00000
00000
00011
00000
00000
00000
00000
00000
00000
00000
00000
00000
01000
00000
00000
00000
00000
00000
,
10100
00000
00000
00000
00000
00000
00000
00000
00010
00000
00000
00000
00000
00000
00000
00000
00000
00000
00001
00000
00000
00010
00000
00000
10100
00000
00000
00000
00000
00000
00000
00000
01010
00000
00000
00000
00000
00000
00000
00000
00000
00000
10101
00000
00000
00000
00000
00000
,
20202
00000
00000
00000
,
30303
00000
00000
00000
;

//---------------pnm-nine - ----------------
#NOTES:
     pnm-nine:
     :
     Beginner:
     3:
     0.219637,0.403582,0.315179,0.146058,0.007687,200.000000,150.000000,41.000000,19.000000,0.000000,8.000000,0.219637,0.403582,0.315179,0.146058,0.007687,200.000000,150.000000,41.000000,19.000000,0.000000,8.000000:
000010000
000000000
000100000
000000000
,
001000000
000000000
010000000
000000000
,
100000000
000000000
010000000
000000000
,
001000000
000000000
000100000
000000000
,
000010000
000000000
000000100
000000000
,
000010000
000000000
000000010
000000000
,
010000000
000000000
000001000
000000000
,
001000000
000000100
001000000
000000000
,
100000000
000000000
000010000
000000000
,
000000001
000000000
000010000
000000000
,
100000000
000000000
001000000
000000000
,
000100000
000000010
000100000
000000000
,
000000000
000000001
000000000
000000101
,
000000000
000000001
000000000
000000101
,
000000000
000100000
000000000
000100100
,
000000000
000100000
000000000
000100100
,
000000000
000010000
000000000
000010010
,
000000000
000010000
000000000
000010010
,
000000000
001000000
000000000
101000000
,
000000000
001000000
000000000
101000000
,
000000000
000000001
000000000
000000110
,
000000000
000000001
000000000
000000110
,
000000000
000100000
000000000
000100010
,
000000000
000100000
000000000
000100010
,
010000000
000000000
000100000
000000000
,
000001000
000000000
000000010
000000000
,
101010000
000000000
001010001
000000000
,
100000000
001000000
000010000
000000000
,
202000000
000000000
303010000
000000000
,
000000100
000001000
000010000
000000000
,
000000000
010000010
000000000
000101000
,
000000000
010000010
000000000
000101000
,
020200000
000000000
000000000
000000000
,
000000000
000000000
000000000
000000000
,
030300000
000000000
000000000
000000000
,
000000000
000000000
000000000
000000000
,
000000000
000000000
000000000
101010100
000000000
000000000
000000000
000000000
000000000
000000000
000000000
000000000
000000000
000000000
000000000
000000000
000000000
000000000
000000000
000000000
000000000
000000000
000000000
000000000
000000000
000000000
000000000
000000000
000000000
000000000
000000000
000000000
,
000000000
000000000
000000000
000000000
,
000100000
000000010
000000001
000000000
,
001010000
000000000
010100000
000000000
,
100000000
000200000
000000000
000000000
,
000300010
000000000
000000001
000000000
,
001010000
010100000
010100000
000000000
,
000000010
000000000
001000000
000000000
,
002000200
000000000
003000300
000000000
,
000101000
000000000
100000000
001000000
,
000010000
000000000
000100000
000000000
,
010000000
000000000
000100000
000000000
,
000000202
000000303
000100000
000000000
,
000100000
000000001
000100000
000000000
,
000100100
000000000
001010001
000000000
,
010000010
001000000
010000010
000000000
,
000100000
000000000
000000100
000000000
,
001000000
010000000
001000000
000000000
,
000000101
000000000
001010000
000000000
,
100000000
001000000
000001000
000000000
,
000010000
000000010
001000000
000000100
,
001000000
000000000
000010000
000000000
,
200000000
000000000
001000000
000000000
,
300200000
000000000
000000001
000000000
,
000300002
000100000
010000000
000000000
,
002000003
000000000
000010000
000000000
,
003020000
000000000
000000010
000000000
,
200030000
000000000
010000000
000000000
,
301010000
000000000
000000000
000000000
,
000000000
000000000
000000000
000000000
,
000000000
000000000
000000000
000000000
,
000000000
000000000
000000000
000000000
,
000000000
000000000
000000000
101010100
000000000
000000000
000000000
000000000
000000000
000000000
000000000
000000000
000000000
000000000
000000000
000000000
000000000
000000000
000000000
000000000
000000000
000000000
000000000
000000000
000000000
000000000
000000000
000000000
000000000
000000000
000000000
000000000
,
000000000
000000000
000000000
000000000
,
001000000
010000000
100000000
010000000
,
100000001
000000010
000000100
000000010
,
000000001
010000000
001000000
000001000
,
000010010
010000000
001000000
000110000
,
202020200
000000000
000000000
000000000
,
303030300
000000000
000000000
000000000
;

//---------------pnm-nine - ----------------
#NOTES:
     pnm-nine:
     :
     Easy:
     5:
     0.328357,0.490064,0.491986,0.207557,0.007687,299.000000,221.000000,64.000000,27.000000,0.000000,13.000000,0.328357,0.490064,0.491986,0.207557,0.007687,299.000000,221.000000,64.000000,27.000000,0.000000,13.000000:
000000101
000001010
000000101
000000000
,
100010000
010001000
100010000
000000000
,
100100000
001010000
000101000
001010000
,
000000101
000001010
000000101
000000000
,
000010000
000100000
010000000
001000000
,
000010000
000000010
010000000
000000100
,
001000100
001000100
001000100
000000000
,
101010000
101010000
101010000
000000000
,
100000000
001000000
000010000
000000100
,
000000001
001000000
000010000
000000100
,
010100000
010100000
010100000
000000000
,
000101000
000101000
000101000
000000000
,
000000000
010000000
000000000
000000001
,
000000000
000010000
001000000
100000000
,
000000000
000100000
000000000
000100001
,
000000000
000100000
000010000
000000010
,
000000000
000010000
000000000
000000100
,
000000000
001000000
000010000
000000100
,
000000000
100010100
000000000
101000000
,
000000000
100000000
001000000
000010000
,
000000000
010100010
000000000
010001010
,
000000000
000000010
000001000
010000000
,
000000000
110000000
000000000
000011000
,
000000000
000100000
010000000
100000000
,
010100000
000001000
000000010
000000000
,
001010000
000000100
000000001
000000000
,
001000001
000000000
000000010
000000010
000000000
000100000
000000000
000000000
,
010000000
000100000
000010000
000000100
,
002000002
000000000
003010003
000100000
,
100000000
010000000
000100000
010000000
,
000000000
000000010
000000100
000001000
,
000000100
000000010
000000001
000010000
,
101000000
101000000
101000000
101000000
,
101010000
000000000
000000000
000000000
,
000000000
000000000
000000000
000000000
,
000000000
000000000
000000000
000000000
,
000000000
000000000
000000000
202020200
000000000
000000000
000000000
000000000
000000000
000000000
000000000
000000000
000000000
000000000
000000000
000000000
000000000
000000000
000000000
000000000
000000000
000000000
000000000
000000000
000000000
000000000
000000000
000000000
000000000
000000000
000000000
000000000
,
000000000
303030300
000000000
000000000
,
000101000
000000000
010000000
010000000
010100000
000000000
000000000
000000000
,
001000000
000010000
001000000
000010000
,
000002002
000000000
000000000
000003003
,
000010000
000100000
001000000
010000000
,
101000000
010100000
001010000
000000000
,
100000000
010000000
001000000
000010000
,
000000202
000000000
000000303
000000000
,
010100000
000000000
000010000
000010000
,
000100000
000000010
000100000
000000000
,
100000000
000010000
000000001
000000000
,
000000200
000010300
010100000
001000000
,
000100000
000010000
000000100
000000010
,
000000001
100000000
010000000
000000001
,
000000010
000010000
000001000
000010000
,
000100000
010000000
101010000
000000000
,
000100000
000000100
000010000
000000100
,
001000010
010000100
000010000
001000000
,
100000000
001000000
000100000
010000000
,
000000010
010000000
000000010
010000000
,
000000010
100010000
100010000
100010000
,
200000000
301000000
001000000
001000000
,
000020000
000030001
000000001
000000001
,
200000000
300000010
000000010
000000010
,
002000000
003001000
000000010
000000010
,
000000020
001000030
001000000
001000000
,
000020000
100030000
100000000
100000000
,
101000000
100010000
101000000
100010000
,
002020200
000000000
000000000
000000000
,
003030300
000000000
000000000
000000000
,
000000000
000000000
000000000
000000000
,
000000000
000000000
000000000
202020200
000000000
000000000
000000000
000000000
000000000
000000000
000000000
000000000
000000000
000000000
000000000
000000000
000000000
000000000
000000000
000000000
000000000
000000000
000000000
000000000
000000000
000000000
000000000
000000000
000000000
000000000
000000000
000000000
,
303030300
000000000
000000000
000000000
,
100000000
010000000
001000000
000100000
,
000010000
000001000
000000100
000000010
,
000000001
000000010
000000100
000001000
,
000010000
000100000
001000000
010000000
,
202020000
000000000
000000000
000000000
,
303030000
000000000
000000000
000000000
;

//---------------pnm-nine - ----------------
#NOTES:
     pnm-nine:
     :
     Medium:
     9:
     0.518342,0.749510,0.799477,0.276742,0.084560,472.000000,345.000000,104.000000,36.000000,0.000000,30.000000,0.518342,0.749510,0.799477,0.276742,0.084560,472.000000,345.000000,104.000000,36.000000,0.000000,30.000000:
100100000
000000000
000101000
000000000
000000000
000000000
000000010
000000000
000001000
000000000
000000000
000000000
,
100000100
000000000
000000001
000000000
000000000
000000000
010000001
000000000
000100010
000000000
000000000
000000000
,
000001100
000000000
011000000
000000000
000000000
000000000
010100000
000000000
001001000
000000000
000000000
000000000
,
000000101
000000000
000001100
000000000
000000000
000000000
000000010
000000000
001010000
000000000
000000000
000000000
,
000020002
000000000
001030003
001000000
000000000
100000000
000000000
001000000
,
000010000
000001000
000000100
000001000
000000000
010000000
001000000
000100000
,
000000101
000000101
000000101
000000000
010000100
010000100
010000100
000000000
,
100000000
001000000
000010001
000000000
001000000
000100000
000001010
000000000
,
000002020
000000000
000103030
001000000
000000000
101000000
000000000
000100000
,
000000001
000000100
000010000
110001000
000000000
001000000
000000000
000000000
,
101000000
100100000
100010000
000000000
000000101
000010001
001000001
000000000
,
000100000
000001000
010000000
000001000
000100000
000001000
010000000
000000000
,
000000100
000010000
000000100
000000000
000000001
000000010
000001100
000000000
,
000010000
000100000
000110100
000000000
100000000
001000000
000100100
000000000
,
000000100
000000010
000000011
000000000
000010000
001000000
010000000
000000000
,
010000000
001000000
000101100
000000000
000010000
000100000
001000001
000000000
,
100000000
001000000
000010001
000000000
000010000
000000100
000010010
000000000
,
010000000
001000000
000100000
000000000
000010000
000001000
000000010
000000000
,
010000000
000000100
010000000
000000000
000010000
001000000
000010000
000000000
,
100000000
000100000
000000100
000000000
000000010
000000100
000001000
000000000
,
000001010
000000100
000001010
000000000
000001000
000010000
101001000
000000000
,
000000001
000000010
000010100
000000000
000001000
000001000
000000100
000000000
,
000001000
000010000
000100100
000000000
000010000
010000000
000100001
000000000
,
100000000
010000000
000100000
000000000
000010000
001000000
100000000
000000000
,
010100000
000000000
010000010
000000000
000000000
000000000
000100000
000000000
100010000
000000000
000000000
000000000
,
010000000
000000000
000100100
000000000
000000000
000000000
100000000
000000000
001000001
000000000
000000000
000000000
,
101010000
000000000
101010000
101010000
000000000
001010001
000000000
101000100
,
000000000
011001000
000000000
010100010
000000000
010100010
000000000
000000000
,
000000022
000000000
000010000
000000000
000010033
001000000
100000000
001000000
,
000000000
000010000
000000100
000010000
000000000
100010000
010001000
001000100
,
000000000
000000000
010000000
000000200
000000000
000001300
000000000
000100000
,
000000000
000000010
000000000
100000000
000000000
001000010
000000000
000000000
,
001000000
000000100
001000000
000000100
001000000
000000100
001000000
000000100
,
100000000
000010000
100000000
000010000
100000000
000010000
100000000
000010000
,
100000000
000000000
000000000
000000000
,
000000000
000000000
000000000
000000000
,
000000000
000000000
000000000
202020200
000000000
000000000
000000000
000000000
000000000
000000000
000000000
000000000
000000000
000000000
000000000
000000000
000000000
000000000
000000000
000000000
000000000
000000000
000000000
000000000
000000000
000000000
000000000
000000000
000000000
000000000
000000000
000000000
,
303030300
000000000
000000000
000000000
,
000100000
100000000
001000000
000001000
000100010
000000000
010100000
000000000
,
100010000
000000000
010000010
010000010
010000010
000100100
000000000
100010100
,
000000000
200020200
000000000
000000000
300030300
000000000
000010000
000000000
,
100000000
000000000
010000000
000000000
001000000
000000000
000010000
000000101
,
000000000
100000000
000100000
100000000
000200000
000000000
000300101
000000000
,
100000000
000000000
000100000
000010000
000100000
000001000
000000000
110000000
,
000000000
200202000
000000000
000000000
300303000
000000000
000000000
000000000
,
000000022
000000000
000000000
000000000
000100033
010000000
100000000
010000000
,
000010000
000000000
000100000
001000100
000000000
000010010
000000000
100000000
,
000000000
001000000
000000000
000010000
000000000
000000100
000000000
000000000
,
000000002
000000000
001001003
000000000
100000000
010000000
001000000
000200000
,
000000000
000310000
000001000
000010000
000000000
100000000
000010000
000000100
,
000000000
000000000
100000000
001000000
000000000
001010000
000000000
010100000
,
000000000
101000000
000000000
010100000
000000000
001010000
000000000
000000000
,
200000000
000000000
300100000
000000000
001000000
000010000
000000100
000000020
,
000000000
100000030
010000000
000000200
000000000
000100300
010000000
001000000
,
202000000
000000000
303100000
000100000
000000000
000000100
000000000
001000000
,
000000000
100000000
000000000
000100000
000000000
101000000
000000000
000000000
,
002000002
000000000
003010003
000000000
000010000
000001000
000000100
100000000
,
000000000
100000000
001000000
000000100
000000000
000010000
000000100
000010000
,
000000001
000000000
000000100
010000000
000000000
000100000
000000000
000000100
,
000000000
000000001
000000000
100000000
000000000
010000000
000000000
000000010
,
000010100
000000000
000100000
000000100
000000000
000000001
000000000
100010000
,
000000000
000010000
000000000
000000010
000000000
000000100
000000000
000100000
,
000000001
000000000
100000000
001000000
000000000
000000001
000000000
000000010
,
000000000
000000001
000000000
000000010
000000000
000000100
000000000
000001000
,
100000000
001000000
100000000
001000000
100000000
001000000
100000000
001000000
,
100000000
000010000
100000000
000010000
100000000
000010000
100000000
000010000
,
100000000
000000000
000000000
000000000
,
000000000
000000000
000000000
000000000
,
000000000
000000000
000000000
202020200
000000000
000000000
000000000
000000000
000000000
000000000
000000000
000000000
000000000
000000000
000000000
000000000
000000000
000000000
000000000
000000000
000000000
000000000
000000000
000000000
000000000
000000000
000000000
000000000
000000000
000000000
000000000
000000000
,
303030300
000000000
000000000
000000000
,
001100010
000000000
000000000
000000000
000000000
000101000
000000000
000000000
000000000
000000000
000000000
000000000
001000000
000000000
000000000
000000000
000000001
000000000
000000000
000000000
000000000
000000000
000000000
000000000
,
101010000
000000000
010000010
000000000
000000000
000000000
100000000
000000000
000101000
000000000
000000000
000000000
,
000100100
000000000
100000000
000000000
000000000
000000000
001000100
000000000
000101000
000000000
000000000
000000000
,
001010000
000000000
000100010
000000000
000000000
000000000
001000010
000000000
010101000
000000000
000000000
000000000
,
202020000
000000000
000000000
000000000
,
303030000
000000000
000000000
000000000
;

//---------------pnm-nine - ----------------
#NOTES:
     pnm-nine:
     :
     Hard:
     12:
     0.809361,1.210747,1.675827,0.399739,0.234462,737.000000,436.000000,218.000000,52.000000,0.000000,94.000000,0.809361,1.210747,1.675827,0.399739,0.234462,737.000000,436.000000,218.000000,52.000000,0.000000,94.000000:
// measure 0
101000100
000000000
000000000
000000000
000000000
000000000
000000000
000000000
010100010
000000000
000000000
000000000
000000000
000000000
000000000
000000000
000000000
000000000
100000000
000000000
000000000
000100000
000000000
000000000
000010000
000000000
000000000
000000000
000000000
000000000
000000000
000000000
000000010
000000000
000000000
000000000
000000000
000000000
000000000
000000000
000000000
000000000
000010100
000000000
000000000
000000000
000000000
000000000
,  // measure 1
001100010
000000000
000000000
000000000
000000000
000000000
000000000
000000000
101010000
000000000
000000000
000000000
000000000
000000000
000000000
000000000
000000000
000000000
010000000
000000000
000000000
000100000
000000000
000000000
000001000
000000000
000000000
000000000
000000000
000000000
000000000
000000000
000010100
000000000
000000000
000000000
000000000
000000000
000000000
000000000
000000000
000000000
100100000
000000000
000000000
000000000
000000000
000000000
,  // measure 2
101010000
000000000
000000000
000000000
000000000
000000000
000000000
000000000
010100100
000000000
000000000
000000000
000000000
000000000
000000000
000000000
000000000
000000000
100000000
000000000
000000000
000100000
000000000
000000000
000001000
000000000
000000000
000000000
000000000
000000000
000000000
000000000
000000010
000000000
000000000
000000000
000000000
000000000
000000000
000000000
000000000
000000000
000000100
000000000
000000000
000000000
000000000
000000000
,  // measure 3
001001010
000000000
000000000
000000000
000000000
000000000
000000000
000000000
001001010
000000000
000000000
000000000
000000000
000000000
000000000
000000000
000000000
000000000
000010000
000000000
000000000
000100000
000000000
000000000
001000000
000000000
000000000
000000000
000000000
000000000
000000000
000000000
000000100
000000000
000000000
000000000
000000000
000000000
000000000
000000000
000000000
000000000
000000010
000000000
000000000
000000000
000000000
000000000
,  // measure 4
000020002
000000000
000000000
000000000
001030003
000000000
001100000
000000000
000000000
000000000
100010000
000000000
000000000
000000000
001000000
100000000
,  // measure 5
001000000
000000000
000100000
000000000
000000010
000000000
000200000
000000000
000000000
000000000
010300000
000000000
100000000
001000000
100000000
001000000
,  // measure 6
100000000
000000000
001000000
000000000
010000000
000010100
000000000
000000000
010000000
000000000
000100000
000000000
010000000
000010100
000000000
000000000
,  // measure 7
100000000
000000000
001000000
000000000
000000010
000000001
000000000
000000000
001000000
000000000
010000000
000000000
000000010
000000001
000000000
000000000
,  // measure 8
000000220
000000000
000000000
000000000
000100330
000000000
000100000
000000000
000000000
000000000
000100000
000000000
000000000
000000000
000100000
000000100
,  // measure 9
000000011
000000000
000000100
000000000
000010000
000000000
020000000
000000000
000000000
000000000
030001010
000000000
000100000
000000010
000100000
000000010
,  // measure 10
000100000
000000000
100000000
000000000
000100000
000000001
000000000
000000000
000100000
000000000
000000000
000000000
101000101
000000000
101000101
000000000
,  // measure 11
000100000
000000000
010000000
000000000
000010000
000000100
000000000
000000000
100000000
000000000
000100000
000000000
010001000
000000000
010001000
000000000
,  // measure 12
100000000
001000000
000001000
000100000
010000000
000100000
100000000
001000000
,  // measure 13
000010000
000101000
001000100
010000010
100000001
001000000
000100000
100000000
,  // measure 14
010100100
001001000
000100010
100000000
000101000
001000100
010000010
100000001
,  // measure 15
010000010
001000100
000101000
000010000
001010100
000101010
000010101
000000000
,  // measure 16
100000000
001000100
000010000
001000100
000010000
001000100
000010000
010000000
,  // measure 17
000000101
000001000
000010000
000000101
000001000
000010000
001000000
100010000
,  // measure 18
010010000
000001000
000010000
000000010
000010000
000000010
000010000
000000100
,  // measure 19
000001010
000010100
000001010
000010100
000001010
000010100
000001010
000010100
,  // measure 20
100000000
001000000
000010000
001000000
100100000
000000010
000001000
000001010
,  // measure 21
010100000
000001000
000100000
000000100
000100100
000000001
010010000
000000100
,  // measure 22
100000000
000010000
001000000
100000100
000010001
010000010
001000001
000010100
,  // measure 23
100000000
010000000
000100000
000001000
000000100
000010000
000000010
000010000
,  // measure 24
010100010
000000000
000000000
000000000
000000000
000000000
000000000
000000000
010000100
000000000
000000000
000000000
000000000
000000000
000000000
000000000
000000000
000000000
101000000
000000000
000000000
010100000
000000000
000000000
001010000
000000000
000000000
000000000
000000000
000000000
000000000
000000000
100100000
000000000
000000000
000000000
000000000
000000000
000000000
000000000
000000000
000000000
000011000
000000000
000000000
000000000
000000000
000000000
,  // measure 25
010010000
000000000
000000000
000000000
000000000
000000000
000000000
000000000
000100100
000000000
000000000
000000000
000000000
000000000
000000000
000000000
000000000
000000000
000101000
000000000
000000000
001010000
000000000
000000000
010100000
000000000
000000000
000000000
000000000
000000000
000000000
000000000
001000000
000000000
000000000
000000000
000000000
000000000
000000000
000000000
000000000
000000000
000100101
000000000
000000000
000000000
000000000
000000000
,  // measure 26
101010000
000000000
010100000
001001000
000000000
010100100
000000000
001100100
,  // measure 27
000000000
011001000
000000000
010100010
000000000
101010000
000000000
000000000
,  // measure 28
202000000
000000000
000010100
000000000
303010000
000000010
000010000
202000000
,  // measure 29
000000000
303010001
001000100
000002002
000000000
010003003
001000000
000100000
,  // measure 30
010100010
000000000
010000010
100100100
000000000
101100000
000000000
001100100
,  // measure 31
000000000
010010001
000000000
101000100
000000000
011000001
000000000
000000000
,  // measure 32
100000000
001000000
000010000
000000100
000000001
000000100
000010000
001000000
,  // measure 33
101000000
000010100
101000000
000010100
101000000
000010100
101000000
000010100
101000000
000010100
101000000
000010100
101000000
000010100
101000000
000010100
,  // measure 34
202000000
000000000
000000000
000000000
,  // measure 35
303000000
000000000
000000000
000000000
,  // measure 36
000000000
000000000
000000000
202020200
000000000
000000000
000000000
000000000
000000000
000000000
000000000
000000000
000000000
000000000
000000000
000000000
000000000
000000000
000000000
000000000
000000000
000000000
000000000
000000000
000000000
000000000
000000000
000000000
000000000
000000000
000000000
000000000
,  // measure 37
303030300
000000000
000000000
000000000
,  // measure 38
000000001
100000000
001000000
000001000
000202000
000000000
010303000
000000000
,  // measure 39
101010000
000000000
010000000
001000000
000000100
000001000
000000000
101001000
,  // measure 40
000000000
202002000
000000000
000000000
303003000
000000000
000010000
000000100
,  // measure 41
000010001
000000100
000100000
001000000
010000000
100000000
000010000
000000010
,  // measure 42
000000000
000000001
000100100
000000000
000102000
000000000
000003010
000000000
,  // measure 43
100000000
000000000
000000001
000000010
000000100
000101000
000000000
110010000
,  // measure 44
000000000
200200200
000000000
000000000
300300300
000000000
000000000
002200000
,  // measure 45
000000000
000000000
000000000
000000000
003300001
000000010
000000001
000000010
,  // measure 46
202000000
000000000
303001000
001010100
000000000
100010100
000000000
001000100
,  // measure 47
000000000
010101000
000000000
101010000
000000000
001010001
101010000
000000000
,  // measure 48
200000000
000000000
301100000
000000000
101000000
010100000
001010000
000020200
,  // measure 49
000000000
000030301
001000100
101000001
000000000
100010000
010100000
100010000
,  // measure 50
000000000
000000000
101000000
001010000
000000000
101000000
000000000
010100010
,  // measure 51
000000000
101001000
000000000
010100010
000000000
001010100
000000000
000000000
,  // measure 52
000000202
000000000
000100303
000000000
100000000
001000000
000010000
000020000
,  // measure 53
000000000
000030101
000000101
200000000
000000000
301010000
001010000
001010000
,  // measure 54
202000000
000000000
303100000
001000000
000000000
001000100
000000000
001000100
,  // measure 55
000000000
000001010
000000000
010101000
000000000
000101010
000000000
000000000
,  // measure 56
000000202
000000000
001010303
000000000
000010000
000001000
000000100
000000002
,  // measure 57
000000000
000010003
001000000
100000000
000000000
000010000
000000100
000010000
,  // measure 58
101001000
001000001
100100000
000010000
000001000
000000100
000000000
000000101
,  // measure 59
000000000
010100010
000000000
100100100
000000000
010101000
000000000
010000000
,  // measure 60
010100010
000000000
000100000
000000100
000000000
000100101
000000000
101010000
,  // measure 61
000000000
010001010
000000000
000100011
000000000
110001000
000000000
000100000
,  // measure 62
000101001
000000000
100000000
001000000
000000000
000010001
000000000
001000101
,  // measure 63
000000000
010100100
000000000
011001000
000000000
101000001
000000000
001001010
,  // measure 64
100000000
001000000
000010000
000000100
000000001
000000100
000010000
001000000
,  // measure 65
100000000
000010000
100000000
000010000
100000000
000010000
100000000
000010000
100000000
000010000
100000000
000010000
100000000
000010000
100000000
000010000
,  // measure 66
200000000
000000000
000000000
000000000
,  // measure 67
300000000
000000000
000000000
000000000
,  // measure 68
000000000
000000000
000000000
202020200
000000000
000000000
000000000
000000000
000000000
000000000
000000000
000000000
000000000
000000000
000000000
000000000
000000000
000000000
000000000
000000000
000000000
000000000
000000000
000000000
000000000
000000000
000000000
000000000
000000000
000000000
000000000
000000000
,  // measure 69
303030300
000000000
000000000
000000000
,  // measure 70
101100000
000000000
000000000
000000000
000000000
000000000
000000000
000000000
000000000
000000000
000100101
000000000
000000000
000000000
000000000
000000000
000000000
000000000
100100000
000000000
000000000
010010000
000000000
000000000
001001000
000000000
000000000
000000000
000000000
000000000
000000000
000000000
101010000
000000000
000000000
000000000
000000000
000000000
000000000
000000000
000000000
000000000
010100000
000000000
000000000
000000000
000000000
000000000
,  // measure 71
101001000
000000000
000000000
000000000
000000000
000000000
000000000
000000000
010010000
000000000
000000000
000000000
000000000
000000000
000000000
000000000
000000000
000000000
000010010
000000000
000000000
001000100
000000000
000000000
100001000
000000000
000000000
000000000
000000000
000000000
000000000
000000000
010100100
000000000
000000000
000000000
000000000
000000000
000000000
000000000
000000000
000000000
000010001
000000000
000000000
000000000
000000000
000000000
,  // measure 72
010100010
000000000
000000000
000000000
000000000
000000000
000000000
000000000
101000000
000000000
000000000
000000000
000000000
000000000
000000000
000000000
000000000
000000000
101000000
000000000
000000000
010100000
000000000
000000000
001010000
000000000
000000000
000000000
000000000
000000000
000000000
000000000
000001011
000000000
000000000
000000000
000000000
000000000
000000000
000000000
000000000
000000000
010001010
000000000
000000000
000000000
000000000
000000000
,  // measure 73
101000100
000000000
000000000
000000000
000000000
000000000
000000000
000000000
000000000
000000000
000000000
000000000
000000000
000000000
000000000
000000000
000000000
000000000
000000000
000000000
000000000
000000000
000000000
000000000
000000000
000000000
000000000
000000000
000000000
000000000
000000000
000000000
000100100
000000000
000000000
000000000
000000000
000000000
000000000
000000000
000000000
000000000
000000000
000000000
000000000
000000000
000000000
000000000
000000000
000000000
000000000
000000000
000000000
000000000
000000000
000000000
000000000
000000000
000000000
000000000
000000000
000000000
000000000
000000000
000000000
000000000
000000000
000000000
000000000
000000000
000000000
000000000
000010100
000000000
000000000
000000000
000000000
000000000
000000000
000000000
000000000
000000000
000000000
000000000
000101000
000000000
000000000
000000000
000000000
000000000
000000000
000000000
000000000
000000000
000000000
000000000
101010000
000000000
000000000
000000000
000000000
000000000
000000000
000000000
000000000
000000000
000000000
000000000
000000000
000000000
000000000
000000000
000000000
000000000
000000000
000000000
000000000
000000000
000000000
000000000
000000000
000000000
000000000
000000000
000000000
000000000
000000100
000000000
010100000
000000000
000000000
000000000
000000000
000000000
000000000
000000000
000000000
000000000
000000000
000000000
000000000
000000000
000000000
000000000
000000000
000000000
000000000
000000000
000000000
000000000
000000000
000000000
000000000
000000000
000000000
000000000
000000000
000000000
000000000
000000000
000000000
000000000
000000000
000000000
000000000
000000000
000000000
000000000
101010001
000000000
000000000
000000000
000000000
000000000
000000000
000000000
000000000
000000000
000000000
000000000
000000000
000000000
000000000
000000000
000000000
000000000
000000000
000000000
000000000
000000000
000000000
000000000
,  // measure 74
202020002
000000000
000000000
000000000
,  // measure 75
303030003
000000000
000000000
000000000
;
