#TITLE:X-Treme;
#SUBTITLE:;
#ARTIST:Dougal & Gammer;
#TITLETRANSLIT:;
#SUBTITLETRANSLIT:;
#ARTISTTRANSLIT:;
#GENRE:;
#CREDIT:;
#MUSIC:X-Treme - Dougal & Gammer - CTSMix 1.ogg;
#BANNER:Banner.png;
#BACKGROUND:BG.png;
#CDTITLE:;
#SAMPLESTART:85.476371;
#SAMPLELENGTH:16.536270;
#SELECTABLE:YES;
#OFFSET:-0.021859;
#BPMS:0.000000=145.639495
,0.750000=147.265456
,1.000000=146.042610
,144.000000=292.085219
,272.000000=146.042610
,276.500000=73.021305
,278.500000=292.085219
;
#STOPS:;
#BGCHANGES:;
#FGCHANGES:;

//--------------- dance-single - CTSMcharts ----------------
#NOTES:
     dance-single:
     CTSMcharts:
     Beginner:
     2:
     0,0,0,0,0:
0000
0000
0000
0000
,
0000
0000
0000
0000
,
0000
0000
0000
0000
,
0000
0000
0000
0000
,
0002
0000
0000
0000
,
0000
0000
0000
0000
,
0000
2003
0000
0000
,
0000
0000
0000
0000
,
3020
0000
0000
0000
,
0000
0000
0000
0000
,
0230
0000
0000
0000
0000
0300
0200
0000
,
0000
0000
0000
0000
0000
0000
0000
0300
,
0002
0000
0000
0000
0000
0000
0000
0003
,
2000
0000
0000
0000
,
0000
3020
0000
0000
0000
0000
0000
0000
,
0000
0230
0000
0000
0000
0000
0000
0000
,
0000
0302
0000
0000
0000
0000
0000
0000
,
0000
0000
0000
0000
,
0000
2003
0000
0000
0000
0000
0000
0000
,
0000
3020
0000
0000
0000
0000
0000
0030
,
1000
0000
0000
0000
0000
0000
0000
0001
0000
0000
0000
0000
0000
0000
0000
0000
,
0001
0000
0000
0000
0000
0000
0000
1000
0000
0000
0000
0000
0000
0000
0000
0000
,
0010
0000
0000
0000
0000
0000
0000
0100
0000
0000
0000
0000
0000
0000
0000
0000
,
0100
0000
0000
0000
0000
0000
0000
0010
0000
0000
0000
0000
0000
0000
0000
0000
,
1000
0000
0000
0000
0000
0000
0000
0001
0000
0000
0000
0000
0000
0000
0000
0000
,
0001
0000
0000
0000
0000
0000
0000
1000
0000
0000
0000
0000
0000
0000
0000
0000
,
0010
0000
0000
0000
0000
0000
0000
0100
0000
0000
0000
0000
0000
0000
0000
0000
,
0100
0000
0000
0000
0000
0000
0000
0010
0000
0000
0000
0000
0000
0000
0000
0000
,
1000
0000
0000
0000
0000
0000
0000
0001
0000
0000
0000
0000
0000
0000
0000
0000
,
0001
0000
0000
0000
0000
0000
0000
1000
0000
0000
0000
0000
0000
0000
0000
0000
,
0010
0000
0000
0000
0000
0000
0000
0100
0000
0000
0000
0000
0000
0000
0000
0000
,
0100
0000
0000
0000
0000
0000
0000
0010
0000
0000
0000
0000
0000
0000
0000
0000
,
1000
0000
0000
0000
0000
0000
0000
0001
0000
0000
0000
0000
0000
0000
0000
0000
,
0001
0000
0000
0000
0000
0000
0000
1000
0000
0000
0000
0000
0000
0000
0000
0000
,
0010
0000
0000
0000
0000
0000
0000
0100
0000
0000
0000
0000
0000
0000
0000
0000
,
0100
0000
0000
0000
0000
0000
0000
0010
0000
0000
0000
0000
0000
0000
0000
0000
,
1000
0000
0000
0000
0000
0000
0000
0001
,
0000
0000
0000
0000
,
0001
0000
0000
0000
0000
0000
0000
1000
,
0000
0000
0000
0000
,
0010
0000
0000
0000
0000
0000
0000
0100
,
0000
0000
0000
0000
,
0100
0000
0000
0000
0000
0000
0000
0010
,
0000
0000
0000
0000
,
1000
0000
0000
0000
0000
0000
0000
0001
,
0000
0000
0000
0000
,
0001
0000
0000
0000
0000
0000
0000
1000
,
0000
0000
0000
0000
,
0010
0000
0000
0000
0000
0000
0000
0100
,
0000
0000
0000
0000
,
0100
0000
0000
0000
0000
0000
0000
0010
,
0000
0000
0000
0000
,
1000
0000
0000
0000
0000
0000
0000
0001
,
0000
0000
0000
0000
,
0001
0000
0000
0000
0000
0000
0000
1000
,
0000
0000
0000
0000
,
0010
0000
0000
0000
0000
0000
0000
0100
,
0000
0000
0000
0000
,
0100
0000
0000
0000
0000
0000
0000
0010
,
0000
0000
0000
0000
,
1000
0000
0000
0000
0000
0000
0000
0001
,
0000
0000
0000
0000
,
0001
0000
0000
0000
0000
0000
0000
1000
,
0000
0000
0000
0000
,
0010
0000
0000
0000
0000
0000
0000
0100
,
0000
0000
0000
0000
,
0100
0000
0000
0000
0000
0000
0000
0010
,
0000
0000
0000
0000
,
0001
0000
0000
0000
0000
0010
0000
0000
,
0000
0100
1000
0100
1000
1000
0000
0000
,
0000
0000
0000
1000
0000
0000
0000
0010
,
0000
0000
0000
0000
0000
0001
0000
0000
,
0000
0100
0000
0000
0000
0000
0000
0010
,
0000
0000
0000
0000
0000
0001
0000
0000
,
0000
0000
0000
0000
0000
0000
0000
1000
,
0000
0000
0000
0000
0000
0010
0000
0000
,
0000
0010
0000
0000
0000
1000
0000
0000
,
0000
1000
0000
0000
0000
0100
0000
0000
,
0000
0000
0000
0000
0000
0000
0000
1000
,
0000
0000
0000
0000
0000
0100
0000
0000
,
0000
0000
0000
0000
0000
0000
0000
0001
,
0000
0000
0000
0000
0000
0001
0000
0000
,
0000
0000
0000
0000
0000
0000
0000
0100
,
0000
0000
0000
0000
0000
0010
0000
0000
,
0000
1000
0000
0000
0000
1000
0000
0000
,
0000
0100
0000
0000
0000
1000
0000
0000
,
0000
0000
0000
0000
0000
0000
0000
1000
,
0000
0000
0000
0000
0000
0100
0000
0000
,
0000
0001
0000
0000
0000
0000
0000
1000
,
0000
0000
0000
0000
0000
0010
0000
0000
,
0000
0000
0000
0000
0000
0000
0000
1000
,
0000
0000
0000
0000
0000
0010
0000
0000
,
0000
0010
0000
0000
0000
1000
0000
0000
,
0000
0001
0000
0000
0000
0001
0000
0000
,
0000
0000
0000
0000
0000
0000
0000
1000
,
0000
0000
0000
0000
0000
0010
0000
0000
,
0000
0000
0000
0000
0000
0000
0000
1000
,
0000
0000
0000
0000
0000
0010
0000
0000
,
0000
0000
0000
0000
0000
0000
0000
0100
,
0000
0000
0000
0000
0000
1000
0000
0000
,
0000
0010
0000
0000
0000
0000
0000
0000
;

//--------------- dance-single - CTSMcharts ----------------
#NOTES:
     dance-single:
     CTSMcharts:
     Easy:
     4:
     0,0,0,0,0:
0000
0000
0000
0000
,
0000
0000
0000
0000
,
0000
0000
0000
0000
,
0000
0000
0000
0000
,
1002
0000
0000
0000
,
0000
0000
0000
0000
,
0000
2003
0000
0000
,
0000
0000
0000
0000
,
3020
0000
0000
0000
,
0000
0000
0000
0000
,
0230
0000
0000
0000
0000
0300
0200
0000
,
0000
0000
0000
0000
0000
0000
0000
0300
,
0002
0000
0000
0000
0000
0000
0000
0003
,
2000
0000
0000
0000
,
0000
3020
0000
0000
0000
0000
0000
0000
,
0000
0230
0000
0000
0000
0000
0000
0000
,
0000
0302
0000
0000
0000
0000
0000
0000
,
0000
0000
0000
0000
,
0000
2003
0000
0000
0000
0000
0000
0000
,
0000
3020
0000
0000
0000
0000
0000
0030
,
1000
0000
0000
0000
0001
0000
0000
1000
0000
0000
0000
0000
0000
0000
0000
0000
,
0001
0000
0000
0000
1000
0000
0000
0001
0000
0000
0000
0000
0000
0000
0000
0000
,
0001
0000
0000
0000
1000
0000
0000
0001
0000
0000
0000
0000
0000
0000
0000
0000
,
1000
0000
0000
0000
0001
0000
0000
1000
0000
0000
0000
0000
0000
0000
0000
0000
,
0010
0000
0000
0000
0100
0000
0000
0010
0000
0000
0000
0000
0000
0000
0000
0000
,
0100
0000
0000
0000
0010
0000
0000
0100
0000
0000
0000
0000
0000
0000
0000
0000
,
0100
0000
0000
0000
0010
0000
0000
0100
0000
0000
0000
0000
0000
0000
0000
0000
,
0010
0000
0000
0000
0100
0000
0000
0010
0000
0000
0000
0000
0000
0000
0000
0000
,
1000
0000
0000
0000
0001
0000
0000
1000
0000
0000
0000
0000
0000
0000
0000
0000
,
0001
0000
0000
0000
1000
0000
0000
0001
0000
0000
0000
0000
0000
0000
0000
0000
,
0001
0000
0000
0000
1000
0000
0000
0001
0000
0000
0000
0000
0000
0000
0000
0000
,
1000
0000
0000
0000
0001
0000
0000
1000
0000
0000
0000
0000
0000
0000
0000
0000
,
0010
0000
0000
0000
0100
0000
0000
0010
0000
0000
0000
0000
0000
0000
0000
0000
,
0100
0000
0000
0000
0010
0000
0000
0100
0000
0000
0000
0000
0000
0000
0000
0000
,
0100
0000
0000
0000
0010
0000
0000
0100
0000
0000
0000
0000
0000
0000
0000
0000
,
0010
0000
0000
0000
0100
0000
0000
0010
0000
0000
0000
0000
0000
0000
0000
0000
,
1000
0000
0000
0000
1000
0000
0000
1000
,
0000
0000
0000
0000
,
0001
0000
0000
0000
0001
0000
0000
0001
,
0000
0000
0000
0000
,
0100
0000
0000
0000
0100
0000
0000
0100
,
0000
0000
0000
0000
,
0010
0000
0000
0000
0010
0000
0000
0010
,
0000
0000
0000
0000
,
1000
0000
0000
0000
1000
0000
0000
1000
,
0000
0000
0000
0000
,
0001
0000
0000
0000
0001
0000
0000
0001
,
0000
0000
0000
0000
,
0100
0000
0000
0000
0100
0000
0000
0100
,
0000
0000
0000
0000
,
0010
0000
0000
0000
0010
0000
0000
0010
,
0000
0000
0000
0000
,
1000
0000
0000
0000
1000
0000
0000
1000
,
0000
0000
0000
0000
,
0001
0000
0000
0000
0001
0000
0000
0001
,
0000
0000
0000
0000
,
0100
0000
0000
0000
0100
0000
0000
0100
,
0000
0000
0000
0000
,
0010
0000
0000
0000
0010
0000
0000
0010
,
0000
0000
0000
0000
,
1000
0000
0000
0000
1000
0000
0000
1000
,
0000
0000
0000
0000
,
0001
0000
0000
0000
0001
0000
0000
0001
,
0000
0000
0000
0000
,
0100
0000
0000
0000
0100
0000
0000
0100
,
0000
0000
0000
0000
,
0010
0000
0000
0000
0010
0000
0000
0010
,
0000
0000
0000
0000
,
0001
0000
0000
0000
0000
0010
0000
0000
,
0000
0100
1000
0100
1000
1000
0000
0000
,
0000
0000
0000
1000
0000
0000
0000
0010
,
0000
0000
0001
0000
0000
0001
0000
0000
,
0000
0100
0000
0000
0100
0000
0000
0010
,
0000
0000
0100
0000
0000
0001
0000
0000
,
0000
0000
0001
0000
0000
0000
0000
1000
,
0000
0000
1000
0000
0000
0010
0000
0000
,
0000
0010
0000
0000
0000
1000
0000
0000
,
0000
1000
0000
0000
0000
0100
0000
0000
,
0000
0000
0010
0000
0000
0000
0000
1000
,
0000
0000
0010
0000
0000
0100
0000
0000
,
0001
0000
0000
0000
0100
0000
0000
0001
,
0000
0000
0001
0000
0000
0001
0000
0000
,
0000
0000
0001
0000
0000
0000
0000
0100
,
0000
0000
0001
0000
0000
0010
0000
0000
,
0000
1000
0000
0000
0000
1000
0000
0000
,
0000
0100
0000
0000
0000
1000
0000
0000
,
0000
0000
1000
0000
0000
0000
0000
1000
,
0000
0000
0001
0000
0000
0100
0000
0000
,
0000
0001
0000
0000
0100
0000
0000
1000
,
0000
0000
0100
0000
0000
0010
0000
0000
,
0000
0000
0100
0000
0000
0000
0000
1000
,
0000
0000
0100
0000
0000
0010
0000
0000
,
0000
0010
0000
0000
0000
1000
0000
0000
,
0000
0001
0000
0000
0000
0001
0000
0000
,
0000
0000
0001
0000
0000
0000
0000
1000
,
0000
0000
0100
0000
0000
0010
0000
0000
,
0001
0000
0000
0000
0100
0000
0000
1000
,
0000
0000
0001
0000
0000
0010
0000
0000
,
0000
0000
1000
0000
0000
0000
0000
0100
,
0000
0000
0001
0000
0000
1000
0000
0000
,
0000
0010
0000
0000
0000
0000
0000
0000
;

//--------------- dance-single - CTSMcharts ----------------
#NOTES:
     dance-single:
     CTSMcharts:
     Medium:
     6:
     0,0,0,0,0:
0000
0000
0000
0000
,
0000
0000
0000
0000
,
0000
0000
0000
0000
,
0000
0000
0000
0000
,
1002
0000
0000
0000
,
0000
0000
0000
0000
,
0000
2003
0000
0000
,
0000
0000
0000
0000
,
3020
0000
0000
0000
,
0000
0000
0000
0000
,
0230
0000
0000
0000
0000
0300
0200
0000
,
0000
0000
0000
0000
0000
0000
0000
0300
,
0002
0000
0000
0000
0000
0000
0000
0003
,
2000
0000
0000
0000
,
0000
3020
0000
0000
0000
0000
0000
0000
,
0000
0230
0000
0000
0000
0000
0000
0000
,
0000
0302
0000
0000
0000
0000
0000
0000
,
0000
0000
0000
0000
,
0000
2003
0000
0000
0000
0000
0000
0000
,
0000
3020
0000
0000
0000
0000
0000
0030
,
1000
0000
0000
0000
0001
0000
0000
1000
0000
0000
0000
0000
0000
0000
0000
0000
,
0001
0000
0000
0000
1000
0000
0000
0001
0000
0000
0000
0000
0000
0000
0000
0000
,
0001
0000
0000
0000
1000
0000
0000
0001
0000
0000
0000
0000
0000
0000
0000
0000
,
1000
0000
0000
0000
0001
0000
0000
1000
0000
0000
0000
0000
0000
0000
0000
0000
,
0010
0000
0000
0000
0100
0000
0000
0010
0000
0000
0000
0000
0000
0000
0000
0000
,
0100
0000
0000
0000
0010
0000
0000
0100
0000
0000
0000
0000
0000
0000
0000
0000
,
0100
0000
0000
0000
0010
0000
0000
0100
0000
0000
0000
0000
0000
0000
0000
0000
,
0010
0000
0000
0000
0100
0000
0000
0010
0000
0000
0000
0000
0000
0000
0000
0000
,
1000
0000
0000
0000
0001
0000
0000
1000
0000
0000
0000
0000
0000
0000
0000
0000
,
0001
0000
0000
0000
1000
0000
0000
0001
0000
0000
0000
0000
0000
0000
0000
0000
,
0001
0000
0000
0000
1000
0000
0000
0001
0000
0000
0000
0000
0000
0000
0000
0000
,
1000
0000
0000
0000
0001
0000
0000
1000
0000
0000
0000
0000
0000
0000
0000
0000
,
0010
0000
0000
0000
0100
0000
0000
0010
0000
0000
0000
0000
0000
0000
0000
0000
,
0100
0000
0000
0000
0010
0000
0000
0100
0000
0000
0000
0000
0000
0000
0000
0000
,
0100
0000
0000
0000
0010
0000
0000
0100
0000
0000
0000
0000
0000
0000
0000
0000
,
0010
0000
0000
0000
0100
0000
0000
0010
0000
0000
0000
0000
0000
0000
0000
0000
,
1000
0000
0000
0000
1000
0000
0000
1000
,
0000
0000
0000
0000
,
0001
0000
0000
0000
0001
0000
0000
0001
,
0000
0000
0000
0000
,
0100
0000
0000
0000
0100
0000
0000
0100
,
0000
0000
0000
0000
,
0010
0000
0000
0000
0010
0000
0000
0010
,
0000
0000
0000
0000
,
1000
0000
0000
0000
1000
0000
0000
1000
,
0000
0000
0000
0000
,
0001
0000
0000
0000
0001
0000
0000
0001
,
0000
0000
0000
0000
,
0100
0000
0000
0000
0100
0000
0000
0100
,
0000
0000
0000
0000
,
0010
0000
0000
0000
0010
0000
0000
0010
,
0000
0000
0000
0000
,
1000
0000
0000
0000
1000
0000
0000
1000
,
0000
0000
0000
0000
,
0001
0000
0000
0000
0001
0000
0000
0001
,
0000
0000
0000
0000
,
0100
0000
0000
0000
0100
0000
0000
0100
,
0000
0000
0000
0000
,
0010
0000
0000
0000
0010
0000
0000
0010
,
0000
0000
0000
0000
,
1000
0000
0000
0000
1000
0000
0000
1000
,
0000
0000
0000
0000
,
0001
0000
0000
0000
0001
0000
0000
0001
,
0000
0000
0000
0000
,
0100
0000
0000
0000
0100
0000
0000
0100
,
0000
0000
0000
0000
,
0010
0000
0000
0000
0010
0000
0000
0010
,
0000
0000
0000
0000
,
0001
0000
0000
0000
0000
0100
0000
0000
0000
0000
0010
0000
0000
0000
0000
1000
,
0000
0100
1000
0100
1000
1000
0000
0010
,
0000
0000
1000
0000
1000
0000
0000
0010
,
0000
0000
0001
0000
0000
0001
0000
0001
,
0000
0100
0000
0000
0100
0000
0000
0010
,
0000
0000
0100
0000
0000
0001
0000
0001
,
0000
0000
0001
0000
0100
0000
0000
1000
,
0000
0000
1000
0000
0000
0010
0000
0010
,
0000
0010
0000
0100
0000
1000
0000
0100
,
0000
1000
0000
0000
0000
0100
0000
0010
,
0000
0000
0010
0000
0010
0000
0000
1000
,
0000
0000
0010
0000
0000
0100
0000
0000
,
0001
0000
0100
0000
0100
0000
0000
0001
,
0000
0000
0001
0000
0000
0001
0000
0000
,
0000
0000
0001
0000
0001
0000
0000
0100
,
0000
0000
0001
0000
0000
0010
0000
0010
,
0000
1000
0000
0010
0000
1000
0000
1000
,
0000
0100
0000
0000
0000
1000
0000
0010
,
0000
0000
1000
0000
0010
0000
0000
1000
,
0000
0000
0001
0000
0000
0100
0000
0100
,
0000
0001
0000
0000
0100
0000
0000
1000
,
0000
0000
0100
0000
0000
0010
0000
0001
,
0000
0000
0100
0000
1000
0000
0000
1000
,
0000
0000
0100
0000
0000
0010
0000
0100
,
0000
0010
0000
0010
0000
1000
0000
1000
,
0000
0001
0000
0000
0000
0001
0000
0100
,
0000
0000
0001
0000
0010
0000
0000
1000
,
0000
0000
0100
0000
0000
0010
0000
0000
,
0001
0000
0100
0000
0100
0000
0000
1000
,
0000
0000
0001
0000
0000
0010
0000
0100
,
0000
0000
1000
0000
1000
0000
0000
0100
,
0000
0000
0001
0000
0000
1000
0000
0100
,
0000
0010
0000
0001
0000
0000
0000
0000
;

//--------------- dance-single - CTSMcharts ----------------
#NOTES:
     dance-single:
     CTSMcharts:
     Hard:
     7:
     0,0,0,0,0:
0000
0000
0000
0000
,
0000
0000
0000
0000
,
0000
0000
0000
0000
,
0000
0000
0000
0000
,
1002
0000
0000
0000
,
0000
0000
0000
0000
,
0000
2003
0000
0000
,
0000
0000
0000
0000
,
3020
0000
0000
0000
,
0000
0000
0000
0000
,
0230
0000
0000
0000
0000
0300
0200
0000
,
0000
0000
0000
0000
0000
0000
0000
0300
,
0002
0000
0000
0000
0000
0000
0000
0003
,
2000
0000
0000
0000
,
0000
3020
0000
0000
0000
0000
0000
0000
,
0000
0230
0000
0000
0000
0000
0000
0000
,
0000
0302
0000
0000
0000
0000
0000
0000
,
0000
0000
0000
0000
,
0000
2003
0000
0000
0000
0000
0000
0000
,
0000
3020
0000
0000
0000
0000
0000
0030
,
1000
0000
0001
0000
1000
0000
0000
1000
0000
0000
0000
0000
0000
0000
0000
0000
,
0001
0000
1000
0000
1000
0000
0000
0001
0000
0000
0000
0000
0000
0000
0000
0000
,
0001
0000
1000
0000
0001
0000
0000
0001
0000
0000
0000
0000
0000
0000
0000
0000
,
1000
0000
0001
0000
0001
0000
0000
1000
0000
0000
0000
0000
0000
0000
0000
0000
,
0010
0000
0100
0000
0010
0000
0000
0010
0000
0000
0000
0000
0000
0000
0000
0000
,
0100
0000
0010
0000
0010
0000
0000
0100
0000
0000
0000
0000
0000
0000
0000
0000
,
0100
0000
0010
0000
0100
0000
0000
0100
0000
0000
0000
0000
0000
0000
0000
0000
,
0010
0000
0100
0000
0100
0000
0000
0010
0000
0000
0000
0000
0000
0000
0000
0000
,
1000
0000
0001
0000
1000
0000
0000
1000
0000
0000
0000
0000
0000
0000
0000
0000
,
0001
0000
1000
0000
1000
0000
0000
0001
0000
0000
0000
0000
0000
0000
0000
0000
,
0001
0000
1000
0000
0001
0000
0000
0001
0000
0000
0000
0000
0000
0000
0000
0000
,
1000
0000
0001
0000
0001
0000
0000
1000
0000
0000
0000
0000
0000
0000
0000
0000
,
0010
0000
0100
0000
0010
0000
0000
0010
0000
0000
0000
0000
0000
0000
0000
0000
,
0100
0000
0010
0000
0010
0000
0000
0100
0000
0000
0000
0000
0000
0000
0000
0000
,
0100
0000
0010
0000
0100
0000
0000
0100
0000
0000
0000
0000
0000
0000
0000
0000
,
0010
0000
0100
0000
0100
0000
0000
0010
0000
0000
0000
0000
0000
0000
0000
0000
,
1000
0000
0001
0000
1000
0000
0000
1000
,
0000
0000
0000
0000
,
0001
0000
1000
0000
1000
0000
0000
0001
,
0000
0000
0000
0000
,
0001
0000
1000
0000
0001
0000
0000
0001
,
0000
0000
0000
0000
,
1000
0000
0001
0000
0001
0000
0000
1000
,
0000
0000
0000
0000
,
0010
0000
0100
0000
0010
0000
0000
0010
,
0000
0000
0000
0000
,
0100
0000
0010
0000
0010
0000
0000
0100
,
0000
0000
0000
0000
,
0100
0000
0010
0000
0100
0000
0000
0100
,
0000
0000
0000
0000
,
0010
0000
0100
0000
0100
0000
0000
0010
,
0000
0000
0000
0000
,
1000
0000
0001
0000
1000
0000
0000
1000
,
0000
0000
0000
0000
,
0001
0000
1000
0000
1000
0000
0000
0001
,
0000
0000
0000
0000
,
0001
0000
1000
0000
0001
0000
0000
0001
,
0000
0000
0000
0000
,
1000
0000
0001
0000
0001
0000
0000
1000
,
0000
0000
0000
0000
,
0010
0000
0100
0000
0010
0000
0000
0010
,
0000
0000
0000
0000
,
0100
0000
0010
0000
0010
0000
0000
0100
,
0000
0000
0000
0000
,
0100
0000
0010
0000
0100
0000
0000
0100
,
0000
0000
0000
0000
,
0010
0000
0100
0000
0100
0000
0000
0010
,
0000
0000
0000
0000
,
1100
0000
0000
0000
0000
0011
0000
0000
,
0000
0000
0100
0010
0100
0010
0100
0010
0100
0000
1000
0000
0000
0000
0010
0000
,
0000
0000
1000
0000
1000
0000
0000
0010
,
0000
0000
0001
0000
0000
0001
0000
0001
,
0000
0100
0000
0000
0100
0000
0000
0010
,
0000
0000
0100
0000
0000
0001
0000
0001
,
0000
0000
0001
0000
0100
0000
0000
1000
,
0000
0000
1000
0000
0000
0010
0000
0010
,
0000
0010
0000
0100
0000
1000
0000
0100
,
0000
1000
0000
0000
0000
0100
0000
0010
,
0000
0000
0010
0000
0010
0000
0000
1000
,
0000
0000
0010
0000
0000
0100
0000
0000
,
0001
0000
0100
0000
0100
0000
0000
0001
,
0000
0000
0001
0000
0000
0001
0000
0000
,
0000
0000
0001
0000
0001
0000
0000
0100
,
0000
0000
0001
0000
0000
0010
0000
0010
,
0000
1000
0000
0010
0000
1000
0000
1000
,
0000
0100
0000
0000
0000
1000
0000
0010
,
0000
0000
1000
0000
0010
0000
0000
1000
,
0000
0000
0001
0000
0000
0100
0000
0100
,
0000
0001
0000
0000
0100
0000
0000
1000
,
0000
0000
0100
0000
0000
0010
0000
0001
,
0000
0000
0100
0000
1000
0000
0000
1000
,
0000
0000
0100
0000
0000
0010
0000
0100
,
0000
0010
0000
0010
0000
1000
0000
1000
,
0000
0001
0000
0000
0000
0001
0000
0100
,
0000
0000
0001
0000
0010
0000
0000
1000
,
0000
0000
0100
0000
0000
0010
0000
0000
,
0001
0000
0100
0000
0100
0000
0000
1000
,
0000
0000
0001
0000
0000
0010
0000
0100
,
0000
0000
1000
0000
1000
0000
0000
0100
,
0000
0000
0001
0000
0000
0110
0000
0000
,
0000
1001
0000
0000
;

//--------------- dance-single - CTSMcharts ----------------
#NOTES:
     dance-single:
     CTSMcharts:
     Challenge:
     9:
     0,0,0,0,0:
0000
0000
0000
0000
,
0000
0000
0000
0000
,
0000
0000
0000
0000
,
0000
0000
0000
0000
,
1002
0000
0000
0000
,
0000
0000
0000
0000
,
0000
2003
0000
0000
,
0000
0000
0000
0000
,
3020
0000
0000
0000
,
0000
0000
0000
0000
,
0230
0000
0000
0000
0000
0300
0200
0000
,
0000
0000
0000
0000
0000
0000
0000
0300
,
0002
0000
0000
0000
0000
0000
0000
0003
,
2000
0000
0000
0000
,
0000
3020
0000
0000
0000
0000
0000
0000
,
0000
0230
0000
0000
0000
0000
0000
0000
,
0000
0302
0000
0000
0000
0000
0000
0000
,
0000
0000
0000
0000
,
0000
2003
0000
0000
0000
0000
0000
0000
,
0000
3020
0000
0000
0000
0000
0000
0030
,
1000
0001
1000
0001
1000
0000
0000
1000
0000
0000
0000
0000
0000
0000
0000
0000
,
0001
0000
1000
0001
1000
0001
0000
0001
0000
0000
0000
0000
0000
0000
0000
0000
,
0001
1000
0001
1000
0001
0000
0000
0001
0000
0000
0000
0000
0000
0000
0000
0000
,
1000
0000
0001
1000
0001
1000
0000
1000
0000
0000
0000
0000
0000
0000
0000
0000
,
0010
0100
0010
0100
0010
0000
0000
0010
0000
0000
0000
0000
0000
0000
0000
0000
,
0100
0000
0010
0100
0010
0100
0000
0100
0000
0000
0000
0000
0000
0000
0000
0000
,
0100
0010
0100
0010
0100
0000
0000
0100
0000
0000
0000
0000
0000
0000
0000
0000
,
0010
0000
0100
0010
0100
0010
0000
0010
0000
0000
0000
0000
0000
0000
0000
0000
,
1000
0001
1000
0001
1000
0000
0000
1000
0000
0000
0000
0000
0000
0000
0000
0000
,
0001
0000
1000
0001
1000
0001
0000
0001
0000
0000
0000
0000
0000
0000
0000
0000
,
0001
1000
0001
1000
0001
0000
0000
0001
0000
0000
0000
0000
0000
0000
0000
0000
,
1000
0000
0001
1000
0001
1000
0000
1000
0000
0000
0000
0000
0000
0000
0000
0000
,
0010
0100
0010
0100
0010
0000
0000
0010
0000
0000
0000
0000
0000
0000
0000
0000
,
0100
0000
0010
0100
0010
0100
0000
0100
0000
0000
0000
0000
0000
0000
0000
0000
,
0100
0010
0100
0010
0100
0000
0000
0100
0000
0000
0000
0000
0000
0000
0000
0000
,
0010
0000
0100
0010
0100
0010
0000
0010
0000
0000
0000
0000
0000
0000
0000
0000
,
1000
0001
1000
0001
1000
0000
0000
1000
,
0000
0000
0000
0000
,
0001
0000
1000
0001
1000
0001
0000
0001
,
0000
0000
0000
0000
,
0001
1000
0001
1000
0001
0000
0000
0001
,
0000
0000
0000
0000
,
1000
0000
0001
1000
0001
1000
0000
1000
,
0000
0000
0000
0000
,
0010
0100
0010
0100
0010
0000
0000
0010
,
0000
0000
0000
0000
,
0100
0000
0010
0100
0010
0100
0000
0100
,
0000
0000
0000
0000
,
0100
0010
0100
0010
0100
0000
0000
0100
,
0000
0000
0000
0000
,
0010
0000
0100
0010
0100
0010
0000
0010
,
0000
0000
0000
0000
,
1000
0001
1000
0001
1000
0000
0000
1000
,
0000
0000
0000
0000
,
0001
0000
1000
0001
1000
0001
0000
0001
,
0000
0000
0000
0000
,
0001
1000
0001
1000
0001
0000
0000
0001
,
0000
0000
0000
0000
,
1000
0000
0001
1000
0001
1000
0000
1000
,
0000
0000
0000
0000
,
0010
0100
0010
0100
0010
0000
0000
0010
,
0000
0000
0000
0000
,
0100
0000
0010
0100
0010
0100
0000
0100
,
0000
0000
0000
0000
,
0100
0010
0100
0010
0100
0000
0000
0100
,
0000
0000
0000
0000
,
0010
0000
0100
0010
0100
0010
0000
0010
,
0000
0000
0000
0000
,
1100
0000
0000
0000
0000
0011
0000
0000
,
0000
0000
0000
0000
0000
0000
0000
0000
0000
0000
0000
0000
0000
0000
0000
0000
0000
0000
0000
0000
0000
0000
0000
0000
0100
0000
0000
0000
0000
0000
0000
0010
0000
0000
0000
0000
0000
0000
0200
0000
0000
0000
0000
0000
0300
0000
0000
0000
0000
0000
0000
0000
0000
0000
0000
0010
0000
0000
0000
0000
0200
0000
0000
0000
0000
0000
0000
0000
0000
0300
0000
0000
0000
0010
0000
0000
0000
0000
0000
0100
0000
0000
0000
0000
0000
0020
0000
0000
0000
0000
0000
0000
0030
0000
0000
0000
0000
0000
0000
0000
0000
0000
0000
0000
0000
0000
0000
0000
0000
0000
0000
0000
0000
0000
0000
0000
0000
0000
0000
0000
1000
0000
0000
0000
0000
0000
0000
0000
0000
0000
0000
0000
0000
0000
0000
0000
0000
0000
0000
0000
0000
0000
0000
0000
0000
0000
0000
0000
0000
0000
0000
0000
0000
0000
0000
0000
0000
0000
0000
0000
0000
0000
0000
0000
0000
0000
0000
0000
0010
0000
0000
0000
0000
0000
0000
0000
0000
0000
0000
0000
0000
0000
0000
0000
0000
0000
0000
0000
0000
0000
0000
0000
,
0000
0000
1000
0100
1000
0100
0000
0010
,
0000
0000
0001
0000
0000
0001
0100
0001
,
0000
0100
0000
0000
0100
0010
0000
0010
,
0000
0000
0100
0000
0000
0001
0000
0001
,
0000
0000
0001
0010
0100
1000
0000
1000
,
0000
0000
1000
0000
0000
0010
0100
0010
,
0000
0010
0000
0100
0000
1000
0100
1000
,
0100
1000
0000
0000
0000
0100
0000
0010
,
0000
0000
0010
0001
0010
0100
0000
1000
,
0000
0000
0010
0000
0000
0100
0000
0000
,
0001
1000
0100
1000
0100
0010
0000
0001
,
0000
0000
0001
0000
0000
0001
0100
0000
,
0000
0000
0001
0100
0001
0100
0000
0100
,
0000
0000
0001
0000
0000
0010
1000
0010
,
0000
1000
0000
0010
0000
1000
0010
1000
,
0000
0100
0000
0000
0000
1000
0000
0010
,
0000
0000
1000
0100
0010
0001
0000
1000
,
0000
0000
0001
0000
0000
0100
0010
0100
,
0000
0001
0000
0000
0100
0010
0000
1000
,
0000
0000
0100
0000
0000
0010
0000
0001
,
0000
0000
0100
0010
1000
0001
0000
1000
,
0000
0000
0100
0000
0000
0010
0001
0100
,
0000
0010
0000
0010
0000
1000
0100
1000
,
0100
0001
0000
0000
0000
0001
0000
0100
,
0000
0000
0001
0100
0010
1000
0000
1000
,
0000
0000
0100
0000
0000
0010
0000
0000
,
0001
0000
0100
0010
0100
0010
0000
1000
,
0000
0000
0001
0000
0000
0010
0000
0100
,
0000
0000
1000
0001
1000
0001
0000
0100
,
0000
0000
0001
0000
0000
0110
0000
0000
,
0000
1001
0000
0000
;

//--------------- dance-single - CTSMcharts ----------------
#NOTES:
     dance-single:
     CTSMcharts:
     Edit:
     10:
     0,0,0,0,0:
0000
0000
0000
0000
,
0000
0000
0000
0000
,
0000
0000
0000
0000
,
0000
0000
0000
0000
,
1004
0000
0000
0000
,
0000
0000
0000
0000
,
0000
4003
0000
0000
,
0000
0000
0000
0000
,
3040
0000
0000
0000
,
0000
0000
0000
0000
,
0230
0000
0000
0000
0000
0300
0200
0000
,
0000
0000
0000
0000
0000
0000
0000
0300
,
0002
0000
0000
0000
0000
0000
0000
0003
,
2000
0000
0000
0000
,
0000
3040
0000
0000
0000
0000
0000
0000
,
0000
0430
0000
0000
0000
0000
0000
0000
,
0000
0304
0000
0000
0000
0000
0000
0000
,
0000
0000
0000
0000
,
0000
4003
0000
0000
0000
0000
0000
0000
,
0000
3040
0000
0000
0000
0000
0000
0030
,
1000
0001
1000
0001
1000
0000
0000
1000
0000
0000
0000
0000
0000
0000
0000
0000
,
0001
0000
1000
0001
1000
0001
0000
0001
0000
0000
0000
0000
0000
0000
0000
0000
,
0001
1000
0001
1000
0001
0000
0000
0001
0000
0000
0000
0000
0000
0000
0000
0000
,
1000
0000
0001
1000
0001
1000
0000
1000
0000
0000
0000
0000
0000
0000
0000
0000
,
0010
0100
0010
0100
0010
0000
0000
0010
0000
0000
0000
0000
0000
0000
0000
0000
,
0100
0000
0010
0100
0010
0100
0000
0100
0000
0000
0000
0000
0000
0000
0000
0000
,
0100
0010
0100
0010
0100
0000
0000
0100
0000
0000
0000
0000
0000
0000
0000
0000
,
0010
0000
0100
0010
0100
0010
0000
0010
0000
0000
0000
0000
0000
0000
0000
0000
,
1000
0001
1000
0001
1000
0000
0000
1000
0000
0000
0000
0000
0000
0000
0000
0000
,
0001
0000
1000
0001
1000
0001
0000
0001
0000
0000
0000
0000
0000
0000
0000
0000
,
0001
1000
0001
1000
0001
0000
0000
0001
0000
0000
0000
0000
0000
0000
0000
0000
,
1000
0000
0001
1000
0001
1000
0000
1000
0000
0000
0000
0000
0000
0000
0000
0000
,
0010
0100
0010
0100
0010
0000
0000
0010
0000
0000
0000
0000
0000
0000
0000
0000
,
0100
0000
0010
0100
0010
0100
0000
0100
0000
0000
0000
0000
0000
0000
0000
0000
,
0100
0010
0100
0010
0100
0000
0000
0100
0000
0000
0000
0000
0000
0000
0000
0000
,
0010
0000
0100
0010
0100
0010
0000
0010
0000
0000
0000
0000
0000
0000
0000
0000
,
1000
0001
1000
0001
1000
0000
0000
1000
,
0000
0000
0000
0000
,
0001
0000
1000
0001
1000
0001
0000
0001
,
0000
0000
0000
0000
,
0001
1000
0001
1000
0001
0000
0000
0001
,
0000
0000
0000
0000
,
1000
0000
0001
1000
0001
1000
0000
1000
,
0000
0000
0000
0000
,
0010
0100
0010
0100
0010
0000
0000
0010
,
0000
0000
0000
0000
,
0100
0000
0010
0100
0010
0100
0000
0100
,
0000
0000
0000
0000
,
0100
0010
0100
0010
0100
0000
0000
0100
,
0000
0000
0000
0000
,
0010
0000
0100
0010
0100
0010
0000
0010
,
0000
0000
0000
0000
,
1000
0001
1000
0001
1000
0000
0000
1000
,
0000
0000
0000
0000
,
0001
0000
1000
0001
1000
0001
0000
0001
,
0000
0000
0000
0000
,
0001
1000
0001
1000
0001
0000
0000
0001
,
0000
0000
0000
0000
,
1000
0000
0001
1000
0001
1000
0000
1000
,
0000
0000
0000
0000
,
0010
0100
0010
0100
0010
0000
0000
0010
,
0000
0000
0000
0000
,
0100
0000
0010
0100
0010
0100
0000
0100
,
0000
0000
0000
0000
,
0100
0010
0100
0010
0100
0000
0000
0100
,
0000
0000
0000
0000
,
0010
0000
0100
0010
0100
0010
0000
0010
,
0000
0000
0000
0000
,
1100
0000
0000
0000
0000
0011
0000
0000
,
0000
0000
0000
0000
0000
0000
0000
0000
0000
0000
0000
0000
0000
0000
0000
0000
0000
0000
0000
0000
0000
0000
0000
0000
0100
0000
0000
0000
0000
0000
0000
0010
0000
0000
0000
0000
0000
0000
0100
0000
0000
0000
0000
0000
0100
0000
0000
0000
0000
0000
0000
0000
0000
0000
0000
0010
0000
0000
0000
0000
0100
0000
0000
0000
0000
0000
0000
0000
0000
0100
0000
0000
0000
0010
0000
0000
0000
0000
0000
0100
0000
0000
0000
0000
0000
0010
0000
0000
0000
0000
0000
0010
0000
0000
0000
0000
0000
0000
0000
0000
0000
0000
0000
0000
0000
0000
0000
0000
0000
0000
0000
0000
0000
0000
0000
0000
0000
0000
0000
0000
1000
0000
0000
0000
0000
0000
0000
0000
0000
0000
0000
0000
0000
0000
0000
0000
0000
0000
0000
0000
0000
0000
0000
0000
0000
0000
0000
0000
0000
0000
0000
0000
0000
0000
0000
0000
0000
0000
0000
0000
0000
0000
0000
0000
0000
0000
0000
0000
0010
0000
0000
0000
0000
0000
0000
0000
0000
0000
0000
0000
0000
0000
0000
0000
0000
0000
0000
0000
0000
0000
0000
0000
,
0000
0000
1000
0100
1000
0100
0000
0010
,
0000
0000
0001
0000
0000
0001
0100
0001
,
0000
0100
0000
0000
0100
0010
0000
0010
,
0000
0000
0100
0000
0000
0001
0000
0001
,
0000
0000
0001
0010
0100
1000
0000
1000
,
0000
0000
1000
0000
0000
0010
0100
0010
,
0000
0010
0000
0100
0000
1000
0100
1000
,
0100
1000
0000
0000
0000
0100
0000
0010
,
0000
0000
0010
0001
0010
0100
0000
1000
,
0000
0000
0010
0000
0000
0100
0000
0000
,
0001
1000
0100
1000
0100
0010
0000
0001
,
0000
0000
0001
0000
0000
0001
0100
0000
,
0000
0000
0001
0100
0001
0100
0000
0100
,
0000
0000
0001
0000
0000
0010
1000
0010
,
0000
1000
0000
0010
0000
1000
0010
1000
,
0000
0100
0000
0000
0000
1000
0000
0010
,
0000
0000
1000
0100
0010
0001
0000
1000
,
0000
0000
0001
0000
0000
0100
0010
0100
,
0000
0001
0000
0000
0100
0010
0000
1000
,
0000
0000
0100
0000
0000
0010
0000
0001
,
0000
0000
0100
0010
1000
0001
0000
1000
,
0000
0000
0100
0000
0000
0010
0001
0100
,
0000
0010
0000
0010
0000
1000
0100
1000
,
0100
0001
0000
0000
0000
0001
0000
0100
,
0000
0000
0001
0100
0010
1000
0000
1000
,
0000
0000
0100
0000
0000
0010
0000
0000
,
0001
0000
0100
0010
0100
0010
0000
1000
,
0000
0000
0001
0000
0000
0010
0000
0100
,
0000
0000
1000
0001
1000
0001
0000
0100
,
0000
0000
0001
0000
0000
0110
0000
0000
,
0000
1001
0000
0000
;
