#VERSION:0.83;
#TITLE:Free Fall;
#SUBTITLE:Audioscribe - Free Fall [NCS Release].mp3;
#ARTIST:Audioscribe;
#TITLETRANSLIT:;
#SUBTITLETRANSLIT:;
#ARTISTTRANSLIT:;
#GENRE:;
#CREDIT:ncs.io;
#MUSIC:Audioscribe - Free Fall [NCS Release].mp3;
#BANNER:;
#BACKGROUND:;
#CDTITLE:;
#SAMPLESTART:16.500;
#SAMPLELENGTH:22.000;
#SELECTABLE:YES;
#OFFSET:0.000;
#BPMS:0.000=175.000
,177.000=87.500
,241.000=175.000
,368.750=350.000
,624.000=87.500
;
#STOPS:;
#DISPLAYBPM:87.500:350.000;
#BGCHANGES:;
#FGCHANGES:;

//--------------- dance-single - CT ----------------
#NOTEDATA:;
#STEPSTYPE:dance-single;
#DESCRIPTION:CT;
#DIFFICULTY:Edit;
#METER:11;
#RADARVALUES:0,0,0,0,0;
#NOTES:
0000
0000
0000
0000
,
0000
0000
0000
0000
,
0000
0000
0000
0000
,
0000
0000
0000
0000
,
0000
0001
0010
0001
0010
0000
0000
0000
,
0000
1000
0100
1000
0100
0000
0000
0000
,
0000
0100
0010
0100
0010
0000
0000
0000
,
0000
1000
0001
1000
0001
0000
0000
0000
,
0000
1000
0010
1000
0010
0000
0000
0000
,
0000
0001
0100
0001
0100
0000
0000
0000
,
0000
0100
0001
0100
0001
0000
0000
0000
,
0000
0020
0000
0000
0000
0000
0000
0000
,
0030
1000
0000
0001
0000
0000
1000
0001
,
0000
0100
0000
0010
0000
0000
0100
0010
,
0000
0010
0000
0100
0000
0000
0010
0100
,
0000
1000
0000
0010
0000
0000
1000
0010
,
0000
1000
0000
0010
0000
0000
1000
0010
,
0000
0100
0000
0001
0000
0000
0100
0001
,
0000
2000
0000
3020
0000
0000
2030
3020
,
0030
0002
0000
0023
0000
0000
0032
0023
,
0030
1000
0000
0010
0000
0000
0100
0001
,
0000
1000
0000
0100
0000
0000
0010
0001
,
0000
0001
0000
0010
0000
0000
0100
1000
,
0000
1000
0000
0100
0000
0000
0010
0100
,
0000
0001
0000
0100
0000
0000
0010
1000
,
0000
1000
0000
0001
0000
0000
0100
0010
,
0000
0100
0000
0010
0000
0000
1000
0001
,
0000
0000
2100
0010
0001
0010
0100
0010
,
0001
0010
3100
0000
1200
0000
0000
0000
,
0300
0010
0000
0001
0000
0010
0000
0000
,
0000
0000
0100
0200
0000
0000
0000
0000
,
0300
0010
0000
1000
0000
0010
0000
0000
,
0000
0000
0010
0020
0000
0000
0000
0000
,
0030
0100
0000
0001
0000
0100
0000
0000
,
0000
0000
0110
0110
0000
0000
0000
0000
,
0000
1001
0000
1001
0000
1001
0000
0000
,
0000
0000
1010
0010
0000
0000
0000
0000
,
0000
0011
0000
1001
0000
1100
0000
0000
,
0000
0000
0000
1000
0100
0000
0000
0000
,
0000
0100
0000
0010
0000
0001
0000
0000
,
0000
0000
0000
0001
0010
0000
0000
0000
,
0000
0010
0000
0100
0000
1000
0000
0000
,
0000
0000
1000
1000
0000
0000
0000
0000
,
1001
0220
0000
0000
0000
0000
0000
0000
,
0000
0000
0330
0000
0110
0000
0000
0000
0000
0000
0000
0000
1000
0100
0010
0000
,
0000
0000
0000
0000
0110
0000
0000
0000
0000
0000
0000
0000
0001
0010
0100
0000
,
0000
0000
0000
0000
1010
0000
0000
0000
0000
0000
0000
0000
0100
0001
0000
0100
,
0000
0000
0000
0000
0101
0000
0000
0000
0000
0000
0000
0000
0010
1000
0010
0000
,
0000
0000
0000
0000
1100
0000
0000
0000
0000
0000
0000
0000
0010
0001
0010
0000
,
0000
0000
0000
0000
0011
0000
0000
0000
0000
0000
0000
0000
0100
1000
0100
0000
,
0000
0000
0000
0000
0110
0000
0000
0000
0000
0000
0000
0000
1010
0101
1010
0000
,
0000
0000
0000
0000
1001
0000
0000
0000
0000
0000
0000
0000
0101
1010
0101
0000
,
0000
0000
0000
0200
0000
0000
0000
0000
0000
0000
0000
0000
0000
0000
0000
0000
,
0000
0000
0000
0000
0000
0000
0000
0000
0000
0000
0000
0000
0000
0300
0000
0000
,
1000
0100
1000
0200
0000
0000
0000
0000
0000
0000
0000
0000
0000
0000
0000
0000
0000
0000
0000
0000
0000
0000
0000
0000
0000
0000
0000
0000
0000
0000
0000
0000
,
0000
0000
0000
0000
0000
0000
0000
0300
,
1000
0100
1000
0200
0000
0000
0000
0000
0000
0000
0000
0000
0000
0000
0000
0000
0000
0000
0000
0000
0000
0000
0000
0000
0000
0000
0000
0000
0000
0000
0000
0000
,
0000
0000
0000
0000
0000
0000
0000
0300
,
1000
0100
1000
0200
0000
0000
0000
0000
0000
0000
0000
0000
0000
0000
0000
0000
0000
0000
0000
0000
0000
0000
0000
0000
0000
0000
0000
0000
0000
0000
0000
0000
,
0000
0000
0000
0000
,
0000
0300
0100
0000
0000
0000
0000
0000
,
0000
1000
0010
0001
0000
0000
0000
0000
,
0000
0010
0000
0000
,
0000
0001
0010
1000
0000
0000
0000
0000
,
0000
1000
0000
0000
,
0000
0100
0010
0001
0000
0000
0000
0000
,
0000
1000
0000
0000
,
0000
0100
0010
0001
0000
0000
0000
0000
,
0000
0010
0000
0000
,
0000
1000
0100
0001
0000
0000
0000
0000
,
0000
0100
0000
0000
0000
0000
0000
0000
,
0000
0000
0000
0000
1000
0000
0010
0000
0001
0010
0001
0010
0000
0000
0000
0000
,
1000
1000
1000
1000
,
1000
1000
1000
1000
,
1000
0000
1000
0001
1000
0001
1000
0001
,
1000
0001
1000
0002
0000
0000
0000
0000
,
0000
0003
1000
0000
0002
1000
0000
0000
,
0003
0000
0000
1000
0000
0000
0100
0000
0000
0010
0000
0000
0000
0000
0000
0000
,
0000
0001
0000
0000
0000
0000
0000
0000
,
0000
0000
0000
1000
0000
0000
0100
0000
0000
0010
0000
0000
0000
0000
0000
0000
,
0000
0001
0000
0000
0000
0000
0000
0000
,
0000
0000
0000
1000
0000
0000
0100
0000
0000
0010
0000
0000
0000
0000
0000
0000
,
0000
0001
0000
0000
0000
0000
0000
0000
,
0000
0000
0000
1000
0000
0000
0100
0000
0000
0010
0000
0000
0000
0000
0000
0000
,
0000
1000
0000
0000
0000
0000
0000
0000
,
0000
0000
0000
0100
0000
0000
0010
0000
0000
0001
0000
0000
0000
0000
0000
0000
,
0000
1000
0000
0000
0000
0000
0000
0000
,
0000
0000
0000
0100
0000
0000
0010
0000
0000
0001
0000
0000
0000
0000
0000
0000
,
0000
0100
0000
0000
0000
0000
0000
0000
,
0000
0000
0000
0100
0000
0000
0100
0000
0000
0100
0000
0000
0000
0000
0000
0000
,
0000
0020
0000
0000
1000
0000
0100
0000
,
0001
0000
0000
0000
0000
0000
0000
0030
,
0000
0000
0000
0100
0000
0000
0000
0000
0000
0000
0000
0000
0100
0000
0000
0000
,
0000
0100
0000
0100
,
0000
0100
0000
1000
,
0000
0100
0000
0001
,
0000
0010
0000
1000
,
0000
0100
0000
0100
,
0000
0100
0000
0100
,
0000
1100
0000
0011
,
0000
0101
0000
1010
,
0000
0100
0000
0100
,
0000
0100
0000
0100
,
0000
0010
0000
0010
,
0000
0010
0000
0010
,
0000
0001
0000
0001
,
0000
0001
0000
0001
,
0000
0100
0000
0100
,
0000
0100
0000
0100
,
0000
1000
0000
1000
,
0000
1000
0000
1000
,
0000
0100
0000
1000
,
0000
0100
0000
0001
,
0000
0100
0000
1000
,
0000
1000
0000
0001
,
0000
0001
0000
1000
,
0000
0101
0000
0110
,
0000
0110
0000
1001
,
0000
1001
0000
1001
,
0000
0001
0000
0001
,
0000
0001
0000
1000
,
0000
0001
0000
0000
,
0200
0000
0000
0000
,
0000
0000
0000
0000
,
0300
0000
0000
0100
,
1000
0000
0000
0000
,
0001
0010
0001
0010
,
0000
0000
0000
0000
,
0100
0010
0100
0010
,
0000
0000
0000
0000
,
1000
0100
1000
0100
,
0000
0000
0000
0000
,
0100
0001
0100
0001
,
0000
0000
0000
0000
,
0100
1000
0100
1000
,
0000
0000
0000
0000
,
0100
0010
0100
0010
,
0000
0000
0000
0000
,
0010
0010
0010
0010
,
0000
0000
0000
0000
,
0100
0100
0100
0100
,
0000
0000
0000
0000
,
1000
1000
1000
1000
,
0000
0000
0000
0000
,
0001
0001
0001
0001
,
0000
0000
0000
0000
,
0001
0100
0001
0100
,
0000
0000
0000
0000
,
1000
0010
1000
0010
,
0000
0000
0000
0000
,
1000
0100
1000
0100
,
0000
0000
0000
0000
,
0001
0010
0001
0010
,
0000
0000
0000
0000
,
2002
0000
0000
0000
,
0000
0000
0000
3003
,
1001
0000
1000
0000
0000
0000
0000
0000
1000
0100
0010
0000
0000
0000
0000
0000
,
0110
0000
0100
0000
0000
0000
0000
0000
0001
0010
0100
0000
0000
0000
0000
0000
,
1000
0000
0001
0000
0000
0000
0000
0000
0000
0000
0010
0010
0010
0000
0000
0000
,
0001
0000
1000
0000
0000
0000
0000
0000
0000
0000
0100
0100
0100
0000
0000
0000
,
0002
0000
1000
0000
0003
0000
0000
0000
0000
0000
2000
0100
0010
0000
3000
0000
,
0001
0000
0010
0000
0000
0000
0000
0000
0000
0000
0100
1000
0100
0000
0000
0000
,
1000
0000
0100
0000
0000
0000
0000
0000
0000
0000
0010
0001
0010
0000
0000
0000
,
0110
0000
0110
0000
0000
0000
0000
0000
0000
0000
1001
1001
1001
0000
0000
0000
;
