#TITLE:greazy boi & slippy eel;
#SUBTITLE:;
#ARTIST:GPF & Gladde Paling;
#TITLETRANSLIT:;
#SUBTITLETRANSLIT:;
#ARTISTTRANSLIT:;
#GENRE:;
#CREDIT:;
#BANNER:greazy boi & slippy eel-banner.png;
#BACKGROUND:greazy boi & slippy eel-bg.png;
#LYRICSPATH:;
#CDTITLE:;
#MUSIC:greazy boi & slippy eel.ogg;
#OFFSET:0.040000;
#SAMPLESTART:88.208748;
#SAMPLELENGTH:10.378365;
#SELECTABLE:YES;
#BPMS:0.000000=185.000397
,212.000000=92.500328
,216.000000=185.000275
,316.000000=92.500130
;
#STOPS:61.500000=0.040541,
62.000000=0.040541,
62.500000=0.040541,
63.000000=0.040541,
155.500000=0.972973,
187.500000=0.162159,
244.000000=1.297295
;
#BGCHANGES:;
#KEYSOUNDS:;
#ATTACKS:;

//---------------dance-single - ----------------
#NOTES:
     dance-single:
     :
     Beginner:
     3:
     0.103557,0.181224,0.082583,0.064231,0.009176,79.000000,70.000000,9.000000,7.000000,0.000000,0.000000,0.000000,0.000000,0.000000,0.103557,0.181224,0.082583,0.064231,0.009176,79.000000,70.000000,9.000000,7.000000,0.000000,0.000000,0.000000,0.000000,0.000000:
0000
0000
0000
0000
,
0000
0000
0000
0000
,
0000
0000
0000
0000
,
0000
0000
0000
0000
,
1000
0000
0000
0000
,
1000
0000
0000
0000
,
0002
0000
0000
0000
,
0003
0000
0000
0000
,
0100
0000
0000
0000
,
0100
0000
0000
0000
,
0010
0000
0000
0000
,
0010
0000
0000
0000
,
1000
0000
0000
0000
,
0001
0000
0000
0000
,
0110
0000
0000
0000
,
0000
0000
0000
0000
0000
0000
0000
1000
,
0000
0000
0000
0000
,
0000
0000
0000
0000
0000
0000
0000
0001
,
0000
0000
0000
0000
,
0000
0000
0000
0000
0000
0000
0000
0100
,
0000
0000
0000
0000
,
0000
0000
0000
0000
0000
0000
0000
0110
,
0000
0000
0000
0000
,
0000
0000
0000
0000
0000
0000
0000
1000
,
0000
0000
0000
0000
,
0000
0000
0000
0000
0000
0000
0000
0001
,
0000
0000
0000
0000
,
0000
0000
0000
0000
0000
0000
0000
0100
,
0000
0000
0000
0000
,
0000
0000
0000
0000
0000
0000
0000
0020
,
0000
0000
0000
0030
,
0000
0000
0000
0000
0000
0000
0000
1000
,
0000
0000
0000
0000
0000
0000
0000
1000
,
0000
0000
0000
0000
0000
0000
0000
0001
,
0000
0000
0000
0000
0000
0000
0000
0001
,
0000
0000
0000
0000
0000
0000
0000
0200
,
0000
0000
0000
0000
0000
0000
0000
0320
,
0000
0000
0000
0000
0000
0000
0000
0230
,
0000
0000
0000
0000
0000
0000
0000
0300
,
0000
0110
0000
0000
0000
0000
0000
0000
,
0000
0000
0000
0000
,
0000
1000
0000
0000
0000
0000
0000
0000
,
0000
0001
0000
0000
0000
0000
0000
0000
,
0000
0110
0000
0000
0000
0000
0000
0000
,
0000
0000
0000
0000
,
0000
0100
0000
0000
0000
0010
0000
0000
,
0000
0100
0000
0000
0000
0000
0000
0000
,
0110
0000
0000
0000
,
0000
0000
0000
0000
,
1000
0000
0000
0000
,
0001
0000
0000
0000
,
0110
0000
0000
0000
,
0000
0000
0000
0000
,
0200
0000
0000
0000
0000
0000
0000
0300
0000
0000
0000
0000
0000
0000
0000
0000
,
1000
0000
0000
0000
,
1000
0000
0000
0000
,
0001
0000
0000
0000
,
0001
0000
0000
0000
,
0100
0000
0000
0000
,
0100
0000
0000
0000
,
0020
0000
0000
0000
0000
0000
0000
0030
,
0000
0110
0000
0000
0000
0000
0000
0000
0000
0000
0000
0000
0000
0000
0000
0000
0000
0000
0000
0000
0000
0000
0000
0000
0000
0000
0000
0000
0000
0000
0000
0000
0000
0000
0000
0000
0000
0000
0000
0000
0000
0000
0000
0000
0000
0000
0000
0000
0000
0000
0000
0000
0000
0000
0000
0000
0000
0000
0000
0000
0000
0000
0000
0000
0000
0000
0000
0000
0000
0000
0000
0000
0000
0000
0000
0000
0000
0000
0000
0000
0000
0000
0000
0000
0000
0000
0000
0000
0000
0000
0000
0000
0000
0000
0000
0000
0000
0000
0000
0000
0000
0000
0000
0000
0000
0000
0000
0000
0000
0000
0000
0000
0000
0000
0000
0000
0000
0000
0000
0000
0000
0000
0000
0000
0000
0000
0000
0000
0000
0000
0000
0000
0000
0000
0000
0000
0000
0000
0000
0000
0000
0000
0000
0000
0000
0000
0000
0000
0000
0000
0000
0000
0000
0000
0000
0000
0000
0000
0000
0000
0000
0000
0000
0000
0000
0000
0000
0000
0000
0000
0000
0000
0000
0000
0000
0000
0000
0000
0000
0000
0000
0000
0000
0000
0000
0000
0000
0000
0000
0000
0000
0000
,
0000
0000
0000
0000
,
0100
0000
0010
0000
,
0110
0000
0000
0000
,
1000
0000
1000
0000
,
1000
0000
0000
0000
,
0001
0000
0001
0000
,
0001
0000
0000
0000
,
0100
0000
0100
0000
,
0100
0000
0000
0000
,
0010
0000
0100
0000
,
0010
0000
0000
0000
,
0001
0000
0001
0000
,
0001
0000
0000
0000
,
1000
0000
1000
0000
,
1000
0000
0000
0000
,
0001
0000
0001
0000
,
0001
0000
0000
0000
,
0110
0000
0000
0000
;

//---------------dance-single - ----------------
#NOTES:
     dance-single:
     :
     Easy:
     8:
     0.386699,0.656536,0.633138,0.247750,0.009176,295.000000,226.000000,69.000000,27.000000,0.000000,0.000000,0.000000,0.000000,0.000000,0.386699,0.656536,0.633138,0.247750,0.009176,295.000000,226.000000,69.000000,27.000000,0.000000,0.000000,0.000000,0.000000,0.000000:
0000
0000
0000
0000
,
0000
0000
0000
0000
,
0000
0000
0000
0000
,
0000
0000
0000
0000
,
1000
0100
1000
0100
,
0001
0010
0001
0010
,
0200
0000
0000
0310
,
0000
0000
0110
1001
,
1000
0100
0010
0001
,
0010
0100
1000
0000
,
0001
0010
0100
1000
,
0100
0010
0001
0000
,
1000
0100
0001
0010
,
1000
0100
0001
0000
,
1000
0001
1000
0001
,
0110
0000
0000
0000
0000
0000
0000
1100
,
0000
0110
0000
1100
0000
0110
0000
1100
,
0000
0110
0000
1100
0000
0110
0000
0011
,
0000
0110
0000
0011
0000
0110
0000
0011
,
0000
0110
0000
0100
0010
0100
0010
1100
,
0000
0110
0000
1100
0000
0110
0000
1100
,
0000
0110
0000
1100
0000
0110
0000
0001
,
0000
0010
0000
0100
0000
1000
0000
0100
,
0000
0010
0000
0001
0000
0000
0000
0110
,
0000
1001
0000
0110
0000
1001
0000
1100
,
0000
0011
0000
0110
0000
0000
0000
1001
,
0000
0110
0000
1001
0000
0110
0000
0011
,
0000
1100
0000
0110
0000
0000
0000
1001
,
0000
0110
0000
1001
0000
0110
0000
1001
,
0000
0110
0000
0100
0010
0100
0010
0200
,
0000
0000
0000
0000
0000
0310
0000
0000
,
0000
0000
0000
0000
0000
0000
0000
1000
,
0000
0100
0000
0010
0000
0001
0000
0110
,
0000
1001
0000
0110
0000
0000
0000
0001
,
0000
0010
0000
0100
0000
1000
0000
0110
,
0000
1001
0000
0110
0000
0000
0000
1000
,
0000
0001
0000
1000
0000
0001
0000
0100
,
0000
0010
0000
0100
0000
0010
0000
0220
,
0000
0000
0000
0000
0000
0000
0000
0330
,
0000
1000
0000
0200
0000
0300
0000
0200
,
0000
0300
0000
0200
0000
0300
0000
0100
,
0000
0010
0000
0001
0000
0020
0000
0000
,
0000
0000
0000
0000
0000
0000
0000
0030
,
0000
0110
0000
0020
0000
0030
0000
0020
,
0000
0030
0000
0020
0000
0030
0000
0010
,
0000
0100
0000
0010
0000
0100
0000
0000
,
0000
1000
0000
0001
0000
1000
0000
0000
,
0110
0002
0003
0002
,
0003
0002
0003
0001
,
0010
0100
0020
0000
,
0000
0000
0000
0030
,
0110
2000
3000
2000
,
3000
2000
3000
1000
,
2002
0000
3003
0000
,
1000
0100
0010
0001
,
0110
1001
0110
0000
,
0001
0010
0100
1000
,
0110
1001
0110
0000
,
1000
0100
1000
0100
,
0001
0010
0001
0010
,
0220
0000
0000
0000
0000
0000
0000
0000
0000
0000
0000
0000
0000
0000
0000
0330
,
0000
0110
0000
0000
0000
0000
0000
0000
0000
0000
0000
0000
0000
0000
0000
0000
0000
0000
0000
0000
0000
0000
0000
0000
0000
0000
0000
0000
0000
0000
0000
0000
0000
0000
0000
0000
0000
0000
0000
0000
0000
0000
0000
0000
0000
0000
0000
0000
2002
0000
0000
0000
0000
0000
0000
0000
0000
0000
0000
0000
0000
0000
0000
0000
0000
0000
0000
0000
0000
0000
0000
0000
0000
0000
0000
0000
0000
0000
0000
0000
0000
0000
0000
0000
0000
0000
0000
0000
0000
0000
0000
0000
0000
0000
0000
0000
0000
0000
0000
0000
0000
0000
0000
0000
0000
0000
0000
0000
0000
0000
0000
0000
0000
0000
0000
0000
0000
0000
0000
0000
0000
0000
0000
0000
0000
0000
0000
0000
0000
0000
0000
0000
0000
0000
0000
0000
0000
0000
0000
0000
0000
0000
0000
0000
0000
0000
0000
0000
0000
0000
0000
0000
0000
0000
0000
0000
0000
0000
0000
0000
0000
0000
0000
0000
0000
0000
0000
0000
0000
0000
0000
0000
0000
0000
0000
0000
0000
0000
0000
0000
0000
0000
0000
0000
0000
0000
0000
0000
0000
0000
0000
0000
,
0000
0000
0000
3003
,
0100
0010
0100
0010
,
0110
0000
0000
0000
,
1000
0100
0010
0100
,
0000
0100
0000
0100
,
0001
0010
0100
0010
,
0000
0010
0000
0000
,
1000
0100
0010
0100
,
0000
0100
0000
0100
,
0001
0010
0100
1000
,
0002
0000
1003
0000
,
0001
0010
0100
0010
,
0000
0010
0000
0010
,
1000
0100
0010
0100
,
0000
0100
1001
0110
,
0001
0010
0100
0010
,
0000
0010
0000
0010
,
0220
0000
0330
0000
;

//---------------dance-single - ----------------
#NOTES:
     dance-single:
     :
     Medium:
     11:
     0.524338,0.656536,0.660666,0.541379,0.165166,400.000000,328.000000,72.000000,59.000000,0.000000,0.000000,0.000000,0.000000,0.000000,0.524338,0.656536,0.660666,0.541379,0.165166,400.000000,328.000000,72.000000,59.000000,0.000000,0.000000,0.000000,0.000000,0.000000:
0000
0000
0000
0000
,
0000
0000
0000
0000
,
0000
0000
0000
0000
,
0000
0000
0000
0000
,
1000
0100
0001
0010
,
1000
0000
0100
0000
0001
0010
0001
0010
,
0200
0000
0000
0000
0000
0000
0310
0100
,
0000
0000
0000
1000
0100
0010
0001
0010
,
1100
0110
0011
0110
,
1000
0100
0000
0010
0000
0001
0010
0001
,
0011
0110
1100
0110
,
0001
0010
0000
0100
0000
1000
0100
1000
,
1100
0110
0011
0110
,
1000
0100
0000
0010
0000
0001
0010
0001
,
0011
0110
1100
0110
,
1001
0000
0000
1000
0100
0010
0001
2000
,
0000
3100
0000
0200
0000
1300
0000
2000
,
0000
3100
0000
0200
0000
1300
0100
0002
,
0000
0013
0000
0020
0000
0031
0000
0002
,
0000
0013
0000
0001
0010
0100
1000
0200
,
0000
1300
0000
2000
0000
3100
0000
0200
,
0000
1300
0000
2000
0000
3100
0010
0001
,
0000
0001
0000
0001
0010
0100
1000
0000
,
1000
0000
1000
0100
0010
0110
0000
2000
,
0000
3100
0000
0200
0000
1300
0000
2000
,
0000
3100
0000
0200
0000
1300
0100
0002
,
0000
0013
0000
0020
0000
0031
0000
0002
,
0000
0013
0000
0001
0010
0100
1000
0200
,
0000
1300
0000
2000
0000
3100
0000
0200
,
0000
1300
0000
2000
0000
3100
0010
0001
,
0000
0001
0000
0001
0010
0100
1000
0000
,
1000
0000
1000
0100
0010
0001
0010
1100
,
0000
0110
0000
1100
0000
0110
0000
1001
,
0000
0110
0000
1001
0000
0000
0000
0011
,
0000
0110
0000
0011
0000
0110
0000
1001
,
0000
0110
0000
1001
0000
0000
0000
0100
,
0010
0100
0010
0100
0010
0100
0010
1000
,
0001
1000
0001
1000
0001
1000
0001
0220
,
0000
0000
0000
0000
0000
0000
0000
0330
,
0000
0110
0000
2000
0000
3200
0000
0320
,
0000
0032
0000
0023
0000
0230
0000
0300
,
0000
0000
0000
0110
0000
0000
0000
0000
0000
1000
0000
0000
0000
0000
0000
0001
0000
1000
0000
0001
0000
1000
0000
0000
,
0100
0000
0000
0010
0000
0000
0000
0001
0000
0000
0000
0010
0000
0000
0000
0000
0100
0000
0000
0000
0000
1001
0000
0000
,
0000
0110
0000
0002
0000
0023
0000
0230
,
0000
2300
0000
3200
0000
0320
0000
0030
,
0000
0110
0000
1001
0000
0110
0000
1001
,
0000
0000
0000
0010
0000
0000
0100
0000
0000
0000
0000
0110
0000
0000
0000
0000
0000
0000
0000
0000
0000
0000
0000
0000
,
0110
0002
0023
0230
,
2300
3200
0320
0030
,
0110
0000
0000
0000
0000
0000
0001
0000
0000
0000
0000
0000
1000
0000
0001
0000
1000
0000
0001
0000
0000
0010
0000
0000
,
0100
0000
1000
0000
0100
0000
0010
0000
0000
0001
0000
0000
,
0110
2000
3200
0320
,
0032
0023
0230
0300
,
0220
0000
0330
0000
,
1000
0100
0010
0001
,
0010
0100
0000
0010
0000
0000
0000
0000
,
0001
0010
0100
1000
,
0010
0100
0000
0000
0010
0000
0000
0000
,
1000
0100
0001
0010
,
1000
0000
0100
0000
0001
0010
0001
0010
,
0220
0000
0000
0000
0000
0000
0000
0000
0000
0000
0000
0000
0000
0000
0000
0330
,
0000
0110
0000
0000
0000
0000
0000
0000
0000
0000
0000
0000
0000
0000
0000
0000
0000
0000
0000
0000
0000
0000
0000
0000
0000
0000
0000
0000
0000
0000
0000
0000
0000
0000
0000
0000
0000
0000
0000
0000
0000
0000
0000
0000
0000
0000
0000
0000
2002
0000
0000
0000
0000
0000
0000
0000
0000
0000
0000
0000
0000
0000
0000
0000
0000
0000
0000
0000
0000
0000
0000
0000
0000
0000
0000
0000
0000
0000
0000
0000
0000
0000
0000
0000
0000
0000
0000
0000
0000
0000
0000
0000
0000
0000
0000
0000
0000
0000
0000
0000
0000
0000
0000
0000
0000
0000
0000
0000
0000
0000
0000
0000
0000
0000
0000
0000
0000
0000
0000
0000
0000
0000
0000
0000
0000
0000
0000
0000
0000
0000
0000
0000
0000
0000
0000
0000
0000
0000
0000
0000
0000
0000
0000
0000
0000
0000
0000
0000
0000
0000
0000
0000
0000
0000
0000
0000
0000
0000
0000
0000
0000
0000
0000
0000
0000
0000
0000
0000
0000
0000
0000
0000
0000
0000
0000
0000
0000
0000
0000
0000
0000
0000
0000
0000
0000
0000
0000
0000
0000
0000
0000
0000
,
0000
0000
0000
3003
,
1000
0100
0010
0001
,
0110
0000
0000
0000
,
0110
0000
0000
0011
0000
0000
0001
0000
0010
0000
0001
0000
,
1000
0000
0100
0000
1000
0000
0110
0000
0000
1001
0000
0000
,
0110
0000
0000
1100
0000
0000
1000
0000
0100
0000
1000
0000
,
0001
0000
0010
0000
0000
0001
0200
0000
0000
0310
0000
0000
,
0110
0000
0000
0011
0000
0000
0001
0000
0010
0000
0001
0000
,
1000
0000
0100
0000
1000
0000
0110
0000
0000
1001
0000
0000
,
0001
0010
0100
1000
,
0100
0010
0000
0100
0000
0000
1001
0000
,
0110
0000
0000
0011
0000
0000
0001
0000
0010
0000
0001
0000
,
1000
0000
0100
0000
1000
0000
0110
0000
0000
1001
0000
0000
,
0110
0000
0000
1100
0000
0000
1000
0000
0100
0000
1000
0000
,
0001
0000
0010
0000
0000
0001
0200
0000
0000
0310
0000
0000
,
0110
0000
0000
0011
0000
0000
0001
0000
0010
0000
0001
0000
,
1000
0000
0100
0000
1000
0000
0110
0000
0000
1001
0000
0000
,
0220
0000
0330
0000
;

//---------------dance-single - ----------------
#NOTES:
     dance-single:
     :
     Hard:
     15:
     0.770777,0.948330,1.183693,0.706545,0.279865,588.000000,459.000000,129.000000,77.000000,0.000000,0.000000,0.000000,0.000000,0.000000,0.770777,0.948330,1.183693,0.706545,0.279865,588.000000,459.000000,129.000000,77.000000,0.000000,0.000000,0.000000,0.000000,0.000000:
// measure 0
0000
0000
0000
0000
,  // measure 1
0000
0000
0000
0000
,  // measure 2
0000
0000
0000
0000
,  // measure 3
0000
0000
0000
0000
,  // measure 4
1100
0110
0011
0110
,  // measure 5
1100
0000
0110
0000
0010
0100
0010
0100
,  // measure 6
0020
0000
0000
0000
0000
0000
0130
0010
,  // measure 7
0000
0000
0000
0000
0000
0000
1000
0001
1000
0000
0100
0000
0010
0000
0001
0000
,  // measure 8
0110
1100
0110
0011
,  // measure 9
0100
0000
0010
0000
0000
0000
0100
0000
0000
0000
1000
0001
1000
0000
0100
0000
,  // measure 10
0110
0011
0110
1100
,  // measure 11
0010
0000
0100
0000
0000
0000
0010
0000
0000
0000
0001
1000
0001
0000
0010
0000
,  // measure 12
0110
1100
0110
0011
,  // measure 13
0100
0000
0010
0000
0000
0000
0100
0000
0000
0000
1000
0001
1000
0000
0100
0000
,  // measure 14
0110
0011
0110
1100
,  // measure 15
0110
0000
0000
0000
0000
0000
0010
0001
0010
0000
0100
0000
1000
0000
2000
0000
,  // measure 16
3100
0200
1300
2000
3100
0200
1300
2000
,  // measure 17
3100
0200
1300
2000
3100
0110
0011
0002
,  // measure 18
0013
0020
0031
0002
0013
0020
0031
0002
,  // measure 19
0013
0020
0031
0011
0110
1100
0110
0020
,  // measure 20
0130
0200
0310
0020
0130
0200
0310
0020
,  // measure 21
0130
0200
0310
0020
0130
0110
1001
0110
,  // measure 22
0000
1001
0000
1000
0100
0010
0001
0000
,  // measure 23
0010
0000
0000
0000
0001
1000
0001
0000
0010
0000
0100
0000
1000
0000
2000
0000
,  // measure 24
3100
0200
1300
2000
3100
0200
1300
2000
,  // measure 25
3100
0200
1300
2000
3100
0110
0011
0002
,  // measure 26
0013
0020
0031
0002
0013
0020
0031
0002
,  // measure 27
0013
0020
0031
0011
0110
1100
0110
0020
,  // measure 28
0130
0200
0310
0020
0130
0200
0310
0020
,  // measure 29
0130
0200
0310
0020
0130
0110
1001
0110
,  // measure 30
0000
1001
0000
0001
0010
0100
1000
0000
,  // measure 31
0100
0000
0000
0000
1000
0001
1000
0000
0100
0000
0010
0000
0001
0000
0001
0000
,  // measure 32
0010
1000
0100
0001
0010
1000
0100
0010
,  // measure 33
0001
0000
0010
0000
0100
0000
0000
0000
0010
0100
0010
0000
0100
0000
1000
0000
,  // measure 34
0100
0001
0010
1000
0100
0001
0010
0100
,  // measure 35
1000
0100
0010
0000
0000
0110
1001
0110
,  // measure 36
0000
1100
0000
0110
0000
0011
0000
0110
,  // measure 37
0000
0000
1100
0000
0000
0000
0110
0000
0000
0000
0011
0000
0000
0000
0100
0010
,  // measure 38
0100
0010
0100
0010
0100
0010
0100
0010
0100
0010
0100
0010
0100
0010
0100
0000
,  // measure 39
0000
1001
0000
2000
3100
0002
0013
2000
,  // measure 40
3100
0002
0013
2000
3100
0002
0013
0110
,  // measure 41
0000
0000
0000
1001
0000
0000
0000
0000
0000
0110
0000
0000
0000
0000
0000
0100
0000
0010
0000
0100
0000
0010
0000
0000
,  // measure 42
0100
0000
0000
1100
0000
0000
0000
0110
0000
0000
0000
0011
0000
0000
0000
0110
0000
0000
0000
0000
0000
1001
0000
0000
,  // measure 43
0000
0110
0000
0200
0310
0020
0130
0200
,  // measure 44
0310
0020
0130
0200
0310
0020
0130
0110
,  // measure 45
0000
1000
0000
0100
0000
0010
0000
0001
,  // measure 46
0000
0010
0100
0000
0010
0000
0000
0000
,  // measure 47
1001
0000
2000
3100
0002
0013
2000
3100
,  // measure 48
0002
0013
2000
3100
0002
0013
0110
0000
,  // measure 49
1001
0000
0000
0000
0000
0000
0110
0000
0000
0000
0000
0000
0100
0000
0010
0000
0100
0000
0010
0000
0000
0100
0000
0000
,  // measure 50
1100
0000
0110
0000
0011
0000
0110
0000
0000
1001
0000
0000
,  // measure 51
0110
0000
0200
0310
0020
0130
0200
0310
,  // measure 52
0020
0130
0200
0310
0020
0130
0110
1001
,  // measure 53
0220
0000
0330
0000
,  // measure 54
1000
0100
0010
0001
,  // measure 55
0010
0100
0000
0010
0000
0000
0000
0000
,  // measure 56
0001
0010
0100
1000
,  // measure 57
0100
0010
0000
0100
0000
0000
0000
0000
,  // measure 58
1100
0110
0011
0110
,  // measure 59
1100
0000
0110
0000
0010
0100
0010
0100
,  // measure 60
1000
0001
1000
0001
1000
0001
1000
0001
1000
0001
1000
0001
1000
0001
1000
0001
,  // measure 61
0000
0110
0000
0000
0000
0000
0000
0000
0000
0000
0000
0000
0000
0000
0000
0000
0000
0000
0000
0000
0000
0000
0000
0000
0000
0000
0000
0000
0000
0000
0000
0000
0000
0000
0000
0000
0000
0000
0000
0000
0000
0000
0000
0000
0000
0000
0000
0000
2002
0000
0000
0000
0000
0000
0000
0000
0000
0000
0000
0000
0000
0000
0000
0000
0000
0000
0000
0000
0000
0000
0000
0000
0000
0000
0000
0000
0000
0000
0000
0000
0000
0000
0000
0000
0000
0000
0000
0000
0000
0000
0000
0000
0000
0000
0000
0000
0000
0000
0000
0000
0000
0000
0000
0000
0000
0000
0000
0000
0000
0000
0000
0000
0000
0000
0000
0000
0000
0000
0000
0000
0000
0000
0000
0000
0000
0000
0000
0000
0000
0000
0000
0000
0000
0000
0000
0000
0000
0000
0000
0000
0000
0000
0000
0000
0000
0000
0000
0000
0000
0000
0000
0000
0000
0000
0000
0000
0000
0000
0000
0000
0000
0000
0000
0000
0000
0000
0000
0000
0000
0000
0000
0000
0000
0000
0000
0000
0000
0000
0000
0000
0000
0000
0000
0000
0000
0000
0000
0000
0000
0000
0000
0000
,  // measure 62
0000
0000
0000
3003
,  // measure 63
1000
0100
0001
0010
1000
0100
0001
0010
,  // measure 64
0110
0000
0000
0000
,  // measure 65
0110
0000
0000
0000
0000
0000
0100
0000
0000
0010
0000
0000
0011
0000
0000
0000
0110
0000
0000
0000
1100
0000
0000
0000
,  // measure 66
0110
0000
0000
0000
0011
0000
0000
0000
0110
0000
0000
0000
0000
0000
0000
0200
0000
0000
0000
0000
0000
0300
0000
0000
,  // measure 67
0110
0000
0000
0000
0000
0000
0010
0000
0000
0100
0000
0000
1100
0000
0000
0000
0110
0000
0000
0000
0011
0000
0000
0000
,  // measure 68
0110
0000
0000
0000
0000
0000
0000
0000
1100
0000
0000
0000
0000
0000
0000
0000
0110
0000
0000
0000
0000
0000
0000
0000
0100
0000
0000
0010
0000
0000
0100
0000
0000
0010
0000
0000
1000
0000
0000
0001
0000
0000
1000
0000
0000
0001
0000
0000
,  // measure 69
0110
0000
0000
0000
0000
0000
0100
0000
0000
0010
0000
0000
0011
0000
0000
0000
0110
0000
0000
0000
1100
0000
0000
0000
,  // measure 70
0110
0000
0000
0000
0011
0000
0000
0000
0110
0000
0000
0000
0000
0000
0000
0200
0000
0000
0000
0000
0000
0300
0000
0000
,  // measure 71
0001
0010
0100
1000
,  // measure 72
0010
0100
0000
0010
0000
0000
0100
0010
,  // measure 73
0110
0000
0000
0000
0000
0000
0010
0000
0000
0100
0000
0000
1100
0000
0000
0000
1010
0000
0000
0000
1001
0000
0000
0000
,  // measure 74
0011
0000
0000
0000
0101
0000
0000
0000
1001
0000
0000
0000
0000
0000
0000
0020
0000
0000
0000
0000
0000
0030
0000
0000
,  // measure 75
0110
0000
0000
0000
0000
0000
0010
0000
0000
0001
0000
0000
0011
0000
0000
0000
0101
0000
0000
0000
1001
0000
0000
0000
,  // measure 76
1100
0000
0000
0000
1010
0000
0000
0000
1001
0000
0000
0000
0200
0000
0000
0310
0000
0000
0020
0000
0000
0130
0000
0000
,  // measure 77
0110
0000
0000
0000
0000
0000
0010
0000
0000
0100
0000
0000
1100
0000
0000
0000
1010
0000
0000
0000
1001
0000
0000
0000
,  // measure 78
0011
0000
0000
0000
0101
0000
0000
0000
1001
0000
0000
0000
0000
0000
0000
0020
0000
0000
0000
0000
0000
0030
0000
0000
,  // measure 79
0220
0000
0330
0000
;

//---------------dance-single - ----------------
#NOTES:
     dance-single:
     :
     Hard:
     14:
     0.770777,0.948330,1.183693,1.000174,0.325745,588.000000,459.000000,129.000000,109.000000,0.000000,0.000000,0.000000,0.000000,0.000000,0.770777,0.948330,1.183693,1.000174,0.325745,588.000000,459.000000,129.000000,109.000000,0.000000,0.000000,0.000000,0.000000,0.000000:
0000
0000
0000
0000
,
0000
0000
0000
0000
,
0000
0000
0000
0000
,
0000
0000
0000
0000
,
1100
0110
0011
0110
,
1100
0000
0110
0000
0010
0100
0010
0100
,
0020
0000
0000
0000
0000
0000
0130
0010
,
0000
0000
0000
0000
0000
0000
1000
0001
1000
0000
0100
0000
0010
0000
0001
0000
,
0110
1100
0110
0011
,
0100
0000
0010
0000
0000
0000
0100
0000
0000
0000
1000
0001
1000
0000
0100
0000
,
0110
0011
0110
1100
,
0010
0000
0100
0000
0000
0000
0010
0000
0000
0000
0001
1000
0001
0000
0010
0000
,
0110
1100
0110
0011
,
0100
0000
0010
0000
0000
0000
0100
0000
0000
0000
1000
0001
1000
0000
0100
0000
,
0110
0011
0110
1100
,
0110
0000
0000
0000
0000
0000
0010
0001
0010
0000
0100
0000
1000
0000
2000
0000
,
3100
0200
1300
2000
3100
0200
1300
2000
,
3100
0200
1300
2000
3100
0110
0011
0002
,
0013
0020
0031
0002
0013
0020
0031
0002
,
0013
0020
0031
0011
0110
1100
0110
0020
,
0130
0200
0310
0020
0130
0200
0310
0020
,
0130
0200
0310
0020
0130
0110
1001
0110
,
0000
1001
0000
1000
0100
0010
0001
0000
,
0010
0000
0000
0000
0001
1000
0001
0000
0010
0000
0100
0000
1000
0000
2000
0000
,
3100
0200
1300
2000
3100
0200
1300
2000
,
3100
0200
1300
2000
3100
0110
0011
0002
,
0013
0020
0031
0002
0013
0020
0031
0002
,
0013
0020
0031
0011
0110
1100
0110
0020
,
0130
0200
0310
0020
0130
0200
0310
0020
,
0130
0200
0310
0020
0130
0110
1001
0110
,
0000
1001
0000
0001
0010
0100
1000
0000
,
0100
0000
0000
0000
1000
0001
1000
0000
0100
0000
0010
0000
0001
0000
0001
0000
,
0010
1000
0100
0001
0010
1000
0100
0010
,
0001
0000
0010
0000
0100
0000
0000
0000
0010
0100
0010
0000
0100
0000
1000
0000
,
0100
0001
0010
1000
0100
0001
0010
0100
,
1000
0100
0010
0000
0000
0110
1001
0110
,
0000
1100
0000
0110
0000
0011
0000
0110
,
0000
0000
1100
0000
0000
0000
0110
0000
0000
0000
0011
0000
0000
0000
0100
0010
,
0100
0010
0100
0010
0100
0010
0100
0010
0100
0010
0100
0010
0100
0010
0100
0000
,
0000
1001
0000
2000
3100
0002
0013
2000
,
3100
0002
0013
2000
3100
0002
0013
0110
,
0000
0000
0000
1001
0000
0000
0000
0000
0000
0110
0000
0000
0000
0000
0000
0100
0000
0010
0000
0100
0000
0010
0000
0000
,
0100
0000
0000
1100
0000
0000
0000
0110
0000
0000
0000
0011
0000
0000
0000
0110
0000
0000
0000
0000
0000
1001
0000
0000
,
0000
0110
0000
0200
0310
0020
0130
0200
,
0310
0020
0130
0200
0310
0020
0130
0110
,
0000
1000
0000
0100
0000
0010
0000
0001
,
0000
0010
0100
0000
0010
0000
0000
0000
,
1001
0000
2000
3100
0002
0013
2000
3100
,
0002
0013
2000
3100
0002
0013
0110
0000
,
1001
0000
0000
0000
0000
0000
0110
0000
0000
0000
0000
0000
0100
0000
0010
0000
0100
0000
0010
0000
0000
0100
0000
0000
,
1100
0000
0110
0000
0011
0000
0110
0000
0000
1001
0000
0000
,
0110
0000
0200
0310
0020
0130
0200
0310
,
0020
0130
0200
0310
0020
0130
0110
1001
,
0220
0000
0330
0000
,
1000
0100
0010
0001
,
0010
0100
0000
0010
0000
0000
0000
0000
,
0001
0010
0100
1000
,
0100
0010
0000
0100
0000
0000
0000
0000
,
1100
0110
0011
0110
,
1100
0000
0110
0000
0010
0100
0010
0100
,
1000
0001
1000
0001
1000
0001
1000
0001
1000
0001
1000
0001
1000
0001
1000
0001
,
0000
0110
0000
0000
0000
0000
0000
0000
0000
0000
0000
0000
0000
0000
0000
0000
0000
0000
0000
0000
0000
0000
0000
0000
0000
0000
0000
0000
0000
0000
0000
0000
0000
0000
0000
0000
0000
0000
0000
0000
0000
0000
0000
0000
0000
0000
0000
0000
2002
0000
0000
0000
0000
0000
0000
0000
0000
0000
0000
0000
0000
0000
0000
0000
0000
0000
0000
0000
0000
0000
0000
0000
0000
0000
0000
0000
0000
0000
0000
0000
0000
0000
0000
0000
0000
0000
0000
0000
0000
0000
0000
0000
0000
0000
0000
0000
0000
0000
0000
0000
0000
0000
0000
0000
0000
0000
0000
0000
0000
0000
0000
0000
0000
0000
0000
0000
0000
0000
0000
0000
0000
0000
0000
0000
0000
0000
0000
0000
0000
0000
0000
0000
0000
0000
0000
0000
0000
0000
0000
0000
0000
0000
0000
0000
0000
0000
0000
0000
0000
0000
0000
0000
0000
0000
0000
0000
0000
0000
0000
0000
0000
0000
0000
0000
0000
0000
0000
0000
0000
0000
0000
0000
0000
0000
0000
0000
0000
0000
0000
0000
0000
0000
0000
0000
0000
0000
0000
0000
0000
0000
0000
0000
,
0000
0000
0000
3003
,
1000
0100
0001
0010
1000
0100
0001
0010
,
0110
0000
0000
0000
,
0110
0000
0000
0000
0000
0000
0100
0000
0000
0010
0000
0000
0022
0000
0033
0000
0220
0000
0330
0000
2200
0000
3300
0000
,
0220
0000
0330
0000
0022
0000
0033
0000
0110
0000
0000
0000
0000
0000
0000
0200
0000
0000
0000
0000
0000
0300
0000
0000
,
0110
0000
0000
0000
0000
0000
0010
0000
0000
0100
0000
0000
2200
0000
3300
0000
0220
0000
0330
0000
0022
0000
0033
0000
,
0220
0000
0000
0000
0330
0000
0000
0000
2200
0000
0000
0000
3300
0000
0000
0000
0220
0000
0000
0000
0330
0000
0000
0000
0100
0000
0000
0010
0000
0000
0100
0000
0000
0010
0000
0000
1000
0000
0000
0001
0000
0000
1000
0000
0000
0001
0000
0000
,
0110
0000
0000
0000
0000
0000
0100
0000
0000
0010
0000
0000
0022
0000
0033
0000
0220
0000
0330
0000
2200
0000
3300
0000
,
0220
0000
0330
0000
0022
0000
0033
0000
0110
0000
0000
0000
0000
0000
0000
0200
0000
0000
0000
0000
0000
0300
0000
0000
,
0001
0010
0100
1000
,
0010
0100
0000
0010
0000
0000
0100
0010
,
0110
0000
0000
0000
0000
0000
0010
0000
0000
0100
0000
0000
1100
0000
0000
0000
1010
0000
0000
0000
1001
0000
0000
0000
,
0011
0000
0000
0000
0101
0000
0000
0000
1001
0000
0000
0000
0000
0000
0000
0020
0000
0000
0000
0000
0000
0030
0000
0000
,
0110
0000
0000
0000
0000
0000
0010
0000
0000
0001
0000
0000
0011
0000
0000
0000
0101
0000
0000
0000
1001
0000
0000
0000
,
1100
0000
0000
0000
1010
0000
0000
0000
1001
0000
0000
0000
0200
0000
0000
0310
0000
0000
0020
0000
0000
0130
0000
0000
,
0110
0000
0000
0000
0000
0000
0010
0000
0000
0100
0000
0000
1100
0000
0000
0000
1010
0000
0000
0000
1001
0000
0000
0000
,
0011
0000
0000
0000
0101
0000
0000
0000
1001
0000
0000
0000
0000
0000
0000
0020
0000
0000
0000
0000
0000
0030
0000
0000
,
0220
0000
0330
0000
;

//---------------dance-single - ----------------
#NOTES:
     dance-single:
     :
     Beginner:
     3:
     0.103557,0.181224,0.082583,0.064231,0.009176,79.000000,70.000000,9.000000,7.000000,0.000000,0.000000,0.000000,0.000000,0.000000,0.103557,0.181224,0.082583,0.064231,0.009176,79.000000,70.000000,9.000000,7.000000,0.000000,0.000000,0.000000,0.000000,0.000000:
0000
0000
0000
0000
,
0000
0000
0000
0000
,
0000
0000
0000
0000
,
0000
0000
0000
0000
,
1000
0000
0000
0000
,
1000
0000
0000
0000
,
0002
0000
0000
0000
,
0003
0000
0000
0000
,
0100
0000
0000
0000
,
0100
0000
0000
0000
,
0010
0000
0000
0000
,
0010
0000
0000
0000
,
1000
0000
0000
0000
,
0001
0000
0000
0000
,
0110
0000
0000
0000
,
0000
0000
0000
0000
0000
0000
0000
1000
,
0000
0000
0000
0000
,
0000
0000
0000
0000
0000
0000
0000
0001
,
0000
0000
0000
0000
,
0000
0000
0000
0000
0000
0000
0000
0100
,
0000
0000
0000
0000
,
0000
0000
0000
0000
0000
0000
0000
0110
,
0000
0000
0000
0000
,
0000
0000
0000
0000
0000
0000
0000
1000
,
0000
0000
0000
0000
,
0000
0000
0000
0000
0000
0000
0000
0001
,
0000
0000
0000
0000
,
0000
0000
0000
0000
0000
0000
0000
0100
,
0000
0000
0000
0000
,
0000
0000
0000
0000
0000
0000
0000
0020
,
0000
0000
0000
0030
,
0000
0000
0000
0000
0000
0000
0000
1000
,
0000
0000
0000
0000
0000
0000
0000
1000
,
0000
0000
0000
0000
0000
0000
0000
0001
,
0000
0000
0000
0000
0000
0000
0000
0001
,
0000
0000
0000
0000
0000
0000
0000
0200
,
0000
0000
0000
0000
0000
0000
0000
0320
,
0000
0000
0000
0000
0000
0000
0000
0230
,
0000
0000
0000
0000
0000
0000
0000
0300
,
0000
0110
0000
0000
0000
0000
0000
0000
,
0000
0000
0000
0000
,
0000
1000
0000
0000
0000
0000
0000
0000
,
0000
0001
0000
0000
0000
0000
0000
0000
,
0000
0110
0000
0000
0000
0000
0000
0000
,
0000
0000
0000
0000
,
0000
0100
0000
0000
0000
0010
0000
0000
,
0000
0100
0000
0000
0000
0000
0000
0000
,
0110
0000
0000
0000
,
0000
0000
0000
0000
,
1000
0000
0000
0000
,
0001
0000
0000
0000
,
0110
0000
0000
0000
,
0000
0000
0000
0000
,
0200
0000
0000
0000
0000
0000
0000
0300
0000
0000
0000
0000
0000
0000
0000
0000
,
1000
0000
0000
0000
,
1000
0000
0000
0000
,
0001
0000
0000
0000
,
0001
0000
0000
0000
,
0100
0000
0000
0000
,
0100
0000
0000
0000
,
0020
0000
0000
0000
0000
0000
0000
0030
,
0000
0110
0000
0000
0000
0000
0000
0000
0000
0000
0000
0000
0000
0000
0000
0000
0000
0000
0000
0000
0000
0000
0000
0000
0000
0000
0000
0000
0000
0000
0000
0000
0000
0000
0000
0000
0000
0000
0000
0000
0000
0000
0000
0000
0000
0000
0000
0000
0000
0000
0000
0000
0000
0000
0000
0000
0000
0000
0000
0000
0000
0000
0000
0000
0000
0000
0000
0000
0000
0000
0000
0000
0000
0000
0000
0000
0000
0000
0000
0000
0000
0000
0000
0000
0000
0000
0000
0000
0000
0000
0000
0000
0000
0000
0000
0000
0000
0000
0000
0000
0000
0000
0000
0000
0000
0000
0000
0000
0000
0000
0000
0000
0000
0000
0000
0000
0000
0000
0000
0000
0000
0000
0000
0000
0000
0000
0000
0000
0000
0000
0000
0000
0000
0000
0000
0000
0000
0000
0000
0000
0000
0000
0000
0000
0000
0000
0000
0000
0000
0000
0000
0000
0000
0000
0000
0000
0000
0000
0000
0000
0000
0000
0000
0000
0000
0000
0000
0000
0000
0000
0000
0000
0000
0000
0000
0000
0000
0000
0000
0000
0000
0000
0000
0000
0000
0000
0000
0000
0000
0000
0000
0000
,
0000
0000
0000
0000
,
0100
0000
0010
0000
,
0110
0000
0000
0000
,
1000
0000
1000
0000
,
1000
0000
0000
0000
,
0001
0000
0001
0000
,
0001
0000
0000
0000
,
0100
0000
0100
0000
,
0100
0000
0000
0000
,
0010
0000
0100
0000
,
0010
0000
0000
0000
,
0001
0000
0001
0000
,
0001
0000
0000
0000
,
1000
0000
1000
0000
,
1000
0000
0000
0000
,
0001
0000
0001
0000
,
0001
0000
0000
0000
,
0110
0000
0000
0000
;

//---------------dance-single - ----------------
#NOTES:
     dance-single:
     :
     Easy:
     8:
     0.386699,0.656536,0.633138,0.247750,0.009176,295.000000,226.000000,69.000000,27.000000,0.000000,0.000000,0.000000,0.000000,0.000000,0.386699,0.656536,0.633138,0.247750,0.009176,295.000000,226.000000,69.000000,27.000000,0.000000,0.000000,0.000000,0.000000,0.000000:
0000
0000
0000
0000
,
0000
0000
0000
0000
,
0000
0000
0000
0000
,
0000
0000
0000
0000
,
1000
0100
1000
0100
,
0001
0010
0001
0010
,
0200
0000
0000
0310
,
0000
0000
0110
1001
,
1000
0100
0010
0001
,
0010
0100
1000
0000
,
0001
0010
0100
1000
,
0100
0010
0001
0000
,
1000
0100
0001
0010
,
1000
0100
0001
0000
,
1000
0001
1000
0001
,
0110
0000
0000
0000
0000
0000
0000
1100
,
0000
0110
0000
1100
0000
0110
0000
1100
,
0000
0110
0000
1100
0000
0110
0000
0011
,
0000
0110
0000
0011
0000
0110
0000
0011
,
0000
0110
0000
0100
0010
0100
0010
1100
,
0000
0110
0000
1100
0000
0110
0000
1100
,
0000
0110
0000
1100
0000
0110
0000
0001
,
0000
0010
0000
0100
0000
1000
0000
0100
,
0000
0010
0000
0001
0000
0000
0000
0110
,
0000
1001
0000
0110
0000
1001
0000
1100
,
0000
0011
0000
0110
0000
0000
0000
1001
,
0000
0110
0000
1001
0000
0110
0000
0011
,
0000
1100
0000
0110
0000
0000
0000
1001
,
0000
0110
0000
1001
0000
0110
0000
1001
,
0000
0110
0000
0100
0010
0100
0010
0200
,
0000
0000
0000
0000
0000
0310
0000
0000
,
0000
0000
0000
0000
0000
0000
0000
1000
,
0000
0100
0000
0010
0000
0001
0000
0110
,
0000
1001
0000
0110
0000
0000
0000
0001
,
0000
0010
0000
0100
0000
1000
0000
0110
,
0000
1001
0000
0110
0000
0000
0000
1000
,
0000
0001
0000
1000
0000
0001
0000
0100
,
0000
0010
0000
0100
0000
0010
0000
0220
,
0000
0000
0000
0000
0000
0000
0000
0330
,
0000
1000
0000
0200
0000
0300
0000
0200
,
0000
0300
0000
0200
0000
0300
0000
0100
,
0000
0010
0000
0001
0000
0020
0000
0000
,
0000
0000
0000
0000
0000
0000
0000
0030
,
0000
0110
0000
0020
0000
0030
0000
0020
,
0000
0030
0000
0020
0000
0030
0000
0010
,
0000
0100
0000
0010
0000
0100
0000
0000
,
0000
1000
0000
0001
0000
1000
0000
0000
,
0110
0002
0003
0002
,
0003
0002
0003
0001
,
0010
0100
0020
0000
,
0000
0000
0000
0030
,
0110
2000
3000
2000
,
3000
2000
3000
1000
,
2002
0000
3003
0000
,
1000
0100
0010
0001
,
0110
1001
0110
0000
,
0001
0010
0100
1000
,
0110
1001
0110
0000
,
1000
0100
1000
0100
,
0001
0010
0001
0010
,
0220
0000
0000
0000
0000
0000
0000
0000
0000
0000
0000
0000
0000
0000
0000
0330
,
0000
0110
0000
0000
0000
0000
0000
0000
0000
0000
0000
0000
0000
0000
0000
0000
0000
0000
0000
0000
0000
0000
0000
0000
0000
0000
0000
0000
0000
0000
0000
0000
0000
0000
0000
0000
0000
0000
0000
0000
0000
0000
0000
0000
0000
0000
0000
0000
2002
0000
0000
0000
0000
0000
0000
0000
0000
0000
0000
0000
0000
0000
0000
0000
0000
0000
0000
0000
0000
0000
0000
0000
0000
0000
0000
0000
0000
0000
0000
0000
0000
0000
0000
0000
0000
0000
0000
0000
0000
0000
0000
0000
0000
0000
0000
0000
0000
0000
0000
0000
0000
0000
0000
0000
0000
0000
0000
0000
0000
0000
0000
0000
0000
0000
0000
0000
0000
0000
0000
0000
0000
0000
0000
0000
0000
0000
0000
0000
0000
0000
0000
0000
0000
0000
0000
0000
0000
0000
0000
0000
0000
0000
0000
0000
0000
0000
0000
0000
0000
0000
0000
0000
0000
0000
0000
0000
0000
0000
0000
0000
0000
0000
0000
0000
0000
0000
0000
0000
0000
0000
0000
0000
0000
0000
0000
0000
0000
0000
0000
0000
0000
0000
0000
0000
0000
0000
0000
0000
0000
0000
0000
0000
,
0000
0000
0000
3003
,
0100
0010
0100
0010
,
0110
0000
0000
0000
,
1000
0100
0010
0100
,
0000
0100
0000
0100
,
0001
0010
0100
0010
,
0000
0010
0000
0000
,
1000
0100
0010
0100
,
0000
0100
0000
0100
,
0001
0010
0100
1000
,
0002
0000
1003
0000
,
0001
0010
0100
0010
,
0000
0010
0000
0010
,
1000
0100
0010
0100
,
0000
0100
1001
0110
,
0001
0010
0100
0010
,
0000
0010
0000
0010
,
0220
0000
0330
0000
;

//---------------dance-single - ----------------
#NOTES:
     dance-single:
     :
     Medium:
     11:
     0.524338,0.656536,0.660666,0.541379,0.165166,400.000000,328.000000,72.000000,59.000000,0.000000,0.000000,0.000000,0.000000,0.000000,0.524338,0.656536,0.660666,0.541379,0.165166,400.000000,328.000000,72.000000,59.000000,0.000000,0.000000,0.000000,0.000000,0.000000:
0000
0000
0000
0000
,
0000
0000
0000
0000
,
0000
0000
0000
0000
,
0000
0000
0000
0000
,
1000
0100
0001
0010
,
1000
0000
0100
0000
0001
0010
0001
0010
,
0200
0000
0000
0000
0000
0000
0310
0100
,
0000
0000
0000
1000
0100
0010
0001
0010
,
1100
0110
0011
0110
,
1000
0100
0000
0010
0000
0001
0010
0001
,
0011
0110
1100
0110
,
0001
0010
0000
0100
0000
1000
0100
1000
,
1100
0110
0011
0110
,
1000
0100
0000
0010
0000
0001
0010
0001
,
0011
0110
1100
0110
,
1001
0000
0000
1000
0100
0010
0001
2000
,
0000
3100
0000
0200
0000
1300
0000
2000
,
0000
3100
0000
0200
0000
1300
0100
0002
,
0000
0013
0000
0020
0000
0031
0000
0002
,
0000
0013
0000
0001
0010
0100
1000
0200
,
0000
1300
0000
2000
0000
3100
0000
0200
,
0000
1300
0000
2000
0000
3100
0010
0001
,
0000
0001
0000
0001
0010
0100
1000
0000
,
1000
0000
1000
0100
0010
0110
0000
2000
,
0000
3100
0000
0200
0000
1300
0000
2000
,
0000
3100
0000
0200
0000
1300
0100
0002
,
0000
0013
0000
0020
0000
0031
0000
0002
,
0000
0013
0000
0001
0010
0100
1000
0200
,
0000
1300
0000
2000
0000
3100
0000
0200
,
0000
1300
0000
2000
0000
3100
0010
0001
,
0000
0001
0000
0001
0010
0100
1000
0000
,
1000
0000
1000
0100
0010
0001
0010
1100
,
0000
0110
0000
1100
0000
0110
0000
1001
,
0000
0110
0000
1001
0000
0000
0000
0011
,
0000
0110
0000
0011
0000
0110
0000
1001
,
0000
0110
0000
1001
0000
0000
0000
0100
,
0010
0100
0010
0100
0010
0100
0010
1000
,
0001
1000
0001
1000
0001
1000
0001
0220
,
0000
0000
0000
0000
0000
0000
0000
0330
,
0000
0110
0000
2000
0000
3200
0000
0320
,
0000
0032
0000
0023
0000
0230
0000
0300
,
0000
0000
0000
0110
0000
0000
0000
0000
0000
1000
0000
0000
0000
0000
0000
0001
0000
1000
0000
0001
0000
1000
0000
0000
,
0100
0000
0000
0010
0000
0000
0000
0001
0000
0000
0000
0010
0000
0000
0000
0000
0100
0000
0000
0000
0000
1001
0000
0000
,
0000
0110
0000
0002
0000
0023
0000
0230
,
0000
2300
0000
3200
0000
0320
0000
0030
,
0000
0110
0000
1001
0000
0110
0000
1001
,
0000
0000
0000
0010
0000
0000
0100
0000
0000
0000
0000
0110
0000
0000
0000
0000
0000
0000
0000
0000
0000
0000
0000
0000
,
0110
0002
0023
0230
,
2300
3200
0320
0030
,
0110
0000
0000
0000
0000
0000
0001
0000
0000
0000
0000
0000
1000
0000
0001
0000
1000
0000
0001
0000
0000
0010
0000
0000
,
0100
0000
1000
0000
0100
0000
0010
0000
0000
0001
0000
0000
,
0110
2000
3200
0320
,
0032
0023
0230
0300
,
0220
0000
0330
0000
,
1000
0100
0010
0001
,
0010
0100
0000
0010
0000
0000
0000
0000
,
0001
0010
0100
1000
,
0010
0100
0000
0000
0010
0000
0000
0000
,
1000
0100
0001
0010
,
1000
0000
0100
0000
0001
0010
0001
0010
,
0220
0000
0000
0000
0000
0000
0000
0000
0000
0000
0000
0000
0000
0000
0000
0330
,
0000
0110
0000
0000
0000
0000
0000
0000
0000
0000
0000
0000
0000
0000
0000
0000
0000
0000
0000
0000
0000
0000
0000
0000
0000
0000
0000
0000
0000
0000
0000
0000
0000
0000
0000
0000
0000
0000
0000
0000
0000
0000
0000
0000
0000
0000
0000
0000
2002
0000
0000
0000
0000
0000
0000
0000
0000
0000
0000
0000
0000
0000
0000
0000
0000
0000
0000
0000
0000
0000
0000
0000
0000
0000
0000
0000
0000
0000
0000
0000
0000
0000
0000
0000
0000
0000
0000
0000
0000
0000
0000
0000
0000
0000
0000
0000
0000
0000
0000
0000
0000
0000
0000
0000
0000
0000
0000
0000
0000
0000
0000
0000
0000
0000
0000
0000
0000
0000
0000
0000
0000
0000
0000
0000
0000
0000
0000
0000
0000
0000
0000
0000
0000
0000
0000
0000
0000
0000
0000
0000
0000
0000
0000
0000
0000
0000
0000
0000
0000
0000
0000
0000
0000
0000
0000
0000
0000
0000
0000
0000
0000
0000
0000
0000
0000
0000
0000
0000
0000
0000
0000
0000
0000
0000
0000
0000
0000
0000
0000
0000
0000
0000
0000
0000
0000
0000
0000
0000
0000
0000
0000
0000
,
0000
0000
0000
3003
,
1000
0100
0010
0001
,
0110
0000
0000
0000
,
0110
0000
0000
0011
0000
0000
0001
0000
0010
0000
0001
0000
,
1000
0000
0100
0000
1000
0000
0110
0000
0000
1001
0000
0000
,
0110
0000
0000
1100
0000
0000
1000
0000
0100
0000
1000
0000
,
0001
0000
0010
0000
0000
0001
0200
0000
0000
0310
0000
0000
,
0110
0000
0000
0011
0000
0000
0001
0000
0010
0000
0001
0000
,
1000
0000
0100
0000
1000
0000
0110
0000
0000
1001
0000
0000
,
0001
0010
0100
1000
,
0100
0010
0000
0100
0000
0000
1001
0000
,
0110
0000
0000
0011
0000
0000
0001
0000
0010
0000
0001
0000
,
1000
0000
0100
0000
1000
0000
0110
0000
0000
1001
0000
0000
,
0110
0000
0000
1100
0000
0000
1000
0000
0100
0000
1000
0000
,
0001
0000
0010
0000
0000
0001
0200
0000
0000
0310
0000
0000
,
0110
0000
0000
0011
0000
0000
0001
0000
0010
0000
0001
0000
,
1000
0000
0100
0000
1000
0000
0110
0000
0000
1001
0000
0000
,
0220
0000
0330
0000
;

//---------------dance-single - ----------------
#NOTES:
     dance-single:
     :
     Hard:
     15:
     0.770777,0.948330,1.183693,1.000174,0.325745,588.000000,459.000000,129.000000,109.000000,0.000000,0.000000,0.000000,0.000000,0.000000,0.770777,0.948330,1.183693,1.000174,0.325745,588.000000,459.000000,129.000000,109.000000,0.000000,0.000000,0.000000,0.000000,0.000000:
0000
0000
0000
0000
,
0000
0000
0000
0000
,
0000
0000
0000
0000
,
0000
0000
0000
0000
,
1100
0110
0011
0110
,
1100
0000
0110
0000
0010
0100
0010
0100
,
0020
0000
0000
0000
0000
0000
0130
0010
,
0000
0000
0000
0000
0000
0000
1000
0001
1000
0000
0100
0000
0010
0000
0001
0000
,
0110
1100
0110
0011
,
0100
0000
0010
0000
0000
0000
0100
0000
0000
0000
1000
0001
1000
0000
0100
0000
,
0110
0011
0110
1100
,
0010
0000
0100
0000
0000
0000
0010
0000
0000
0000
0001
1000
0001
0000
0010
0000
,
0110
1100
0110
0011
,
0100
0000
0010
0000
0000
0000
0100
0000
0000
0000
1000
0001
1000
0000
0100
0000
,
0110
0011
0110
1100
,
0110
0000
0000
0000
0000
0000
0010
0001
0010
0000
0100
0000
1000
0000
2000
0000
,
3100
0200
1300
2000
3100
0200
1300
2000
,
3100
0200
1300
2000
3100
0110
0011
0002
,
0013
0020
0031
0002
0013
0020
0031
0002
,
0013
0020
0031
0011
0110
1100
0110
0020
,
0130
0200
0310
0020
0130
0200
0310
0020
,
0130
0200
0310
0020
0130
0110
1001
0110
,
0000
1001
0000
1000
0100
0010
0001
0000
,
0010
0000
0000
0000
0001
1000
0001
0000
0010
0000
0100
0000
1000
0000
2000
0000
,
3100
0200
1300
2000
3100
0200
1300
2000
,
3100
0200
1300
2000
3100
0110
0011
0002
,
0013
0020
0031
0002
0013
0020
0031
0002
,
0013
0020
0031
0011
0110
1100
0110
0020
,
0130
0200
0310
0020
0130
0200
0310
0020
,
0130
0200
0310
0020
0130
0110
1001
0110
,
0000
1001
0000
0001
0010
0100
1000
0000
,
0100
0000
0000
0000
1000
0001
1000
0000
0100
0000
0010
0000
0001
0000
0001
0000
,
0010
1000
0100
0001
0010
1000
0100
0010
,
0001
0000
0010
0000
0100
0000
0000
0000
0010
0100
0010
0000
0100
0000
1000
0000
,
0100
0001
0010
1000
0100
0001
0010
0100
,
1000
0100
0010
0000
0000
0110
1001
0110
,
0000
1100
0000
0110
0000
0011
0000
0110
,
0000
0000
1100
0000
0000
0000
0110
0000
0000
0000
0011
0000
0000
0000
0100
0010
,
0100
0010
0100
0010
0100
0010
0100
0010
0100
0010
0100
0010
0100
0010
0100
0000
,
0000
1001
0000
2000
3100
0002
0013
2000
,
3100
0002
0013
2000
3100
0002
0013
0110
,
0000
0000
0000
1001
0000
0000
0000
0000
0000
0110
0000
0000
0000
0000
0000
0100
0000
0010
0000
0100
0000
0010
0000
0000
,
0100
0000
0000
1100
0000
0000
0000
0110
0000
0000
0000
0011
0000
0000
0000
0110
0000
0000
0000
0000
0000
1001
0000
0000
,
0000
0110
0000
0200
0310
0020
0130
0200
,
0310
0020
0130
0200
0310
0020
0130
0110
,
0000
1000
0000
0100
0000
0010
0000
0001
,
0000
0010
0100
0000
0010
0000
0000
0000
,
1001
0000
2000
3100
0002
0013
2000
3100
,
0002
0013
2000
3100
0002
0013
0110
0000
,
1001
0000
0000
0000
0000
0000
0110
0000
0000
0000
0000
0000
0100
0000
0010
0000
0100
0000
0010
0000
0000
0100
0000
0000
,
1100
0000
0110
0000
0011
0000
0110
0000
0000
1001
0000
0000
,
0110
0000
0200
0310
0020
0130
0200
0310
,
0020
0130
0200
0310
0020
0130
0110
1001
,
0220
0000
0330
0000
,
1000
0100
0010
0001
,
0010
0100
0000
0010
0000
0000
0000
0000
,
0001
0010
0100
1000
,
0100
0010
0000
0100
0000
0000
0000
0000
,
1100
0110
0011
0110
,
1100
0000
0110
0000
0010
0100
0010
0100
,
1000
0001
1000
0001
1000
0001
1000
0001
1000
0001
1000
0001
1000
0001
1000
0001
,
0000
0110
0000
0000
0000
0000
0000
0000
0000
0000
0000
0000
0000
0000
0000
0000
0000
0000
0000
0000
0000
0000
0000
0000
0000
0000
0000
0000
0000
0000
0000
0000
0000
0000
0000
0000
0000
0000
0000
0000
0000
0000
0000
0000
0000
0000
0000
0000
2002
0000
0000
0000
0000
0000
0000
0000
0000
0000
0000
0000
0000
0000
0000
0000
0000
0000
0000
0000
0000
0000
0000
0000
0000
0000
0000
0000
0000
0000
0000
0000
0000
0000
0000
0000
0000
0000
0000
0000
0000
0000
0000
0000
0000
0000
0000
0000
0000
0000
0000
0000
0000
0000
0000
0000
0000
0000
0000
0000
0000
0000
0000
0000
0000
0000
0000
0000
0000
0000
0000
0000
0000
0000
0000
0000
0000
0000
0000
0000
0000
0000
0000
0000
0000
0000
0000
0000
0000
0000
0000
0000
0000
0000
0000
0000
0000
0000
0000
0000
0000
0000
0000
0000
0000
0000
0000
0000
0000
0000
0000
0000
0000
0000
0000
0000
0000
0000
0000
0000
0000
0000
0000
0000
0000
0000
0000
0000
0000
0000
0000
0000
0000
0000
0000
0000
0000
0000
0000
0000
0000
0000
0000
0000
,
0000
0000
0000
3003
,
1000
0100
0001
0010
1000
0100
0001
0010
,
0110
0000
0000
0000
,
0110
0000
0000
0000
0000
0000
0100
0000
0000
0010
0000
0000
0022
0000
0033
0000
0220
0000
0330
0000
2200
0000
3300
0000
,
0220
0000
0330
0000
0022
0000
0033
0000
0110
0000
0000
0000
0000
0000
0000
0200
0000
0000
0000
0000
0000
0300
0000
0000
,
0110
0000
0000
0000
0000
0000
0010
0000
0000
0100
0000
0000
2200
0000
3300
0000
0220
0000
0330
0000
0022
0000
0033
0000
,
0220
0000
0000
0000
0330
0000
0000
0000
2200
0000
0000
0000
3300
0000
0000
0000
0220
0000
0000
0000
0330
0000
0000
0000
0100
0000
0000
0010
0000
0000
0100
0000
0000
0010
0000
0000
1000
0000
0000
0001
0000
0000
1000
0000
0000
0001
0000
0000
,
0110
0000
0000
0000
0000
0000
0100
0000
0000
0010
0000
0000
0022
0000
0033
0000
0220
0000
0330
0000
2200
0000
3300
0000
,
0220
0000
0330
0000
0022
0000
0033
0000
0110
0000
0000
0000
0000
0000
0000
0200
0000
0000
0000
0000
0000
0300
0000
0000
,
0001
0010
0100
1000
,
0010
0100
0000
0010
0000
0000
0100
0010
,
0110
0000
0000
0000
0000
0000
0010
0000
0000
0100
0000
0000
1100
0000
0000
0000
1010
0000
0000
0000
1001
0000
0000
0000
,
0011
0000
0000
0000
0101
0000
0000
0000
1001
0000
0000
0000
0000
0000
0000
0020
0000
0000
0000
0000
0000
0030
0000
0000
,
0110
0000
0000
0000
0000
0000
0010
0000
0000
0001
0000
0000
0011
0000
0000
0000
0101
0000
0000
0000
1001
0000
0000
0000
,
1100
0000
0000
0000
1010
0000
0000
0000
1001
0000
0000
0000
0200
0000
0000
0310
0000
0000
0020
0000
0000
0130
0000
0000
,
0110
0000
0000
0000
0000
0000
0010
0000
0000
0100
0000
0000
1100
0000
0000
0000
1010
0000
0000
0000
1001
0000
0000
0000
,
0011
0000
0000
0000
0101
0000
0000
0000
1001
0000
0000
0000
0000
0000
0000
0020
0000
0000
0000
0000
0000
0030
0000
0000
,
0220
0000
0330
0000
;

//---------------dance-single - ----------------
#NOTES:
     dance-single:
     :
     Hard:
     14:
     0.770777,0.948330,1.183693,0.890063,0.307393,588.000000,459.000000,129.000000,97.000000,0.000000,0.000000,0.000000,0.000000,0.000000,0.770777,0.948330,1.183693,0.890063,0.307393,588.000000,459.000000,129.000000,97.000000,0.000000,0.000000,0.000000,0.000000,0.000000:
0000
0000
0000
0000
,
0000
0000
0000
0000
,
0000
0000
0000
0000
,
0000
0000
0000
0000
,
1100
0110
0011
0110
,
1100
0000
0110
0000
0010
0100
0010
0100
,
0020
0000
0000
0000
0000
0000
0130
0010
,
0000
0000
0000
0000
0000
0000
1000
0001
1000
0000
0100
0000
0010
0000
0001
0000
,
0110
1100
0110
0011
,
0100
0000
0010
0000
0000
0000
0100
0000
0000
0000
1000
0001
1000
0000
0100
0000
,
0110
0011
0110
1100
,
0010
0000
0100
0000
0000
0000
0010
0000
0000
0000
0001
1000
0001
0000
0010
0000
,
0110
1100
0110
0011
,
0100
0000
0010
0000
0000
0000
0100
0000
0000
0000
1000
0001
1000
0000
0100
0000
,
0110
0011
0110
1100
,
0110
0000
0000
0000
0000
0000
0010
0001
0010
0000
0100
0000
1000
0000
2000
0000
,
3100
0200
1300
2000
3100
0200
1300
2000
,
3100
0200
1300
2000
3100
0110
0011
0002
,
0013
0020
0031
0002
0013
0020
0031
0002
,
0013
0020
0031
0011
0110
1100
0110
0020
,
0130
0200
0310
0020
0130
0200
0310
0020
,
0130
0200
0310
0020
0130
0110
1001
0110
,
0000
1001
0000
1000
0100
0010
0001
0000
,
0010
0000
0000
0000
0001
1000
0001
0000
0010
0000
0100
0000
1000
0000
2000
0000
,
3100
0200
1300
2000
3100
0200
1300
2000
,
3100
0200
1300
2000
3100
0110
0011
0002
,
0013
0020
0031
0002
0013
0020
0031
0002
,
0013
0020
0031
0011
0110
1100
0110
0020
,
0130
0200
0310
0020
0130
0200
0310
0020
,
0130
0200
0310
0020
0130
0110
1001
0110
,
0000
1001
0000
0001
0010
0100
1000
0000
,
0100
0000
0000
0000
1000
0001
1000
0000
0100
0000
0010
0000
0001
0000
0001
0000
,
0010
1000
0100
0001
0010
1000
0100
0010
,
0001
0000
0010
0000
0100
0000
0000
0000
0010
0100
0010
0000
0100
0000
1000
0000
,
0100
0001
0010
1000
0100
0001
0010
0100
,
1000
0100
0010
0000
0000
0110
1001
0110
,
0000
1100
0000
0110
0000
0011
0000
0110
,
0000
0000
1100
0000
0000
0000
0110
0000
0000
0000
0011
0000
0000
0000
0100
0010
,
0100
0010
0100
0010
0100
0010
0100
0010
0100
0010
0100
0010
0100
0010
0100
0000
,
0000
1001
0000
2000
3100
0002
0013
2000
,
3100
0002
0013
2000
3100
0002
0013
0110
,
0000
0000
0000
1001
0000
0000
0000
0000
0000
0110
0000
0000
0000
0000
0000
0100
0000
0010
0000
0100
0000
0010
0000
0000
,
0100
0000
0000
1100
0000
0000
0000
0110
0000
0000
0000
0011
0000
0000
0000
0110
0000
0000
0000
0000
0000
1001
0000
0000
,
0000
0110
0000
0200
0310
0020
0130
0200
,
0310
0020
0130
0200
0310
0020
0130
0110
,
0000
1000
0000
0100
0000
0010
0000
0001
,
0000
0010
0100
0000
0010
0000
0000
0000
,
1001
0000
2000
3100
0002
0013
2000
3100
,
0002
0013
2000
3100
0002
0013
0110
0000
,
1001
0000
0000
0000
0000
0000
0110
0000
0000
0000
0000
0000
0100
0000
0010
0000
0100
0000
0010
0000
0000
0100
0000
0000
,
1100
0000
0110
0000
0011
0000
0110
0000
0000
1001
0000
0000
,
0110
0000
0200
0310
0020
0130
0200
0310
,
0020
0130
0200
0310
0020
0130
0110
1001
,
0220
0000
0330
0000
,
1000
0100
0010
0001
,
0010
0100
0000
0010
0000
0000
0000
0000
,
0001
0010
0100
1000
,
0100
0010
0000
0100
0000
0000
0000
0000
,
1100
0110
0011
0110
,
1100
0000
0110
0000
0010
0100
0010
0100
,
1000
0001
1000
0001
1000
0001
1000
0001
1000
0001
1000
0001
1000
0001
1000
0001
,
0000
0110
0000
0000
0000
0000
0000
0000
0000
0000
0000
0000
0000
0000
0000
0000
0000
0000
0000
0000
0000
0000
0000
0000
0000
0000
0000
0000
0000
0000
0000
0000
0000
0000
0000
0000
0000
0000
0000
0000
0000
0000
0000
0000
0000
0000
0000
0000
2002
0000
0000
0000
0000
0000
0000
0000
0000
0000
0000
0000
0000
0000
0000
0000
0000
0000
0000
0000
0000
0000
0000
0000
0000
0000
0000
0000
0000
0000
0000
0000
0000
0000
0000
0000
0000
0000
0000
0000
0000
0000
0000
0000
0000
0000
0000
0000
0000
0000
0000
0000
0000
0000
0000
0000
0000
0000
0000
0000
0000
0000
0000
0000
0000
0000
0000
0000
0000
0000
0000
0000
0000
0000
0000
0000
0000
0000
0000
0000
0000
0000
0000
0000
0000
0000
0000
0000
0000
0000
0000
0000
0000
0000
0000
0000
0000
0000
0000
0000
0000
0000
0000
0000
0000
0000
0000
0000
0000
0000
0000
0000
0000
0000
0000
0000
0000
0000
0000
0000
0000
0000
0000
0000
0000
0000
0000
0000
0000
0000
0000
0000
0000
0000
0000
0000
0000
0000
0000
0000
0000
0000
0000
0000
,
0000
0000
0000
3003
,
1000
0100
0001
0010
1000
0100
0001
0010
,
0110
0000
0000
0000
,
0110
0000
0000
0000
0000
0000
0100
0000
0000
0010
0000
0000
0022
0000
0033
0000
0220
0000
0330
0000
2200
0000
3300
0000
,
0220
0000
0330
0000
0022
0000
0033
0000
0110
0000
0000
0000
0000
0000
0000
0200
0000
0000
0000
0000
0000
0300
0000
0000
,
0110
0000
0000
0000
0000
0000
0010
0000
0000
0100
0000
0000
1100
0000
0000
0000
0110
0000
0000
0000
0011
0000
0000
0000
,
0110
0000
0000
0000
0000
0000
0000
0000
1100
0000
0000
0000
0000
0000
0000
0000
0110
0000
0000
0000
0000
0000
0000
0000
0100
0000
0000
0010
0000
0000
0100
0000
0000
0010
0000
0000
1000
0000
0000
0001
0000
0000
1000
0000
0000
0001
0000
0000
,
0110
0000
0000
0000
0000
0000
0100
0000
0000
0010
0000
0000
0022
0000
0033
0000
0220
0000
0330
0000
2200
0000
3300
0000
,
0220
0000
0330
0000
0022
0000
0033
0000
0110
0000
0000
0000
0000
0000
0000
0200
0000
0000
0000
0000
0000
0300
0000
0000
,
0001
0010
0100
1000
,
0010
0100
0000
0010
0000
0000
0100
0010
,
0110
0000
0000
0000
0000
0000
0010
0000
0000
0100
0000
0000
1100
0000
0000
0000
1010
0000
0000
0000
1001
0000
0000
0000
,
0011
0000
0000
0000
0101
0000
0000
0000
1001
0000
0000
0000
0000
0000
0000
0020
0000
0000
0000
0000
0000
0030
0000
0000
,
0110
0000
0000
0000
0000
0000
0010
0000
0000
0001
0000
0000
0011
0000
0000
0000
0101
0000
0000
0000
1001
0000
0000
0000
,
1100
0000
0000
0000
1010
0000
0000
0000
1001
0000
0000
0000
0200
0000
0000
0310
0000
0000
0020
0000
0000
0130
0000
0000
,
0110
0000
0000
0000
0000
0000
0010
0000
0000
0100
0000
0000
1100
0000
0000
0000
1010
0000
0000
0000
1001
0000
0000
0000
,
0011
0000
0000
0000
0101
0000
0000
0000
1001
0000
0000
0000
0000
0000
0000
0020
0000
0000
0000
0000
0000
0030
0000
0000
,
0220
0000
0330
0000
;
