#TITLE:Your Love;
#SUBTITLE:(9PM);
#ARTIST:ATB, Topic & A7S;
#TITLETRANSLIT:;
#SUBTITLETRANSLIT:;
#ARTISTTRANSLIT:;
#GENRE:;
#CREDIT:;
#BANNER:;
#BACKGROUND:;
#LYRICSPATH:;
#CDTITLE:;
#MUSIC:Your Love (9PM).ogg;
#OFFSET:0.060000;
#SAMPLESTART:53.305962;
#SAMPLELENGTH:15.238068;
#SELECTABLE:YES;
#BPMS:0.000000=126.000206
;
#STOPS:
;
#BGCHANGES:;
#KEYSOUNDS:;
#ATTACKS:;

//---------------dance-single - ----------------
#NOTES:
     dance-single:
     :
     Beginner:
     1:
     0.055897,0.101192,0.080954,0.000000,0.000000,58.000000,46.000000,12.000000,0.000000,0.000000,0.000000,0.000000,0.000000,0.000000,0.055897,0.101192,0.080954,0.000000,0.000000,58.000000,46.000000,12.000000,0.000000,0.000000,0.000000,0.000000,0.000000,0.000000:
// measure 0
0000
0000
0000
0000
,  // measure 1
0000
0000
0000
0000
,  // measure 2
0000
0000
0000
0000
,  // measure 3
0000
0000
0000
0000
,  // measure 4
1000
0000
0000
0000
,  // measure 5
0000
0000
0000
0000
,  // measure 6
0001
0000
0000
0000
,  // measure 7
0001
0000
0000
0000
,  // measure 8
0100
0000
0000
0000
,  // measure 9
0000
0000
0000
0000
,  // measure 10
0010
0000
0000
0000
,  // measure 11
0010
0000
0000
0000
,  // measure 12
1000
0000
0000
0000
,  // measure 13
0000
0000
0000
0000
,  // measure 14
0001
0000
0000
0000
,  // measure 15
0001
0000
0000
0000
,  // measure 16
0100
0000
0000
0000
,  // measure 17
0000
0000
0000
0000
,  // measure 18
0010
0000
0000
0000
,  // measure 19
0000
0000
0000
0000
,  // measure 20
1001
0000
0000
0000
,  // measure 21
0000
0000
0000
0000
,  // measure 22
0110
0000
0000
0000
,  // measure 23
0000
0000
0000
0000
,  // measure 24
1001
0000
0000
0000
,  // measure 25
0000
0000
0000
0000
,  // measure 26
0110
0000
0000
0000
,  // measure 27
0000
0000
0000
0000
,  // measure 28
1000
0000
0000
0000
,  // measure 29
1000
0000
0000
0000
,  // measure 30
0001
0000
0000
0000
,  // measure 31
0000
0000
0000
0000
,  // measure 32
0100
0000
0000
0000
,  // measure 33
0100
0000
0000
0000
,  // measure 34
0010
0000
0000
0000
,  // measure 35
0000
0000
0000
0000
,  // measure 36
0000
0000
0000
0000
,  // measure 37
1000
0000
0000
0000
,  // measure 38
0000
0000
0000
0000
,  // measure 39
0001
0000
0000
0000
,  // measure 40
0001
0000
0000
0000
,  // measure 41
0100
0000
0000
0000
,  // measure 42
0000
0000
0000
0000
,  // measure 43
0010
0000
0000
0000
,  // measure 44
0010
0000
0000
0000
,  // measure 45
1000
0000
0000
0000
,  // measure 46
0000
0000
0000
0000
,  // measure 47
0001
0000
0000
0000
,  // measure 48
0001
0000
0000
0000
,  // measure 49
0100
0000
0000
0000
,  // measure 50
0000
0000
0000
0000
,  // measure 51
0010
0000
0000
0000
,  // measure 52
0000
0000
0000
0000
,  // measure 53
1001
0000
0000
0000
,  // measure 54
0000
0000
0000
0000
,  // measure 55
0110
0000
0000
0000
,  // measure 56
0000
0000
0000
0000
,  // measure 57
1001
0000
0000
0000
,  // measure 58
0000
0000
0000
0000
,  // measure 59
0110
0000
0000
0000
,  // measure 60
0000
0000
0000
0000
,  // measure 61
1000
0000
0000
0000
,  // measure 62
1000
0000
0000
0000
,  // measure 63
0001
0000
0000
0000
,  // measure 64
0000
0000
0000
0000
,  // measure 65
0100
0000
0000
0000
,  // measure 66
0100
0000
0000
0000
,  // measure 67
0010
0000
0000
0000
,  // measure 68
0000
0000
0000
0000
,  // measure 69
1001
0000
0000
0000
,  // measure 70
0000
0000
0000
0000
,  // measure 71
0110
0000
0000
0000
,  // measure 72
0000
0000
0000
0000
,  // measure 73
1001
0000
0000
0000
,  // measure 74
0000
0000
0000
0000
,  // measure 75
0110
0000
0000
0000
;

//---------------dance-single - ----------------
#NOTES:
     dance-single:
     :
     Easy:
     3:
     0.147451,0.230718,0.148415,0.000000,0.000000,153.000000,131.000000,22.000000,0.000000,0.000000,0.000000,0.000000,0.000000,0.000000,0.147451,0.230718,0.148415,0.000000,0.000000,153.000000,131.000000,22.000000,0.000000,0.000000,0.000000,0.000000,0.000000,0.000000:
0000
0000
0000
0000
,
0000
0000
0000
0000
,
0000
0000
0000
0000
,
0000
0000
0000
0000
,
1000
0000
0100
0000
,
0000
0000
0000
0000
,
0001
0000
0010
0000
,
0001
0000
0000
0000
,
0100
0000
0010
0000
,
0000
0000
0000
0000
,
0010
0000
0100
0000
,
0010
0000
0000
0000
,
1000
0000
1000
0000
,
1000
0000
0000
0000
,
0110
0000
0000
0000
,
1001
0000
0000
0000
,
0001
0000
0001
0000
,
0001
0000
0000
0000
,
0110
0000
0000
0000
,
0000
0000
0000
0000
,
1000
0100
1000
0000
,
0110
0000
0000
0000
,
0001
0010
0001
0000
,
0110
0000
0000
0000
,
0100
0010
0100
0000
,
1001
0000
0000
0000
,
0010
0100
0010
0000
,
1001
0000
0000
0000
,
1000
0100
0010
0000
,
0001
0000
0001
0000
,
0001
0010
0100
0000
,
1000
0000
1000
0000
,
0010
0100
0010
0000
,
0100
0000
0100
0000
,
0010
0100
0010
0000
,
0010
0000
0010
0000
,
0110
0000
0000
0000
,
1000
0000
0100
0000
,
0000
0000
0000
0000
,
0001
0000
0010
0000
,
0001
0000
0000
0000
,
0100
0000
0010
0000
,
0000
0000
0000
0000
,
0010
0000
0100
0000
,
0010
0000
0000
0000
,
1000
0000
1000
0000
,
1000
0000
0000
0000
,
0110
0000
0000
0000
,
1001
0000
0000
0000
,
0001
0000
0001
0000
,
0001
0000
0000
0000
,
0110
0000
0000
0000
,
0000
0000
0000
0000
,
1000
0100
1000
0000
,
0110
0000
0000
0000
,
0001
0010
0001
0000
,
0110
0000
0000
0000
,
0100
0010
0100
0000
,
1001
0000
0000
0000
,
0010
0100
0010
0000
,
1001
0000
0000
0000
,
1000
0100
0010
0000
,
0001
0000
0001
0000
,
0001
0010
0100
0000
,
1000
0000
1000
0000
,
0010
0100
0010
0000
,
0100
0000
0100
0000
,
0010
0100
0010
0000
,
0010
0100
0010
0000
,
1000
0100
1000
0000
,
0110
0000
1001
0000
,
0001
0010
0001
0000
,
0110
0000
1001
0000
,
0100
0010
0100
0000
,
1001
0000
0110
0000
,
0010
0100
0010
0000
,
1001
0000
0000
0000
;

//---------------dance-single - ----------------
#NOTES:
     dance-single:
     :
     Medium:
     7:
     0.307431,0.415562,0.357545,0.000000,0.020238,319.000000,266.000000,53.000000,0.000000,0.000000,0.000000,0.000000,0.000000,0.000000,0.307431,0.415562,0.357545,0.000000,0.020238,319.000000,266.000000,53.000000,0.000000,0.000000,0.000000,0.000000,0.000000,0.000000:
0000
0000
0000
0000
,
0000
0000
0000
0000
,
0000
0000
0000
0000
,
0000
0000
0000
0000
,
1000
0100
0010
0001
,
0000
0000
0000
0000
,
0001
0010
0100
0110
,
1001
0000
0000
0000
,
1000
0100
0010
0001
,
0000
0000
0000
0000
,
0001
0010
0100
0110
,
1001
0000
0000
0000
,
1000
0100
1000
0100
,
0010
0001
0000
0110
,
0000
1001
0000
0110
,
0000
1001
0000
0000
,
0001
0010
0001
0010
,
0100
1000
0000
0110
,
0000
1001
0000
0110
,
0010
0100
0010
0100
,
1001
0000
0100
0010
0100
0000
0010
0000
,
1000
0100
0010
0001
,
1001
0000
0010
0100
0010
0000
0100
0000
,
0001
0010
0100
1000
,
0110
0000
1000
0001
1000
0000
0001
0000
,
1000
0100
0010
0001
,
0100
0000
0010
0000
0000
0000
0010
0000
0100
0000
0000
0000
,
0000
0000
1000
0001
1000
0000
0110
0000
,
1000
0001
1000
0001
0100
0010
0000
0100
,
0000
0010
0000
0100
0110
0000
1001
0000
,
0000
0000
0010
0100
0010
0100
0000
1001
,
0000
0110
0000
0000
1000
0100
0010
0000
,
0000
0000
1000
0001
0100
0010
0000
0100
,
0000
0010
0000
0100
0110
0000
1001
0000
,
0000
0000
0010
0100
0010
0100
0000
1001
,
0000
0000
0001
0010
0100
0000
0110
0000
,
1001
0000
0000
0000
,
1000
0100
0010
0001
,
0000
0000
0000
0000
,
0001
0010
0100
0110
,
1001
0000
0000
0000
,
1000
0100
0010
0001
,
0000
0000
0000
0000
,
0001
0010
0100
0110
,
1001
0000
0000
0000
,
1000
0100
1000
0100
,
0010
0001
0000
0110
,
0000
1001
0000
0110
,
0000
1001
0000
0000
,
0001
0010
0001
0010
,
0100
1000
0000
0110
,
0000
1001
0000
0110
,
0010
0100
0010
0100
,
1001
0000
0100
0010
0100
0000
0010
0000
,
1000
0100
0010
0001
,
1001
0000
0010
0100
0010
0000
0100
0000
,
0001
0010
0100
1000
,
0110
0000
1000
0001
1000
0000
0001
0000
,
1000
0100
0010
0001
,
0100
0000
0010
0000
0000
0000
0010
0000
0100
0000
0000
0000
,
0000
0000
1000
0001
1000
0000
0110
0000
,
1000
0001
1000
0001
0100
0010
0000
0100
,
0000
0010
0000
0100
0110
0000
1001
0000
,
0000
0000
0010
0100
0010
0100
0000
1001
,
0000
0110
0000
0000
1000
0100
0010
0000
,
0000
0000
1000
0001
0100
0010
0000
0100
,
0000
0010
0000
0100
0110
0000
1001
0000
,
0000
0000
0010
0100
0010
0100
0000
1001
,
0001
0010
0100
0000
1001
0000
0110
0000
,
1001
0000
0100
0010
0100
0000
0010
0000
,
1000
0100
0010
0001
,
1001
0000
0010
0100
0010
0000
0100
0000
,
0001
0010
0100
1000
,
0110
0000
1000
0001
1000
0000
0001
0000
,
1000
0100
0010
0001
,
0100
0000
0010
0000
0000
0000
0010
0000
0100
0000
0000
0000
,
0000
0000
1000
0001
1000
0000
0110
0000
,
1001
0000
0000
0000
;

//---------------dance-single - ----------------
#NOTES:
     dance-single:
     :
     Hard:
     12:
     0.478976,0.467001,0.661121,0.000000,0.101192,497.000000,399.000000,98.000000,0.000000,0.000000,0.000000,0.000000,0.000000,0.000000,0.478976,0.467001,0.661121,0.000000,0.101192,497.000000,399.000000,98.000000,0.000000,0.000000,0.000000,0.000000,0.000000,0.000000:
0000
0000
0000
0000
,
0000
0000
0000
0000
,
0000
0000
0000
0000
,
0000
0000
0000
0000
,
1000
0100
0010
0001
0110
0000
1001
0000
,
0000
1100
0000
0011
,
0001
0010
0100
1000
0100
0000
0010
0100
,
0010
0110
0000
1001
,
1000
0100
0010
0001
0110
0000
1001
0000
,
0000
1100
0000
0011
,
0001
0010
0100
1000
0100
0000
0010
0100
,
0010
0110
0000
1001
,
0000
0000
0000
0000
0000
0000
1000
0000
0000
0100
0000
0000
0010
0000
0000
0000
0000
0000
0001
0000
0000
0000
0000
0000
1000
0000
0000
0000
0000
0000
0000
0000
0000
0000
0001
0000
0000
0000
0000
0000
0000
0000
0110
0000
0000
0000
0000
0000
,
0000
0000
1001
0000
0000
0000
0000
0000
0000
0000
0000
0000
0000
0000
0000
1000
0000
0000
0100
0000
0000
0010
0000
0000
,
0000
0000
0110
0000
0000
0001
0010
0100
,
0000
0010
0100
0000
0000
0000
0110
0000
,
0000
0000
0000
0000
0000
0000
0001
0000
0000
0010
0000
0000
0100
0000
0000
0000
0000
0000
1000
0000
0000
0000
0000
0000
0001
0000
0000
0000
0000
0000
0000
0000
0000
0000
1000
0000
0000
0000
0000
0000
0000
0000
0110
0000
0000
0000
0000
0000
,
0000
0000
1001
0000
0000
0000
0000
0000
0000
0000
0000
0000
0000
0000
0000
0001
0000
0000
0010
0000
0000
0100
0000
0000
,
0010
0100
0010
0100
0010
0100
0010
0100
,
1000
0100
0010
0001
0110
0000
1001
0000
,
0110
0000
1000
0100
0010
0001
0010
0100
,
1000
0000
0000
0100
0000
0000
1000
0000
0000
0100
0000
0000
0110
0000
0000
0000
0000
0000
1001
0000
0000
0000
0110
0000
,
0000
0000
0001
0010
0100
1000
0100
0010
,
0001
0000
0000
0010
0000
0000
0001
0000
0000
0010
0000
0000
0110
0000
0000
0000
0000
0000
1001
0000
0000
0000
0110
0000
,
0000
0000
1000
0100
0010
0001
0010
0100
,
1000
0100
1000
0100
0110
0000
1001
0000
,
0011
0000
0110
0000
0000
0000
1100
0000
0110
0000
0000
0000
,
0000
0000
1000
0100
0010
0000
0110
0000
,
1000
0001
1000
0001
0100
0010
0000
0110
,
0000
0000
1001
0000
0000
0000
0010
0000
0100
0000
0010
0100
0010
0000
0000
0000
,
0000
0000
1000
0100
0010
0001
0000
0110
,
0000
1001
0000
0110
1000
0001
1000
0000
,
0110
0000
0001
1000
0010
0100
0000
0110
,
0000
0000
1001
0000
0000
0000
0100
0000
0010
0000
0100
0010
0100
0000
0000
0000
,
0000
0000
1000
0100
0010
0001
0000
0110
,
0000
0000
0000
0000
0000
0000
0010
0000
0000
0100
0000
0000
0010
0000
0000
0000
0000
0000
1001
0000
0000
0000
0110
0000
,
0000
0000
0000
0000
,
1000
0100
0010
0001
0110
0000
1001
0000
,
0010
0000
0010
0000
0100
0000
0100
0010
,
0001
0010
0100
1000
0100
0000
0010
0100
,
0010
0100
0010
0100
,
1000
0100
0010
0001
0110
0000
1001
0000
,
0010
0000
0100
0000
0010
0000
0100
0010
,
0001
0010
0100
1000
0100
0000
0010
0100
,
0010
0100
0010
0110
,
0000
0000
0000
0000
0000
0000
1000
0000
0000
0100
0000
0000
0010
0000
0000
0000
0000
0000
0001
0000
0000
0000
0000
0000
1000
0000
0000
0000
0000
0000
0000
0000
0000
0000
0001
0000
0000
0000
0000
0000
0000
0000
0110
0000
0000
0000
0000
0000
,
0000
0000
1001
0000
0000
0000
0000
0000
0000
0000
0000
0000
0000
0000
0000
1000
0000
0000
0100
0000
0000
0010
0000
0000
,
0000
0000
0110
0000
0000
0001
0010
0100
,
0000
0010
0100
0000
0000
0000
0110
0000
,
0000
0000
0000
0000
0000
0000
0001
0000
0000
0010
0000
0000
0100
0000
0000
0000
0000
0000
1000
0000
0000
0000
0000
0000
0001
0000
0000
0000
0000
0000
0000
0000
0000
0000
1000
0000
0000
0000
0000
0000
0000
0000
0110
0000
0000
0000
0000
0000
,
0000
0000
1001
0000
0000
0000
0000
0000
0000
0000
0000
0000
0000
0000
0000
0001
0000
0000
0010
0000
0000
0100
0000
0000
,
0010
0100
0010
0100
0010
0100
0010
0100
,
1000
0100
0010
0001
0110
0000
1001
0000
,
0110
0000
1000
0100
0010
0001
0010
0100
,
1000
0000
0000
0100
0000
0000
1000
0000
0000
0100
0000
0000
0110
0000
0000
0000
0000
0000
1001
0000
0000
0000
0110
0000
,
0000
0000
0001
0010
0100
1000
0100
0010
,
0001
0000
0000
0010
0000
0000
0001
0000
0000
0010
0000
0000
0110
0000
0000
0000
0000
0000
1001
0000
0000
0000
0110
0000
,
0000
0000
1000
0100
0010
0001
0010
0100
,
1000
0100
1000
0100
0110
0000
1001
0000
,
0011
0000
0110
0000
0000
0000
1100
0000
0110
0000
0000
0000
,
0000
0000
1000
0100
0010
0000
0110
0000
,
1000
0001
1000
0001
0100
0010
0000
0110
,
0000
0000
1001
0000
0000
0000
0010
0000
0100
0000
0010
0100
0010
0000
0000
0000
,
0000
0000
1000
0100
0010
0001
0000
0110
,
0000
1001
0000
0110
1000
0001
1000
0000
,
0110
0000
0001
1000
0010
0100
0000
0110
,
0000
0000
1001
0000
0000
0000
0100
0000
0010
0000
0100
0010
0100
0000
0000
0000
,
0000
0000
1000
0100
0010
0001
0000
0110
,
1000
0100
0010
0001
0110
0000
1001
0000
,
0110
0000
1000
0100
0010
0001
0010
0100
,
1000
0000
0000
0100
0000
0000
1000
0000
0000
0100
0000
0000
0110
0000
0000
0000
0000
0000
1001
0000
0000
0000
0110
0000
,
0000
0000
0001
0010
0100
1000
0100
0010
,
0001
0000
0000
0010
0000
0000
0001
0000
0000
0010
0000
0000
0110
0000
0000
0000
0000
0000
1001
0000
0000
0000
0110
0000
,
0000
0000
1000
0100
0010
0001
0010
0100
,
1000
0100
1000
0100
0110
0000
1001
0000
,
0011
0000
0110
0000
0000
0000
1100
0000
0110
0000
0000
0000
,
0000
0000
0000
0000
0000
0000
1000
0000
0000
0100
0000
0000
0010
0000
0000
0000
0000
0000
0110
0000
0000
0000
1001
0000
;

//---------------dance-single - ----------------
#NOTES:
     dance-single:
     :
     Beginner:
     1:
     0.055897,0.101192,0.080954,0.000000,0.000000,58.000000,46.000000,12.000000,0.000000,0.000000,0.000000,0.000000,0.000000,0.000000,0.055897,0.101192,0.080954,0.000000,0.000000,58.000000,46.000000,12.000000,0.000000,0.000000,0.000000,0.000000,0.000000,0.000000:
0000
0000
0000
0000
,
0000
0000
0000
0000
,
0000
0000
0000
0000
,
0000
0000
0000
0000
,
1000
0000
0000
0000
,
0000
0000
0000
0000
,
0001
0000
0000
0000
,
0001
0000
0000
0000
,
0100
0000
0000
0000
,
0000
0000
0000
0000
,
0010
0000
0000
0000
,
0010
0000
0000
0000
,
1000
0000
0000
0000
,
0000
0000
0000
0000
,
0001
0000
0000
0000
,
0001
0000
0000
0000
,
0100
0000
0000
0000
,
0000
0000
0000
0000
,
0010
0000
0000
0000
,
0000
0000
0000
0000
,
1001
0000
0000
0000
,
0000
0000
0000
0000
,
0110
0000
0000
0000
,
0000
0000
0000
0000
,
1001
0000
0000
0000
,
0000
0000
0000
0000
,
0110
0000
0000
0000
,
0000
0000
0000
0000
,
1000
0000
0000
0000
,
1000
0000
0000
0000
,
0001
0000
0000
0000
,
0000
0000
0000
0000
,
0100
0000
0000
0000
,
0100
0000
0000
0000
,
0010
0000
0000
0000
,
0000
0000
0000
0000
,
0000
0000
0000
0000
,
1000
0000
0000
0000
,
0000
0000
0000
0000
,
0001
0000
0000
0000
,
0001
0000
0000
0000
,
0100
0000
0000
0000
,
0000
0000
0000
0000
,
0010
0000
0000
0000
,
0010
0000
0000
0000
,
1000
0000
0000
0000
,
0000
0000
0000
0000
,
0001
0000
0000
0000
,
0001
0000
0000
0000
,
0100
0000
0000
0000
,
0000
0000
0000
0000
,
0010
0000
0000
0000
,
0000
0000
0000
0000
,
1001
0000
0000
0000
,
0000
0000
0000
0000
,
0110
0000
0000
0000
,
0000
0000
0000
0000
,
1001
0000
0000
0000
,
0000
0000
0000
0000
,
0110
0000
0000
0000
,
0000
0000
0000
0000
,
1000
0000
0000
0000
,
1000
0000
0000
0000
,
0001
0000
0000
0000
,
0000
0000
0000
0000
,
0100
0000
0000
0000
,
0100
0000
0000
0000
,
0010
0000
0000
0000
,
0000
0000
0000
0000
,
1001
0000
0000
0000
,
0000
0000
0000
0000
,
0110
0000
0000
0000
,
0000
0000
0000
0000
,
1001
0000
0000
0000
,
0000
0000
0000
0000
,
0110
0000
0000
0000
;

//---------------dance-single - ----------------
#NOTES:
     dance-single:
     :
     Easy:
     3:
     0.147451,0.230718,0.148415,0.000000,0.000000,153.000000,131.000000,22.000000,0.000000,0.000000,0.000000,0.000000,0.000000,0.000000,0.147451,0.230718,0.148415,0.000000,0.000000,153.000000,131.000000,22.000000,0.000000,0.000000,0.000000,0.000000,0.000000,0.000000:
0000
0000
0000
0000
,
0000
0000
0000
0000
,
0000
0000
0000
0000
,
0000
0000
0000
0000
,
1000
0000
0100
0000
,
0000
0000
0000
0000
,
0001
0000
0010
0000
,
0001
0000
0000
0000
,
0100
0000
0010
0000
,
0000
0000
0000
0000
,
0010
0000
0100
0000
,
0010
0000
0000
0000
,
1000
0000
1000
0000
,
1000
0000
0000
0000
,
0110
0000
0000
0000
,
1001
0000
0000
0000
,
0001
0000
0001
0000
,
0001
0000
0000
0000
,
0110
0000
0000
0000
,
0000
0000
0000
0000
,
1000
0100
1000
0000
,
0110
0000
0000
0000
,
0001
0010
0001
0000
,
0110
0000
0000
0000
,
0100
0010
0100
0000
,
1001
0000
0000
0000
,
0010
0100
0010
0000
,
1001
0000
0000
0000
,
1000
0100
0010
0000
,
0001
0000
0001
0000
,
0001
0010
0100
0000
,
1000
0000
1000
0000
,
0010
0100
0010
0000
,
0100
0000
0100
0000
,
0010
0100
0010
0000
,
0010
0000
0010
0000
,
0110
0000
0000
0000
,
1000
0000
0100
0000
,
0000
0000
0000
0000
,
0001
0000
0010
0000
,
0001
0000
0000
0000
,
0100
0000
0010
0000
,
0000
0000
0000
0000
,
0010
0000
0100
0000
,
0010
0000
0000
0000
,
1000
0000
1000
0000
,
1000
0000
0000
0000
,
0110
0000
0000
0000
,
1001
0000
0000
0000
,
0001
0000
0001
0000
,
0001
0000
0000
0000
,
0110
0000
0000
0000
,
0000
0000
0000
0000
,
1000
0100
1000
0000
,
0110
0000
0000
0000
,
0001
0010
0001
0000
,
0110
0000
0000
0000
,
0100
0010
0100
0000
,
1001
0000
0000
0000
,
0010
0100
0010
0000
,
1001
0000
0000
0000
,
1000
0100
0010
0000
,
0001
0000
0001
0000
,
0001
0010
0100
0000
,
1000
0000
1000
0000
,
0010
0100
0010
0000
,
0100
0000
0100
0000
,
0010
0100
0010
0000
,
0010
0100
0010
0000
,
1000
0100
1000
0000
,
0110
0000
1001
0000
,
0001
0010
0001
0000
,
0110
0000
1001
0000
,
0100
0010
0100
0000
,
1001
0000
0110
0000
,
0010
0100
0010
0000
,
1001
0000
0000
0000
;

//---------------dance-single - ----------------
#NOTES:
     dance-single:
     :
     Medium:
     7:
     0.307431,0.415562,0.357545,0.000000,0.020238,319.000000,266.000000,53.000000,0.000000,0.000000,0.000000,0.000000,0.000000,0.000000,0.307431,0.415562,0.357545,0.000000,0.020238,319.000000,266.000000,53.000000,0.000000,0.000000,0.000000,0.000000,0.000000,0.000000:
0000
0000
0000
0000
,
0000
0000
0000
0000
,
0000
0000
0000
0000
,
0000
0000
0000
0000
,
1000
0100
0010
0001
,
0000
0000
0000
0000
,
0001
0010
0100
0110
,
1001
0000
0000
0000
,
1000
0100
0010
0001
,
0000
0000
0000
0000
,
0001
0010
0100
0110
,
1001
0000
0000
0000
,
1000
0100
1000
0100
,
0010
0001
0000
0110
,
0000
1001
0000
0110
,
0000
1001
0000
0000
,
0001
0010
0001
0010
,
0100
1000
0000
0110
,
0000
1001
0000
0110
,
0010
0100
0010
0100
,
1001
0000
0100
0010
0100
0000
0010
0000
,
1000
0100
0010
0001
,
1001
0000
0010
0100
0010
0000
0100
0000
,
0001
0010
0100
1000
,
0110
0000
1000
0001
1000
0000
0001
0000
,
1000
0100
0010
0001
,
0100
0000
0010
0000
0000
0000
0010
0000
0100
0000
0000
0000
,
0000
0000
1000
0001
1000
0000
0110
0000
,
1000
0001
1000
0001
0100
0010
0000
0100
,
0000
0010
0000
0100
0110
0000
1001
0000
,
0000
0000
0010
0100
0010
0100
0000
1001
,
0000
0110
0000
0000
1000
0100
0010
0000
,
0000
0000
1000
0001
0100
0010
0000
0100
,
0000
0010
0000
0100
0110
0000
1001
0000
,
0000
0000
0010
0100
0010
0100
0000
1001
,
0000
0000
0001
0010
0100
0000
0110
0000
,
1001
0000
0000
0000
,
1000
0100
0010
0001
,
0000
0000
0000
0000
,
0001
0010
0100
0110
,
1001
0000
0000
0000
,
1000
0100
0010
0001
,
0000
0000
0000
0000
,
0001
0010
0100
0110
,
1001
0000
0000
0000
,
1000
0100
1000
0100
,
0010
0001
0000
0110
,
0000
1001
0000
0110
,
0000
1001
0000
0000
,
0001
0010
0001
0010
,
0100
1000
0000
0110
,
0000
1001
0000
0110
,
0010
0100
0010
0100
,
1001
0000
0100
0010
0100
0000
0010
0000
,
1000
0100
0010
0001
,
1001
0000
0010
0100
0010
0000
0100
0000
,
0001
0010
0100
1000
,
0110
0000
1000
0001
1000
0000
0001
0000
,
1000
0100
0010
0001
,
0100
0000
0010
0000
0000
0000
0010
0000
0100
0000
0000
0000
,
0000
0000
1000
0001
1000
0000
0110
0000
,
1000
0001
1000
0001
0100
0010
0000
0100
,
0000
0010
0000
0100
0110
0000
1001
0000
,
0000
0000
0010
0100
0010
0100
0000
1001
,
0000
0110
0000
0000
1000
0100
0010
0000
,
0000
0000
1000
0001
0100
0010
0000
0100
,
0000
0010
0000
0100
0110
0000
1001
0000
,
0000
0000
0010
0100
0010
0100
0000
1001
,
0001
0010
0100
0000
1001
0000
0110
0000
,
1001
0000
0100
0010
0100
0000
0010
0000
,
1000
0100
0010
0001
,
1001
0000
0010
0100
0010
0000
0100
0000
,
0001
0010
0100
1000
,
0110
0000
1000
0001
1000
0000
0001
0000
,
1000
0100
0010
0001
,
0100
0000
0010
0000
0000
0000
0010
0000
0100
0000
0000
0000
,
0000
0000
1000
0001
1000
0000
0110
0000
,
1001
0000
0000
0000
;

//---------------dance-single - ----------------
#NOTES:
     dance-single:
     :
     Hard:
     12:
     0.478976,0.467001,0.661121,0.000000,0.101192,497.000000,399.000000,98.000000,0.000000,0.000000,0.000000,0.000000,0.000000,0.000000,0.478976,0.467001,0.661121,0.000000,0.101192,497.000000,399.000000,98.000000,0.000000,0.000000,0.000000,0.000000,0.000000,0.000000:
0000
0000
0000
0000
,
0000
0000
0000
0000
,
0000
0000
0000
0000
,
0000
0000
0000
0000
,
1000
0100
0010
0001
0110
0000
1001
0000
,
0000
1100
0000
0011
,
0001
0010
0100
1000
0100
0000
0010
0100
,
0010
0110
0000
1001
,
1000
0100
0010
0001
0110
0000
1001
0000
,
0000
1100
0000
0011
,
0001
0010
0100
1000
0100
0000
0010
0100
,
0010
0110
0000
1001
,
0000
0000
0000
0000
0000
0000
1000
0000
0000
0100
0000
0000
0010
0000
0000
0000
0000
0000
0001
0000
0000
0000
0000
0000
1000
0000
0000
0000
0000
0000
0000
0000
0000
0000
0001
0000
0000
0000
0000
0000
0000
0000
0110
0000
0000
0000
0000
0000
,
0000
0000
1001
0000
0000
0000
0000
0000
0000
0000
0000
0000
0000
0000
0000
1000
0000
0000
0100
0000
0000
0010
0000
0000
,
0000
0000
0110
0000
0000
0001
0010
0100
,
0000
0010
0100
0000
0000
0000
0110
0000
,
0000
0000
0000
0000
0000
0000
0001
0000
0000
0010
0000
0000
0100
0000
0000
0000
0000
0000
1000
0000
0000
0000
0000
0000
0001
0000
0000
0000
0000
0000
0000
0000
0000
0000
1000
0000
0000
0000
0000
0000
0000
0000
0110
0000
0000
0000
0000
0000
,
0000
0000
1001
0000
0000
0000
0000
0000
0000
0000
0000
0000
0000
0000
0000
0001
0000
0000
0010
0000
0000
0100
0000
0000
,
0010
0100
0010
0100
0010
0100
0010
0100
,
1000
0100
0010
0001
0110
0000
1001
0000
,
0110
0000
1000
0100
0010
0001
0010
0100
,
1000
0000
0000
0100
0000
0000
1000
0000
0000
0100
0000
0000
0110
0000
0000
0000
0000
0000
1001
0000
0000
0000
0110
0000
,
0000
0000
0001
0010
0100
1000
0100
0010
,
0001
0000
0000
0010
0000
0000
0001
0000
0000
0010
0000
0000
0110
0000
0000
0000
0000
0000
1001
0000
0000
0000
0110
0000
,
0000
0000
1000
0100
0010
0001
0010
0100
,
1000
0100
1000
0100
0110
0000
1001
0000
,
0011
0000
0110
0000
0000
0000
1100
0000
0110
0000
0000
0000
,
0000
0000
1000
0100
0010
0000
0110
0000
,
1000
0001
1000
0001
0100
0010
0000
0110
,
0000
0000
1001
0000
0000
0000
0010
0000
0100
0000
0010
0100
0010
0000
0000
0000
,
0000
0000
1000
0100
0010
0001
0000
0110
,
0000
1001
0000
0110
1000
0001
1000
0000
,
0110
0000
0001
1000
0010
0100
0000
0110
,
0000
0000
1001
0000
0000
0000
0100
0000
0010
0000
0100
0010
0100
0000
0000
0000
,
0000
0000
1000
0100
0010
0001
0000
0110
,
0000
0000
0000
0000
0000
0000
0010
0000
0000
0100
0000
0000
0010
0000
0000
0000
0000
0000
1001
0000
0000
0000
0110
0000
,
0000
0000
0000
0000
,
1000
0100
0010
0001
0110
0000
1001
0000
,
0010
0000
0010
0000
0100
0000
0100
0010
,
0001
0010
0100
1000
0100
0000
0010
0100
,
0010
0100
0010
0100
,
1000
0100
0010
0001
0110
0000
1001
0000
,
0010
0000
0100
0000
0010
0000
0100
0010
,
0001
0010
0100
1000
0100
0000
0010
0100
,
0010
0100
0010
0110
,
0000
0000
0000
0000
0000
0000
1000
0000
0000
0100
0000
0000
0010
0000
0000
0000
0000
0000
0001
0000
0000
0000
0000
0000
1000
0000
0000
0000
0000
0000
0000
0000
0000
0000
0001
0000
0000
0000
0000
0000
0000
0000
0110
0000
0000
0000
0000
0000
,
0000
0000
1001
0000
0000
0000
0000
0000
0000
0000
0000
0000
0000
0000
0000
1000
0000
0000
0100
0000
0000
0010
0000
0000
,
0000
0000
0110
0000
0000
0001
0010
0100
,
0000
0010
0100
0000
0000
0000
0110
0000
,
0000
0000
0000
0000
0000
0000
0001
0000
0000
0010
0000
0000
0100
0000
0000
0000
0000
0000
1000
0000
0000
0000
0000
0000
0001
0000
0000
0000
0000
0000
0000
0000
0000
0000
1000
0000
0000
0000
0000
0000
0000
0000
0110
0000
0000
0000
0000
0000
,
0000
0000
1001
0000
0000
0000
0000
0000
0000
0000
0000
0000
0000
0000
0000
0001
0000
0000
0010
0000
0000
0100
0000
0000
,
0010
0100
0010
0100
0010
0100
0010
0100
,
1000
0100
0010
0001
0110
0000
1001
0000
,
0110
0000
1000
0100
0010
0001
0010
0100
,
1000
0000
0000
0100
0000
0000
1000
0000
0000
0100
0000
0000
0110
0000
0000
0000
0000
0000
1001
0000
0000
0000
0110
0000
,
0000
0000
0001
0010
0100
1000
0100
0010
,
0001
0000
0000
0010
0000
0000
0001
0000
0000
0010
0000
0000
0110
0000
0000
0000
0000
0000
1001
0000
0000
0000
0110
0000
,
0000
0000
1000
0100
0010
0001
0010
0100
,
1000
0100
1000
0100
0110
0000
1001
0000
,
0011
0000
0110
0000
0000
0000
1100
0000
0110
0000
0000
0000
,
0000
0000
1000
0100
0010
0000
0110
0000
,
1000
0001
1000
0001
0100
0010
0000
0110
,
0000
0000
1001
0000
0000
0000
0010
0000
0100
0000
0010
0100
0010
0000
0000
0000
,
0000
0000
1000
0100
0010
0001
0000
0110
,
0000
1001
0000
0110
1000
0001
1000
0000
,
0110
0000
0001
1000
0010
0100
0000
0110
,
0000
0000
1001
0000
0000
0000
0100
0000
0010
0000
0100
0010
0100
0000
0000
0000
,
0000
0000
1000
0100
0010
0001
0000
0110
,
1000
0100
0010
0001
0110
0000
1001
0000
,
0110
0000
1000
0100
0010
0001
0010
0100
,
1000
0000
0000
0100
0000
0000
1000
0000
0000
0100
0000
0000
0110
0000
0000
0000
0000
0000
1001
0000
0000
0000
0110
0000
,
0000
0000
0001
0010
0100
1000
0100
0010
,
0001
0000
0000
0010
0000
0000
0001
0000
0000
0010
0000
0000
0110
0000
0000
0000
0000
0000
1001
0000
0000
0000
0110
0000
,
0000
0000
1000
0100
0010
0001
0010
0100
,
1000
0100
1000
0100
0110
0000
1001
0000
,
0011
0000
0110
0000
0000
0000
1100
0000
0110
0000
0000
0000
,
0000
0000
0000
0000
0000
0000
1000
0000
0000
0100
0000
0000
0010
0000
0000
0000
0000
0000
0110
0000
0000
0000
1001
0000
;
