#VERSION:0.83;
#TITLE:Without You;
#SUBTITLE:;
#ARTIST:C0MPL1CAT10N;
#TITLETRANSLIT:;
#SUBTITLETRANSLIT:;
#ARTISTTRANSLIT:;
#GENRE:;
#ORIGIN:;
#TAGS:;
#CREDIT:;
#BANNER:Without You-Banner.png;
#BACKGROUND:Without You-bg.png;
#PREVIEWVID:;
#JACKET:Without You-Jacket.png;
#CDIMAGE:;
#DISCIMAGE:;
#LYRICSPATH:;
#CDTITLE:;
#MUSIC:Without You.wav;
#OFFSET:0.040000;
#SAMPLESTART:81.220001;
#SAMPLELENGTH:15.000000;
#SELECTABLE:YES;
#BPMS:0.000000=130.000290
,19.000000=129.999710
;
#STOPS:;
#DELAYS:;
#WARPS:;
#TIMESIGNATURES:0.000000=4=4
;
#TICKCOUNTS:0.000000=4
;
#COMBOS:0.000000=1
;
#SPEEDS:0.000000=1.000000=0.000000=0
;
#SCROLLS:0.000000=1.000000
;
#XSCROLLS:0.000000=0.000000 ;
#FAKES:;
#LABELS:0.000000=Song Start
;
#BGCHANGES:;
#KEYSOUNDS:;
#ATTACKS:
;

//---------------dance-single - ----------------
#NOTEDATA:;
#CHARTNAME:;
#CHARTHASH:3463054888;
#STEPSTYPE:dance-single;
#BANNER:;
#DESCRIPTION:;
#CHARTSTYLE:;
#DIFFICULTY:Beginner;
#METER:3;
#METERF:3.000000;
#LASTSECONDHINT:140.267975;
#RADARVALUES:0.092247,0.131922,0.006943,0.055546,0.000000,93.000000,92.000000,1.000000,8.000000,0.000000,0.000000,0.000000,0.000000,0.000000,0.092247,0.131922,0.006943,0.055546,0.000000,93.000000,92.000000,1.000000,8.000000,0.000000,0.000000,0.000000,0.000000,0.000000;
#CREDIT:;
#NOTES:
// measure 0
0000
0000
0000
0000
,  // measure 1
0000
0000
0000
0000
,  // measure 2
0000
0000
0000
0000
,  // measure 3
0000
0000
0000
0000
,  // measure 4
1000
0000
0000
0000
,  // measure 5
1000
0000
0000
0000
,  // measure 6
0001
0000
0000
0000
,  // measure 7
0001
0000
0000
0000
,  // measure 8
0100
0000
0000
0000
,  // measure 9
0100
0000
0000
0000
,  // measure 10
0020
0000
0000
0000
,  // measure 11
0030
0000
0000
0000
,  // measure 12
2000
0000
3000
0000
,  // measure 13
1000
0000
0000
0000
,  // measure 14
0002
0000
0003
0000
,  // measure 15
0001
0000
0000
0000
,  // measure 16
2000
0000
3000
0000
,  // measure 17
1000
0000
0000
0000
,  // measure 18
0001
0000
0001
0000
,  // measure 19
0001
0000
0000
0000
,  // measure 20
0100
0000
0100
0000
,  // measure 21
0000
0000
0000
0000
,  // measure 22
0010
0000
0010
0000
,  // measure 23
0000
0000
0000
0000
,  // measure 24
1000
0000
1000
0000
,  // measure 25
0000
0000
0000
0000
,  // measure 26
0001
0000
1000
0000
,  // measure 27
0001
0000
0000
0000
,  // measure 28
0100
0000
0100
0000
,  // measure 29
0000
0000
0000
0000
,  // measure 30
0010
0000
0010
0000
,  // measure 31
0000
0000
0000
0000
,  // measure 32
1000
0000
1000
0000
,  // measure 33
0000
0000
0000
0000
,  // measure 34
0001
0000
1000
0000
,  // measure 35
0001
0000
0000
0000
,  // measure 36
1000
0000
0001
0000
,  // measure 37
1000
0000
0000
0000
,  // measure 38
0010
0000
0100
0000
,  // measure 39
0010
0000
0000
0000
,  // measure 40
0001
0000
1000
0000
,  // measure 41
0001
0000
0000
0000
,  // measure 42
0100
0000
0100
0000
,  // measure 43
0200
0000
0300
0000
,  // measure 44
0001
0000
1000
0000
,  // measure 45
0001
0000
0000
0000
,  // measure 46
0100
0000
0010
0000
,  // measure 47
0100
0000
0000
0000
,  // measure 48
1000
0000
0001
0000
,  // measure 49
1000
0000
0000
0000
,  // measure 50
0010
0000
0010
0000
,  // measure 51
0020
0000
0030
0000
,  // measure 52
0100
0000
0100
0000
,  // measure 53
0000
0000
0000
0000
,  // measure 54
0010
0000
0010
0000
,  // measure 55
0000
0000
0000
0000
,  // measure 56
1000
0000
1000
0000
,  // measure 57
0000
0000
0000
0000
,  // measure 58
0001
0000
1000
0000
,  // measure 59
0001
0000
0000
0000
,  // measure 60
1000
0000
0001
0000
,  // measure 61
1000
0000
0000
0000
,  // measure 62
0010
0000
0100
0000
,  // measure 63
0010
0000
0000
0000
,  // measure 64
0001
0000
1000
0000
,  // measure 65
0001
0000
0000
0000
,  // measure 66
0100
0000
0100
0000
,  // measure 67
0200
0000
0300
0000
,  // measure 68
0001
0000
1000
0000
,  // measure 69
0001
0000
0000
0000
,  // measure 70
0100
0000
0010
0000
,  // measure 71
0100
0000
0000
0000
,  // measure 72
1000
0000
0001
0000
,  // measure 73
1000
0000
0000
0000
,  // measure 74
0010
0000
0010
0000
,  // measure 75
0020
0000
0030
0000
,  // measure 76
1001
0000
0000
0000
;

//---------------dance-single - ----------------
#NOTEDATA:;
#CHARTNAME:;
#CHARTHASH:3826092639;
#STEPSTYPE:dance-single;
#BANNER:;
#DESCRIPTION:;
#CHARTSTYLE:;
#DIFFICULTY:Easy;
#METER:6;
#METERF:6.000000;
#LASTSECONDHINT:140.267975;
#RADARVALUES:0.253926,0.263845,0.319391,0.083319,0.000000,256.000000,210.000000,46.000000,12.000000,0.000000,0.000000,0.000000,0.000000,0.000000,0.253926,0.263845,0.319391,0.083319,0.000000,256.000000,210.000000,46.000000,12.000000,0.000000,0.000000,0.000000,0.000000,0.000000;
#CREDIT:;
#NOTES:
0000
0000
0000
0000
,
0000
0000
0000
0000
,
0000
0000
0000
0000
,
0000
0000
0000
0000
,
1000
0100
1000
0000
,
0100
0100
0000
0000
,
0001
0010
0001
0000
,
0010
0010
0010
0000
,
1000
0001
1000
0000
,
0001
0001
0001
1000
,
1000
0000
0010
0100
,
0010
0000
0000
0000
,
2000
3000
0000
1000
,
0100
0010
0000
0000
,
0002
0003
0000
0001
,
0010
0100
0000
0000
,
2000
3000
1000
0100
,
0010
0001
0000
0001
,
0000
1000
0000
0010
,
0000
0100
0000
0000
,
0002
0010
0100
1000
,
0003
0010
0100
0010
,
2000
0100
0010
0001
,
3000
0010
0100
0010
,
0002
0010
0100
1000
,
0003
0100
0010
0100
,
0110
0000
1001
0000
,
0110
0000
0001
1000
,
0002
0010
0100
1000
,
0003
0100
0010
0100
,
2000
0100
0010
0001
,
3000
0010
0100
0010
,
0002
0010
0100
1000
,
0003
0100
0010
0100
,
0110
0000
1001
0000
,
0110
0000
0010
0100
,
0010
0001
0100
1000
,
0110
0000
1001
0000
,
0100
1000
0010
0001
,
1001
0000
0110
0000
,
0001
0010
1000
0100
,
0110
0000
1001
0000
,
0110
0000
1001
0000
,
0110
0000
0010
0100
,
0010
0001
0100
1000
,
0110
0000
1001
0000
,
0100
1000
0010
0001
,
1001
0000
0110
0000
,
0001
0010
1000
0100
,
0110
0000
1001
0000
,
0110
0000
1001
0000
,
0110
0000
0100
0010
,
0002
0010
0100
1000
,
0003
0100
0010
0100
,
2000
0100
0010
0001
,
3000
0010
0100
0010
,
0002
0010
0100
1000
,
0003
0100
0010
0100
,
0110
0000
1001
0000
,
0110
0000
0010
0100
,
0010
0001
0100
1000
,
0110
0000
1001
0000
,
0100
1000
0010
0001
,
1001
0000
0110
0000
,
0001
0010
1000
0100
,
0110
0000
1001
0000
,
0110
0000
1001
0000
,
0110
0000
0010
0100
,
0010
0001
0100
1000
,
0110
0000
1001
0000
,
0100
1000
0010
0001
,
1001
0000
0110
0000
,
0001
0010
1000
0100
,
0110
0000
1001
0000
,
0110
0000
1001
0000
,
0110
0000
0100
0010
,
0110
0000
0000
0000
;

//---------------dance-single - ----------------
#NOTEDATA:;
#CHARTNAME:;
#CHARTHASH:2474707314;
#STEPSTYPE:dance-single;
#BANNER:;
#DESCRIPTION:;
#CHARTSTYLE:;
#DIFFICULTY:Medium;
#METER:10;
#METERF:10.000000;
#LASTSECONDHINT:140.267975;
#RADARVALUES:0.383865,0.369383,0.492973,0.048603,0.000000,387.000000,316.000000,71.000000,7.000000,0.000000,0.000000,0.000000,0.000000,0.000000,0.383865,0.369383,0.492973,0.048603,0.000000,387.000000,316.000000,71.000000,7.000000,0.000000,0.000000,0.000000,0.000000,0.000000;
#CREDIT:;
#NOTES:
0000
0000
0000
0000
,
0000
0000
0000
0000
,
0000
0000
0000
0000
,
0000
0000
0000
0000
,
1000
0100
1000
0100
2000
0000
3000
0000
,
1001
0110
0000
0000
,
0001
0010
0001
0010
0002
0000
0003
0000
,
1001
0110
1001
0000
,
1000
0100
0001
0010
0200
0000
0300
0010
,
0100
0010
1000
0001
,
1000
0000
0000
0001
0010
0100
0010
0001
,
0010
0000
0000
0000
0000
0000
0000
1000
,
2000
0000
3000
0000
0000
1000
0100
0010
,
0001
0000
0001
0000
0000
0000
0000
0001
,
0002
0000
0003
0000
0000
0001
0010
0100
,
1000
0000
1000
0000
0000
0000
0000
1000
,
2000
0000
3000
0000
1000
0100
0010
0100
,
1000
0100
0010
0000
0000
0001
0010
0000
,
0000
1000
0100
0000
0000
0001
0010
0100
,
2000
3001
0000
0000
,
1000
0000
1000
0000
1000
0100
0010
0000
,
0000
0000
0001
0010
1000
0100
0001
0010
,
0100
0000
0100
0000
0010
0100
0010
0000
,
0000
0000
1000
0100
0001
0010
1000
0100
,
0010
0010
0100
0100
,
0000
0000
0001
0010
1000
0100
0001
0010
,
0110
0000
0000
0100
0110
0000
0000
1000
,
1001
0000
0000
0001
0010
0100
1000
0000
,
0001
0000
0001
0000
0001
0010
0100
0000
,
0000
0000
1000
0100
0001
0010
1000
0100
,
0010
0000
0010
0000
0100
0010
0100
0000
,
0000
0000
0001
0010
1000
0100
0001
0010
,
0100
0100
0010
0010
,
0000
0000
1000
0100
0001
0010
1000
0100
,
0110
0000
0000
0010
0110
0000
0000
0001
,
1001
0000
0000
1000
0100
0010
0001
0000
,
0001
0010
0100
0000
1000
0100
0010
0000
,
0110
0000
1001
1001
,
1000
0100
0010
0000
0001
0010
0100
0000
,
1001
0000
0110
0110
,
0001
0010
0100
0000
1000
0100
0010
0000
,
0110
0000
1001
1001
,
1100
0000
0110
0000
,
0011
0000
0110
1001
,
1000
0100
0010
0000
0001
0010
0100
0000
,
0110
0000
1001
1001
,
0001
0010
0100
0000
1000
0100
0010
0000
,
1001
0000
0110
0110
,
1000
0100
0010
0000
0001
0010
0100
0000
,
0110
0000
1001
1001
,
0011
0000
0110
0000
,
1100
0000
0110
1001
,
0001
0000
0001
0000
0001
0010
0100
0000
,
0000
0000
1000
0100
0001
0010
1000
0100
,
0010
0000
0010
0000
0100
0010
0100
0000
,
0000
0000
0001
0010
1000
0100
0001
0010
,
0100
0100
0010
0010
,
0000
0000
1000
0100
0001
0010
1000
0100
,
0110
0000
0000
0010
0110
0000
0000
0001
,
1001
0000
0000
1000
0100
0010
0001
0000
,
0001
0010
0100
0000
1000
0100
0010
0000
,
0110
0000
1001
1001
,
1000
0100
0010
0000
0001
0010
0100
0000
,
1001
0000
0110
0110
,
0001
0010
0100
0000
1000
0100
0010
0000
,
0110
0000
1001
1001
,
1100
0000
0110
0000
,
0011
0000
0110
1001
,
1000
0100
0010
0000
0001
0010
0100
0000
,
0110
0000
1001
1001
,
0001
0010
0100
0000
1000
0100
0010
0000
,
1001
0000
0110
0110
,
1000
0100
0010
0000
0001
0010
0100
0000
,
0110
0000
1001
1001
,
0011
0000
0110
0000
,
1100
0000
0110
1001
,
0110
0000
0000
0000
;

//---------------dance-single - ----------------
#NOTEDATA:;
#CHARTNAME:;
#CHARTHASH:3931421795;
#STEPSTYPE:dance-single;
#BANNER:;
#DESCRIPTION:;
#CHARTSTYLE:;
#DIFFICULTY:Hard;
#METER:12;
#METERF:12.000000;
#LASTSECONDHINT:140.267975;
#RADARVALUES:0.430484,0.474921,0.423541,0.118036,0.107621,434.000000,373.000000,61.000000,17.000000,0.000000,0.000000,0.000000,0.000000,0.000000,0.430484,0.474921,0.423541,0.118036,0.107621,434.000000,373.000000,61.000000,17.000000,0.000000,0.000000,0.000000,0.000000,0.000000;
#CREDIT:;
#NOTES:
0000
0000
0000
0000
,
0000
0000
0000
0000
,
0000
0000
0000
0000
,
0000
0000
0000
0000
,
1000
0000
0100
0000
1000
0000
0100
0000
2000
0000
3000
0000
0000
0000
1000
0100
,
0010
0020
0030
0000
,
0001
0000
0010
0000
0001
0000
0010
0000
0002
0000
0003
0000
0000
0000
0001
0010
,
0100
0010
0100
0000
,
1000
0000
0100
0000
1000
0000
0100
0000
2000
0000
3000
0000
0000
0000
1000
0100
,
0010
0000
0000
0000
0010
0000
0000
0000
0100
0000
0000
0000
0010
0000
0000
0010
,
0100
0000
0000
1000
0100
0010
0001
0010
,
0100
0000
0000
0000
0000
0000
0000
1000
,
2000
0000
3000
0000
0000
1000
0100
0010
,
0001
0000
0001
0000
0000
0000
0000
0001
,
0002
0000
0003
0000
0000
0001
0010
0100
,
1000
0000
1000
0000
0000
0000
0000
1000
,
2000
0000
3000
0000
1000
0100
0010
0001
,
0010
0100
1000
0000
0000
0001
0010
0000
,
0000
1000
0100
0000
0000
0001
0010
0100
,
2000
3000
0000
0000
,
1000
0000
0000
0000
0100
0000
0000
0010
0100
0000
0100
0000
0200
0000
0000
0000
,
0300
0000
0001
0010
0100
1000
0100
0010
,
0001
0000
0010
0000
0010
0010
0020
0000
,
0030
0000
1000
0100
0010
0001
0010
0100
,
1000
0000
0100
0000
0020
0000
0000
0030
,
0000
0000
0001
0010
0100
1000
0100
0010
,
0001
0000
0000
1000
0001
0000
0000
0001
,
1000
0000
0000
1000
0100
0010
0001
0000
,
0001
0000
0000
0000
0010
0000
0000
0100
0010
0000
0010
0000
0020
0000
0000
0000
,
0030
0000
1000
0100
0010
0001
0010
0100
,
1000
0000
0100
0000
0100
0100
0200
0000
,
0300
0000
0001
0010
0100
1000
0100
0010
,
0001
0000
0010
0000
0020
0000
0000
0030
,
0000
0000
1000
0100
0010
0001
0010
0100
,
1000
0000
0000
0001
1000
0000
0000
0001
,
1000
0000
0000
0001
0010
0100
1000
0000
,
0110
0000
0010
0000
0100
0000
0010
0100
0000
0000
1100
0000
0000
0110
0000
0000
,
0011
0000
0000
1000
0100
0010
0001
0000
,
1001
0000
0001
0000
1000
0000
0001
1000
0000
0000
0110
0000
0000
1001
0000
0000
,
0110
0000
0000
0001
0010
0100
1000
0000
,
0110
0000
0010
0000
0100
0000
0010
0100
0000
0000
0011
0000
0000
0110
0000
0000
,
1100
0000
0000
0001
0010
0100
1000
0000
,
0110
0000
0000
0001
1001
0000
0000
0010
,
0110
0000
0000
1000
0100
0010
0001
0000
,
0110
0000
0010
0000
0100
0000
0010
0100
0000
0000
0011
0000
0000
0110
0000
0000
,
1100
0000
0000
0001
0010
0100
1000
0000
,
1001
0000
1000
0000
0001
0000
1000
0001
0000
0000
0110
0000
0000
1001
0000
0000
,
0110
0000
0000
1000
0100
0010
0001
0000
,
0110
0000
0100
0000
0010
0000
0100
0010
0000
0000
1100
0000
0000
0110
0000
0000
,
0011
0000
0000
0001
0010
0100
1000
0000
,
0110
0000
0000
0001
1001
0000
0000
0010
,
0110
0000
0000
1000
0100
0010
0001
0000
,
0001
0000
0000
0000
0010
0000
0000
0100
0010
0000
0010
0000
0020
0000
0000
0000
,
0030
0000
1000
0100
0010
0001
0010
0100
,
1000
0000
0100
0000
0100
0100
0200
0000
,
0300
0000
0001
0010
0100
1000
0100
0010
,
0001
0000
0010
0000
0020
0000
0000
0030
,
0000
0000
1000
0100
0010
0001
0010
0100
,
1000
0000
0000
0001
1000
0000
0000
0001
,
1000
0000
0000
0001
0010
0100
1000
0000
,
0110
0000
0010
0000
0100
0000
0010
0100
0000
0000
1100
0000
0000
0110
0000
0000
,
0011
0000
0000
1000
0100
0010
0001
0000
,
1001
0000
0001
0000
1000
0000
0001
1000
0000
0000
0110
0000
0000
1001
0000
0000
,
0110
0000
0000
0001
0010
0100
1000
0000
,
0110
0000
0010
0000
0100
0000
0010
0100
0000
0000
0011
0000
0000
0110
0000
0000
,
1100
0000
0000
0001
0010
0100
1000
0000
,
0110
0000
0000
0001
1001
0000
0000
0010
,
0110
0000
0000
1000
0100
0010
0001
0000
,
0110
0000
0010
0000
0100
0000
0010
0100
0000
0000
0011
0000
0000
0110
0000
0000
,
1100
0000
0000
0001
0010
0100
1000
0000
,
1001
0000
1000
0000
0001
0000
1000
0001
0000
0000
0110
0000
0000
1001
0000
0000
,
0110
0000
0000
1000
0100
0010
0001
0000
,
0110
0000
0100
0000
0010
0000
0100
0010
0000
0000
1100
0000
0000
0110
0000
0000
,
0011
0000
0000
0001
0010
0100
1000
0000
,
0110
0000
0000
0001
1001
0000
0000
0010
,
0110
0000
0000
1000
0100
0010
0001
0000
,
0110
0000
0000
0000
;

//---------------dance-single - ----------------
#NOTEDATA:;
#CHARTNAME:;
#CHARTHASH:2147483647;
#STEPSTYPE:dance-single;
#BANNER:;
#DESCRIPTION:;
#CHARTSTYLE:;
#DIFFICULTY:Beginner;
#METER:3;
#METERF:3.000000;
#LASTSECONDHINT:140.267975;
#RADARVALUES:0.093238,0.131922,0.006943,0.055546,0.000000,94.000000,93.000000,1.000000,8.000000,0.000000,0.000000,0.000000,0.000000,0.000000,0.093238,0.131922,0.006943,0.055546,0.000000,94.000000,93.000000,1.000000,8.000000,0.000000,0.000000,0.000000,0.000000,0.000000;
#CREDIT:;
#NOTES:
0000
0000
0000
0000
,
0000
0000
0000
0000
,
0000
0000
0000
0000
,
0000
0000
0000
0000
,
1000
0000
0000
0000
,
1000
0000
0000
0000
,
0001
0000
0000
0000
,
0001
0000
0000
0000
,
0100
0000
0000
0000
,
0100
0000
0000
0000
,
0020
0000
0000
0000
,
0030
0000
0000
0000
,
2000
0000
3000
1000
,
1000
0000
0000
0000
,
0002
0000
0003
0000
,
0001
0000
0000
0000
,
2000
0000
3000
0000
,
1000
0000
0000
0000
,
0001
0000
0001
0000
,
0001
0000
0000
0000
,
0100
0000
0100
0000
,
0000
0000
0000
0000
,
0010
0000
0010
0000
,
0000
0000
0000
0000
,
1000
0000
1000
0000
,
0000
0000
0000
0000
,
0001
0000
1000
0000
,
0001
0000
0000
0000
,
0100
0000
0100
0000
,
0000
0000
0000
0000
,
0010
0000
0010
0000
,
0000
0000
0000
0000
,
1000
0000
1000
0000
,
0000
0000
0000
0000
,
0001
0000
1000
0000
,
0001
0000
0000
0000
,
1000
0000
0001
0000
,
1000
0000
0000
0000
,
0010
0000
0100
0000
,
0010
0000
0000
0000
,
0001
0000
1000
0000
,
0001
0000
0000
0000
,
0100
0000
0100
0000
,
0200
0000
0300
0000
,
0001
0000
1000
0000
,
0001
0000
0000
0000
,
0100
0000
0010
0000
,
0100
0000
0000
0000
,
1000
0000
0001
0000
,
1000
0000
0000
0000
,
0010
0000
0010
0000
,
0020
0000
0030
0000
,
0100
0000
0100
0000
,
0000
0000
0000
0000
,
0010
0000
0010
0000
,
0000
0000
0000
0000
,
1000
0000
1000
0000
,
0000
0000
0000
0000
,
0001
0000
1000
0000
,
0001
0000
0000
0000
,
1000
0000
0001
0000
,
1000
0000
0000
0000
,
0010
0000
0100
0000
,
0010
0000
0000
0000
,
0001
0000
1000
0000
,
0001
0000
0000
0000
,
0100
0000
0100
0000
,
0200
0000
0300
0000
,
0001
0000
1000
0000
,
0001
0000
0000
0000
,
0100
0000
0010
0000
,
0100
0000
0000
0000
,
1000
0000
0001
0000
,
1000
0000
0000
0000
,
0010
0000
0010
0000
,
0020
0000
0030
0000
,
1001
0000
0000
0000
;

//---------------dance-single - ----------------
#NOTEDATA:;
#CHARTNAME:;
#CHARTHASH:2147483647;
#STEPSTYPE:dance-single;
#BANNER:;
#DESCRIPTION:;
#CHARTSTYLE:;
#DIFFICULTY:Easy;
#METER:6;
#METERF:6.000000;
#LASTSECONDHINT:140.267975;
#RADARVALUES:0.253926,0.263845,0.319391,0.083319,0.000000,256.000000,210.000000,46.000000,12.000000,0.000000,0.000000,0.000000,0.000000,0.000000,0.253926,0.263845,0.319391,0.083319,0.000000,256.000000,210.000000,46.000000,12.000000,0.000000,0.000000,0.000000,0.000000,0.000000;
#CREDIT:;
#NOTES:
0000
0000
0000
0000
,
0000
0000
0000
0000
,
0000
0000
0000
0000
,
0000
0000
0000
0000
,
1000
0100
1000
0000
,
0100
0100
0000
0000
,
0001
0010
0001
0000
,
0010
0010
0010
0000
,
1000
0001
1000
0000
,
0001
0001
0001
1000
,
1000
0000
0010
0100
,
0010
0000
0000
0000
,
2000
3000
0000
1000
,
0100
0010
0000
0000
,
0002
0003
0000
0001
,
0010
0100
0000
0000
,
2000
3000
1000
0100
,
0010
0001
0000
0001
,
0000
1000
0000
0010
,
0000
0100
0000
0000
,
0002
0010
0100
1000
,
0003
0010
0100
0010
,
2000
0100
0010
0001
,
3000
0010
0100
0010
,
0002
0010
0100
1000
,
0003
0100
0010
0100
,
0110
0000
1001
0000
,
0110
0000
0001
1000
,
0002
0010
0100
1000
,
0003
0100
0010
0100
,
2000
0100
0010
0001
,
3000
0010
0100
0010
,
0002
0010
0100
1000
,
0003
0100
0010
0100
,
0110
0000
1001
0000
,
0110
0000
0010
0100
,
0010
0001
0100
1000
,
0110
0000
1001
0000
,
0100
1000
0010
0001
,
1001
0000
0110
0000
,
0001
0010
1000
0100
,
0110
0000
1001
0000
,
0110
0000
1001
0000
,
0110
0000
0010
0100
,
0010
0001
0100
1000
,
0110
0000
1001
0000
,
0100
1000
0010
0001
,
1001
0000
0110
0000
,
0001
0010
1000
0100
,
0110
0000
1001
0000
,
0110
0000
1001
0000
,
0110
0000
0100
0010
,
0002
0010
0100
1000
,
0003
0100
0010
0100
,
2000
0100
0010
0001
,
3000
0010
0100
0010
,
0002
0010
0100
1000
,
0003
0100
0010
0100
,
0110
0000
1001
0000
,
0110
0000
0010
0100
,
0010
0001
0100
1000
,
0110
0000
1001
0000
,
0100
1000
0010
0001
,
1001
0000
0110
0000
,
0001
0010
1000
0100
,
0110
0000
1001
0000
,
0110
0000
1001
0000
,
0110
0000
0010
0100
,
0010
0001
0100
1000
,
0110
0000
1001
0000
,
0100
1000
0010
0001
,
1001
0000
0110
0000
,
0001
0010
1000
0100
,
0110
0000
1001
0000
,
0110
0000
1001
0000
,
0110
0000
0100
0010
,
0110
0000
0000
0000
;

//---------------dance-single - ----------------
#NOTEDATA:;
#CHARTNAME:;
#CHARTHASH:2147483647;
#STEPSTYPE:dance-single;
#BANNER:;
#DESCRIPTION:;
#CHARTSTYLE:;
#DIFFICULTY:Medium;
#METER:10;
#METERF:10.000000;
#LASTSECONDHINT:140.267975;
#RADARVALUES:0.383865,0.369383,0.492973,0.048603,0.000000,387.000000,316.000000,71.000000,7.000000,0.000000,0.000000,0.000000,0.000000,0.000000,0.383865,0.369383,0.492973,0.048603,0.000000,387.000000,316.000000,71.000000,7.000000,0.000000,0.000000,0.000000,0.000000,0.000000;
#CREDIT:;
#NOTES:
0000
0000
0000
0000
,
0000
0000
0000
0000
,
0000
0000
0000
0000
,
0000
0000
0000
0000
,
1000
0100
1000
0100
2000
0000
3000
0000
,
1001
0110
0000
0000
,
0001
0010
0001
0010
0002
0000
0003
0000
,
1001
0110
1001
0000
,
1000
0100
0001
0010
0200
0000
0300
0010
,
0100
0010
1000
0001
,
1000
0000
0000
0001
0010
0100
0010
0001
,
0010
0000
0000
0000
0000
0000
0000
1000
,
2000
0000
3000
0000
0000
1000
0100
0010
,
0001
0000
0001
0000
0000
0000
0000
0001
,
0002
0000
0003
0000
0000
0001
0010
0100
,
1000
0000
1000
0000
0000
0000
0000
1000
,
2000
0000
3000
0000
1000
0100
0010
0100
,
1000
0100
0010
0000
0000
0001
0010
0000
,
0000
1000
0100
0000
0000
0001
0010
0100
,
2000
3001
0000
0000
,
1000
0000
1000
0000
1000
0100
0010
0000
,
0000
0000
0001
0010
1000
0100
0001
0010
,
0100
0000
0100
0000
0010
0100
0010
0000
,
0000
0000
1000
0100
0001
0010
1000
0100
,
0010
0010
0100
0100
,
0000
0000
0001
0010
1000
0100
0001
0010
,
0110
0000
0000
0100
0110
0000
0000
1000
,
1001
0000
0000
0001
0010
0100
1000
0000
,
0001
0000
0001
0000
0001
0010
0100
0000
,
0000
0000
1000
0100
0001
0010
1000
0100
,
0010
0000
0010
0000
0100
0010
0100
0000
,
0000
0000
0001
0010
1000
0100
0001
0010
,
0100
0100
0010
0010
,
0000
0000
1000
0100
0001
0010
1000
0100
,
0110
0000
0000
0010
0110
0000
0000
0001
,
1001
0000
0000
1000
0100
0010
0001
0000
,
0001
0010
0100
0000
1000
0100
0010
0000
,
0110
0000
1001
1001
,
1000
0100
0010
0000
0001
0010
0100
0000
,
1001
0000
0110
0110
,
0001
0010
0100
0000
1000
0100
0010
0000
,
0110
0000
1001
1001
,
1100
0000
0110
0000
,
0011
0000
0110
1001
,
1000
0100
0010
0000
0001
0010
0100
0000
,
0110
0000
1001
1001
,
0001
0010
0100
0000
1000
0100
0010
0000
,
1001
0000
0110
0110
,
1000
0100
0010
0000
0001
0010
0100
0000
,
0110
0000
1001
1001
,
0011
0000
0110
0000
,
1100
0000
0110
1001
,
0001
0000
0001
0000
0001
0010
0100
0000
,
0000
0000
1000
0100
0001
0010
1000
0100
,
0010
0000
0010
0000
0100
0010
0100
0000
,
0000
0000
0001
0010
1000
0100
0001
0010
,
0100
0100
0010
0010
,
0000
0000
1000
0100
0001
0010
1000
0100
,
0110
0000
0000
0010
0110
0000
0000
0001
,
1001
0000
0000
1000
0100
0010
0001
0000
,
0001
0010
0100
0000
1000
0100
0010
0000
,
0110
0000
1001
1001
,
1000
0100
0010
0000
0001
0010
0100
0000
,
1001
0000
0110
0110
,
0001
0010
0100
0000
1000
0100
0010
0000
,
0110
0000
1001
1001
,
1100
0000
0110
0000
,
0011
0000
0110
1001
,
1000
0100
0010
0000
0001
0010
0100
0000
,
0110
0000
1001
1001
,
0001
0010
0100
0000
1000
0100
0010
0000
,
1001
0000
0110
0110
,
1000
0100
0010
0000
0001
0010
0100
0000
,
0110
0000
1001
1001
,
0011
0000
0110
0000
,
1100
0000
0110
1001
,
0110
0000
0000
0000
;

//---------------dance-single - ----------------
#NOTEDATA:;
#CHARTNAME:;
#CHARTHASH:1501811330;
#STEPSTYPE:dance-single;
#BANNER:;
#DESCRIPTION:;
#CHARTSTYLE:;
#DIFFICULTY:Hard;
#METER:12;
#METERF:12.000000;
#LASTSECONDHINT:140.267975;
#RADARVALUES:0.430484,0.474921,0.423541,0.118036,0.107621,434.000000,373.000000,61.000000,17.000000,0.000000,0.000000,0.000000,0.000000,0.000000,0.430484,0.474921,0.423541,0.118036,0.107621,434.000000,373.000000,61.000000,17.000000,0.000000,0.000000,0.000000,0.000000,0.000000;
#CREDIT:;
#NOTES:
0000
0000
0000
0000
,
0000
0000
0000
0000
,
0000
0000
0000
0000
,
0000
0000
0000
0000
,
1000
0000
0100
0000
1000
0000
0100
0000
2000
0000
3000
0000
0000
0000
1000
0100
,
0010
0020
0030
0000
,
0001
0000
0010
0000
0001
0000
0010
0000
0002
0000
0003
0000
0000
0000
0001
0010
,
0100
0010
0100
0000
,
1000
0000
0100
0000
1000
0000
0100
0000
2000
0000
3000
0000
0000
0000
1000
0100
,
0010
0000
0000
0000
0010
0000
0000
0000
0100
0000
0000
0000
0010
0000
0000
0010
,
0100
0000
0000
1000
0100
0010
0001
0010
,
0100
0000
0000
0000
0000
0000
0000
1000
,
2000
0000
3000
0000
0000
1000
0100
0010
,
0001
0000
0001
0000
0000
0000
0000
0001
,
0002
0000
0003
0000
0000
0001
0010
0100
,
1000
0000
1000
0000
0000
0000
0000
1000
,
2000
0000
3000
0000
1000
0100
0010
0001
,
0010
0100
1000
0000
0000
0001
0010
0000
,
0000
1000
0100
0000
0000
0001
0010
0100
,
2000
3000
0000
0000
,
1000
0000
0000
0000
0100
0000
0000
0010
0100
0000
0100
0000
0200
0000
0000
0000
,
0300
0000
0001
0010
0100
1000
0100
0010
,
0001
0000
0010
0000
0010
0010
0020
0000
,
0030
0000
1000
0100
0010
0001
0010
0100
,
1000
0000
0100
0000
0020
0000
0000
0030
,
0000
0000
0001
0010
0100
1000
0100
0010
,
0001
0000
0000
1000
0001
0000
0000
0001
,
1000
0000
0000
1000
0100
0010
0001
0000
,
0001
0000
0000
0000
0010
0000
0000
0100
0010
0000
0010
0000
0020
0000
0000
0000
,
0030
0000
1000
0100
0010
0001
0010
0100
,
1000
0000
0100
0000
0100
0100
0200
0000
,
0300
0000
0001
0010
0100
1000
0100
0010
,
0001
0000
0010
0000
0020
0000
0000
0030
,
0000
0000
1000
0100
0010
0001
0010
0100
,
1000
0000
0000
0001
1000
0000
0000
0001
,
1000
0000
0000
0001
0010
0100
1000
0000
,
0110
0000
0010
0000
0100
0000
0010
0100
0000
0000
1100
0000
0000
0110
0000
0000
,
0011
0000
0000
1000
0100
0010
0001
0000
,
1001
0000
0001
0000
1000
0000
0001
1000
0000
0000
0110
0000
0000
1001
0000
0000
,
0110
0000
0000
0001
0010
0100
1000
0000
,
0110
0000
0010
0000
0100
0000
0010
0100
0000
0000
0011
0000
0000
0110
0000
0000
,
1100
0000
0000
0001
0010
0100
1000
0000
,
0110
0000
0000
0001
1001
0000
0000
0010
,
0110
0000
0000
1000
0100
0010
0001
0000
,
0110
0000
0010
0000
0100
0000
0010
0100
0000
0000
0011
0000
0000
0110
0000
0000
,
1100
0000
0000
0001
0010
0100
1000
0000
,
1001
0000
1000
0000
0001
0000
1000
0001
0000
0000
0110
0000
0000
1001
0000
0000
,
0110
0000
0000
1000
0100
0010
0001
0000
,
0110
0000
0100
0000
0010
0000
0100
0010
0000
0000
1100
0000
0000
0110
0000
0000
,
0011
0000
0000
0001
0010
0100
1000
0000
,
0110
0000
0000
0001
1001
0000
0000
0010
,
0110
0000
0000
1000
0100
0010
0001
0000
,
0001
0000
0000
0000
0010
0000
0000
0100
0010
0000
0010
0000
0020
0000
0000
0000
,
0030
0000
1000
0100
0010
0001
0010
0100
,
1000
0000
0100
0000
0100
0100
0200
0000
,
0300
0000
0001
0010
0100
1000
0100
0010
,
0001
0000
0010
0000
0020
0000
0000
0030
,
0000
0000
1000
0100
0010
0001
0010
0100
,
1000
0000
0000
0001
1000
0000
0000
0001
,
1000
0000
0000
0001
0010
0100
1000
0000
,
0110
0000
0010
0000
0100
0000
0010
0100
0000
0000
1100
0000
0000
0110
0000
0000
,
0011
0000
0000
1000
0100
0010
0001
0000
,
1001
0000
0001
0000
1000
0000
0001
1000
0000
0000
0110
0000
0000
1001
0000
0000
,
0110
0000
0000
0001
0010
0100
1000
0000
,
0110
0000
0010
0000
0100
0000
0010
0100
0000
0000
0011
0000
0000
0110
0000
0000
,
1100
0000
0000
0001
0010
0100
1000
0000
,
0110
0000
0000
0001
1001
0000
0000
0010
,
0110
0000
0000
1000
0100
0010
0001
0000
,
0110
0000
0010
0000
0100
0000
0010
0100
0000
0000
0011
0000
0000
0110
0000
0000
,
1100
0000
0000
0001
0010
0100
1000
0000
,
1001
0000
1000
0000
0001
0000
1000
0001
0000
0000
0110
0000
0000
1001
0000
0000
,
0110
0000
0000
1000
0100
0010
0001
0000
,
0110
0000
0100
0000
0010
0000
0100
0010
0000
0000
1100
0000
0000
0110
0000
0000
,
0011
0000
0000
0001
0010
0100
1000
0000
,
0110
0000
0000
0001
1001
0000
0000
0010
,
0110
0000
0000
1000
0100
0010
0001
0000
,
0110
0000
0000
0000
;
