#TITLE:Real Love;
#SUBTITLE:;
#ARTIST:Dillon Francis Ft. Aleyna Tilki;
#TITLETRANSLIT:;
#SUBTITLETRANSLIT:;
#ARTISTTRANSLIT:;
#GENRE:;
#CREDIT:;
#BANNER:Real Love-banner.png;
#BACKGROUND:Real Love-bg.png;
#LYRICSPATH:;
#CDTITLE:;
#MUSIC:Real Love.ogg;
#OFFSET:0.280000;
#SAMPLESTART:115.881531;
#SAMPLELENGTH:15.483841;
#SELECTABLE:YES;
#BPMS:0.000000=124.000237
;
#STOPS:76.000000=0.241932,
76.500000=0.241936,
77.000000=0.241936,
77.500000=0.241936,
202.000000=0.241936,
202.500000=0.241936,
203.000000=0.241936,
203.500000=0.241936
;
#BGCHANGES:;
#KEYSOUNDS:;
#ATTACKS:;

//---------------dance-single - ----------------
#NOTES:
     dance-single:
     :
     Beginner:
     1:
     0.049273,0.100475,0.067483,0.029992,0.000000,46.000000,37.000000,9.000000,4.000000,0.000000,0.000000,0.000000,0.000000,0.000000,0.049273,0.100475,0.067483,0.029992,0.000000,46.000000,37.000000,9.000000,4.000000,0.000000,0.000000,0.000000,0.000000,0.000000:
0000
0000
0000
0000
,
0000
0000
0000
0000
,
0000
0000
0000
0000
,
0000
0000
0000
0000
,
1000
0000
0000
0000
,
0000
0000
0000
0000
,
0001
0000
0000
0000
,
0000
0000
0000
0000
,
0100
0000
0000
0000
,
0000
0000
0000
0000
,
0010
0000
0000
0000
,
0000
0000
0000
0000
,
1001
0000
0000
0000
,
0000
0000
0000
0000
,
0110
0000
0000
0000
,
0000
0000
0000
0000
,
1001
0000
0000
0000
,
0000
0000
0000
0000
,
0110
0000
0000
0000
,
0000
0000
1000
0000
,
0000
0000
0000
0000
,
0000
0000
0002
0000
,
0000
0000
0003
0000
,
0000
0000
0100
0000
,
0000
0000
0000
0000
,
0000
0000
0020
0000
,
0000
0000
0030
0000
,
0000
0000
1000
0000
,
0000
0000
1000
0000
,
0000
0000
0001
0000
,
0000
0000
0000
0000
,
0000
0000
0100
0000
,
0000
0000
0100
0000
,
0000
0000
0010
0000
,
0000
0000
0000
0000
,
0000
0000
1000
0000
,
0000
0000
0000
0000
,
0000
0000
0001
0000
,
0000
0000
0000
0000
,
0000
0000
0100
0000
,
0000
0000
0000
0000
,
0000
0000
0010
0000
,
0000
0000
0000
0000
,
0000
0000
1001
0000
,
0000
0000
0000
0000
,
0000
0000
0110
0000
,
0000
0000
0000
0000
,
0000
0000
1001
0000
,
0000
0000
0000
0000
,
0000
0000
0110
0000
,
0000
0000
0000
0000
,
1000
0000
0000
0000
,
0000
0000
0000
0000
,
0002
0000
0000
0000
,
0003
0000
0000
0000
,
0100
0000
0000
0000
,
0000
0000
0000
0000
,
0020
0000
0000
0000
,
0030
0000
0000
0000
,
1000
0000
0000
0000
,
1000
0000
0000
0000
,
0001
0000
0000
0000
,
0000
0000
0000
0000
,
0100
0000
0000
0000
,
0100
0000
0000
0000
,
0010
0000
0000
0000
,
0000
0000
0000
0000
,
0110
0000
0000
0000
;

//---------------dance-single - ----------------
#NOTES:
     dance-single:
     :
     Easy:
     5:
     0.208876,0.250249,0.269932,0.000000,0.000000,195.000000,159.000000,36.000000,0.000000,0.000000,0.000000,0.000000,0.000000,0.000000,0.208876,0.250249,0.269932,0.000000,0.000000,195.000000,159.000000,36.000000,0.000000,0.000000,0.000000,0.000000,0.000000,0.000000:
0000
0000
0000
0000
,
0000
0000
0000
0000
,
0000
0000
0000
0000
,
0000
0000
0000
0000
,
1000
0100
1000
0000
,
0010
0000
0100
0000
,
0001
0010
0001
0000
,
0100
0000
0010
0000
,
0100
0010
0100
0000
,
1000
0000
0001
0000
,
0010
0100
0010
0000
,
0001
0000
1000
0000
,
0110
0000
1001
0000
,
0100
0010
0000
0000
,
0001
1000
0000
0000
,
0100
0010
1000
0001
,
0110
0000
1001
0000
,
0010
0100
0000
0000
,
1000
0001
0000
0000
,
0000
0000
1000
0100
,
1000
0000
0010
0100
,
0010
0000
0110
1001
,
0000
0000
1001
0110
,
0000
0000
0001
0010
,
0001
0000
0100
0010
,
0100
0000
0110
1001
,
0000
0000
1001
0110
,
0000
0000
0010
0100
,
0010
0000
1000
0001
,
1000
0000
1001
0110
,
0000
0000
0110
1001
,
0000
0000
0010
0100
,
0010
0000
1000
0001
,
1000
0000
1001
0110
,
0000
0000
1000
0100
,
0010
0001
0000
0010
,
0001
0000
0010
0100
,
0010
0000
1000
0100
,
1000
0000
0100
0010
,
0100
0000
0010
0100
,
0010
0000
1000
0001
,
1000
0000
0100
0010
,
0100
0000
0001
1000
,
0001
0000
0110
0000
,
1001
0000
0100
0010
,
0000
0000
0001
1000
,
0000
0000
0100
0010
,
1000
0001
0110
0000
,
1001
0000
0010
0100
,
0000
0000
1000
0001
,
0000
0000
0000
0000
,
1000
0100
1000
0000
,
0010
0100
0010
0000
,
0110
1001
0000
0000
,
1001
0110
0000
0000
,
0001
0010
0001
0000
,
0100
0010
0100
0000
,
0110
1001
0000
0000
,
1001
0110
0000
0000
,
0010
0100
0010
0000
,
1000
0001
1000
0000
,
1001
0110
0000
0000
,
0110
1001
0000
0000
,
0010
0100
0010
0000
,
1000
0001
1000
0000
,
1001
0110
0000
0000
,
1000
0100
0010
0001
;

//---------------dance-single - ----------------
#NOTES:
     dance-single:
     :
     Medium:
     8:
     0.407040,0.425424,0.689826,0.059985,0.000000,380.000000,288.000000,92.000000,8.000000,0.000000,0.000000,0.000000,0.000000,0.000000,0.407040,0.425424,0.689826,0.059985,0.000000,380.000000,288.000000,92.000000,8.000000,0.000000,0.000000,0.000000,0.000000,0.000000:
0000
0000
0000
0000
,
0000
0000
0000
0000
,
0000
0000
0000
0000
,
0000
0000
0000
0000
,
0000
0000
1000
0100
0010
0000
0001
0000
,
1000
0001
0110
1001
,
0000
0000
0001
0010
0100
0000
1000
0000
,
0001
1000
0110
1001
,
0000
0000
1000
0100
0010
0000
0001
0000
,
1000
0001
0110
1001
,
0000
0000
0001
0010
0100
0000
1000
0000
,
0001
1000
0110
1001
,
0110
0000
0100
0010
0100
0000
0010
0000
,
0110
0000
1001
0000
0001
0010
0001
0000
,
0110
0000
1001
0000
1000
0100
1000
0000
,
0110
1001
1100
0011
,
0110
0000
0010
0100
0010
0000
0100
0000
,
0110
0000
1001
0000
0100
0010
0100
0000
,
0110
2002
0000
3003
,
1000
0100
0010
0001
1000
0000
0100
0010
,
0001
0000
0001
0010
0100
0000
0100
0000
,
1000
0100
0010
0000
1100
0000
0011
0000
,
0001
0010
0100
0000
0011
0000
1100
0000
,
0110
0000
1001
0000
0001
0000
0010
0100
,
1000
0000
1000
0100
0010
0000
0010
0000
,
0001
0010
0100
0000
0011
0000
1100
0000
,
1000
0100
0010
0000
0011
0000
1100
0000
,
0110
0000
1001
0000
1000
0000
0100
0010
,
0001
0000
0001
0010
0100
0000
0100
0000
,
1000
0100
0010
0000
1100
0000
0011
0000
,
0001
0010
0100
0000
0011
0000
1100
0000
,
0110
0000
1001
0000
0001
0000
0010
0100
,
1000
0000
1000
0100
0010
0000
0010
0000
,
0001
0010
0100
0000
0011
0000
2200
0000
,
0000
3300
0011
1100
,
0110
0000
1001
0000
0000
0000
1000
0100
,
0010
0001
1000
0001
,
0110
0000
1001
0000
0000
0000
0001
0010
,
0100
1000
0001
1000
,
0110
0000
1001
0000
0000
0000
1000
0100
,
0010
0001
1000
0001
,
0110
0000
1001
0000
0000
0000
0001
0010
,
0100
1000
0001
1000
,
0110
0000
1001
0000
0110
0000
0100
0010
,
0100
0010
0110
1001
,
0001
0010
0001
0000
0110
0000
1001
0000
,
1000
0100
1000
0000
0110
0000
1001
0000
,
1100
0000
0011
0000
0110
0000
0010
0100
,
0010
0100
0110
1001
,
0100
0010
0100
0000
0110
0000
2002
0000
,
0000
0000
3003
0000
1000
0100
0010
0001
,
1000
0000
0100
0010
0001
0000
0001
0010
,
0100
0000
0100
0000
1000
0100
0010
0000
,
1100
0000
0011
0000
0001
0010
0100
0000
,
0011
1100
0110
1001
,
0001
0000
0010
0100
1000
0000
1000
0100
,
0010
0000
0010
0000
0001
0010
0100
0000
,
0011
0000
1100
0000
1000
0100
0010
0000
,
0011
1100
0110
1001
,
1000
0000
0100
0010
0001
0000
0001
0010
,
0100
0000
0100
0000
1000
0100
0010
0000
,
1100
0000
0011
0000
0001
0010
0100
0000
,
0011
1100
0110
1001
,
0001
0000
0010
0100
1000
0000
1000
0100
,
0010
0000
0010
0000
0001
0010
0100
0000
,
0011
2200
0000
3300
,
0011
1100
0110
1001
;

//---------------dance-single - ----------------
#NOTES:
     dance-single:
     :
     Hard:
     11:
     0.462740,0.525524,0.449886,0.209947,0.000000,432.000000,372.000000,60.000000,28.000000,0.000000,0.000000,0.000000,0.000000,0.000000,0.462740,0.525524,0.449886,0.209947,0.000000,432.000000,372.000000,60.000000,28.000000,0.000000,0.000000,0.000000,0.000000,0.000000:
// measure 0
0000
0000
0000
0000
,  // measure 1
0000
0000
0000
0000
,  // measure 2
0000
0000
0000
0000
,  // measure 3
0000
0000
0000
0000
,  // measure 4
0000
0000
1000
0100
0010
0100
1000
0100
,  // measure 5
0010
0001
0010
0100
1100
0000
0011
0000
,  // measure 6
0000
0000
0001
0010
0100
0010
0001
0010
,  // measure 7
0100
1000
0100
0010
0011
0000
1100
0000
,  // measure 8
0000
0000
1000
0100
0010
0100
1000
0100
,  // measure 9
0010
0001
0010
0100
0110
0000
1001
0000
,  // measure 10
0000
0000
0001
0010
0100
0010
0001
0010
,  // measure 11
0100
1000
0100
0010
0110
0000
1001
0000
,  // measure 12
0110
0000
0010
0100
1000
0100
0010
0100
,  // measure 13
2000
0000
3001
0000
0001
0010
0100
0010
,  // measure 14
0002
0000
1003
0000
1000
0100
0010
0100
,  // measure 15
2000
3001
0011
1100
,  // measure 16
0110
0000
0100
0010
0001
0010
0100
0010
,  // measure 17
0002
0000
1003
0000
1000
0100
0010
0100
,  // measure 18
2000
0002
0000
3003
,  // measure 19
1100
0011
0110
1001
0110
0000
1000
0100
,  // measure 20
0010
0100
1000
0100
0010
0001
0010
0001
,  // measure 21
0010
0100
1000
0100
0020
0000
0130
0000
,  // measure 22
0001
0010
0100
0010
0002
0000
1003
0000
,  // measure 23
0110
0000
1001
0000
0110
0000
0001
0010
,  // measure 24
0100
0010
0001
0010
0100
1000
0100
1000
,  // measure 25
0100
0010
0001
0010
0200
0000
0310
0000
,  // measure 26
1000
0100
0010
0100
2000
0000
3001
0000
,  // measure 27
0110
0000
1001
0000
0110
0000
1000
0100
,  // measure 28
0010
0100
1000
0100
0010
0001
0010
0001
,  // measure 29
0010
0100
1000
0100
0020
0000
0130
0000
,  // measure 30
0001
0010
0100
0010
0002
0000
1003
0000
,  // measure 31
0110
0000
1001
0000
0110
0000
0001
0010
,  // measure 32
0100
0010
0001
0010
0100
1000
0100
1000
,  // measure 33
0100
0010
0001
0010
0200
0000
0020
0000
,  // measure 34
0000
0330
1100
0011
,  // measure 35
0110
0000
1001
0000
0000
0000
1000
0100
,  // measure 36
0010
0100
1000
0100
0010
0001
0010
0100
,  // measure 37
1100
0000
0011
0000
0000
0000
0001
0010
,  // measure 38
0100
0010
0001
0010
0100
1000
0100
0010
,  // measure 39
0011
0000
1100
0000
0000
0000
1000
0100
,  // measure 40
0010
0100
1000
0100
0010
0001
0010
0100
,  // measure 41
0110
0000
1001
0000
0000
0000
0001
0010
,  // measure 42
0100
0010
0001
0010
0100
1000
0100
0010
,  // measure 43
0110
0000
1001
0000
0110
0000
0010
0100
,  // measure 44
1000
0100
0010
0100
2000
0000
3001
0000
,  // measure 45
0001
0010
0100
0010
0002
0000
1003
0000
,  // measure 46
1000
0100
0010
0100
2000
0000
3001
0000
,  // measure 47
0011
0000
1100
0000
0110
0000
0100
0010
,  // measure 48
0001
0010
0100
0010
0002
0000
1003
0000
,  // measure 49
1000
0100
0010
0100
2000
0000
0002
0000
,  // measure 50
0000
0000
3003
0000
1100
0011
0110
1001
,  // measure 51
0110
0000
1000
0100
0010
0100
1000
0100
,  // measure 52
0010
0001
0010
0001
0010
0100
1000
0100
,  // measure 53
0020
0000
0130
0000
0001
0010
0100
0010
,  // measure 54
0002
1003
0110
1001
,  // measure 55
0110
0000
0001
0010
0100
0010
0001
0010
,  // measure 56
0100
1000
0100
1000
0100
0010
0001
0010
,  // measure 57
0200
0000
0310
0000
1000
0100
0010
0100
,  // measure 58
2000
3001
0110
1001
,  // measure 59
0110
0000
1000
0100
0010
0100
1000
0100
,  // measure 60
0010
0001
0010
0001
0010
0100
1000
0100
,  // measure 61
0020
0000
0130
0000
0001
0010
0100
0010
,  // measure 62
0002
1003
0110
1001
,  // measure 63
0110
0000
0001
0010
0100
0010
0001
0010
,  // measure 64
0100
1000
0100
1000
0100
0010
0001
0010
,  // measure 65
0200
0020
0000
0330
,  // measure 66
1100
0011
0110
1001
;
