#TITLE:REMEMBER THE NAME;
#SUBTITLE:;
#ARTIST:Rooler & Sefa;
#TITLETRANSLIT:;
#SUBTITLETRANSLIT:;
#ARTISTTRANSLIT:;
#GENRE:;
#CREDIT:;
#BANNER:;
#BACKGROUND:;
#LYRICSPATH:;
#CDTITLE:;
#MUSIC:REMEMBER THE NAME.ogg;
#OFFSET:-1.720002;
#SAMPLESTART:39.827965;
#SAMPLELENGTH:19.199966;
#SELECTABLE:YES;
#BPMS:0.000000=50.000023
,16.000000=100.000145
,48.000000=200.000275
,65.000000=100.000031
,65.500000=200.000351
,92.500000=100.000114
,93.000000=200.000381
,109.500000=100.000122
,110.250000=200.000443
,141.000000=50.000031
,165.000000=100.000122
,197.000000=50.000034
,199.000000=200.000443
,236.500000=100.000221
,237.500000=200.000504
,261.500000=50.000080
;
#STOPS:94.000000=0.150002,
110.250000=0.075001,
110.500000=0.075001,
110.750000=0.075001,
214.000000=0.149994
;
#BGCHANGES:;
#KEYSOUNDS:;
#ATTACKS:;

//---------------dance-single - ----------------
#NOTES:
     dance-single:
     :
     Beginner:
     3:
     0.106931,0.138493,0.035307,0.000000,0.000000,106.000000,101.000000,5.000000,0.000000,0.000000,0.000000,0.000000,0.000000,0.000000,0.106931,0.138493,0.035307,0.000000,0.000000,106.000000,101.000000,5.000000,0.000000,0.000000,0.000000,0.000000,0.000000,0.000000:
0000
0000
0000
0000
,
0000
0000
0000
0000
,
1000
0000
1000
0000
,
0001
0000
0001
0000
,
0100
0000
0100
0000
,
0100
0000
0100
0000
,
0010
0000
0010
0000
,
0010
0000
0010
0000
,
1000
0000
0001
0000
,
1000
0000
0001
0000
,
0100
0000
0010
0000
,
0110
0000
0000
0000
,
1000
0000
1000
0000
,
1000
0000
0000
0000
,
0001
0000
0001
0000
,
0001
0000
0000
0000
,
0100
0000
0000
0000
0000
0000
0000
0100
,
0000
0000
0000
0000
0000
0000
0000
0010
,
0000
0000
0000
0010
0000
0000
0000
0010
,
0000
0000
0000
0000
0000
0000
0000
1000
,
0000
0000
0000
0001
0000
0000
0000
1000
,
0000
0000
0000
0000
0000
0000
0000
0100
,
0000
0000
0000
0010
0000
0000
0000
0100
,
0000
0000
0000
0000
0000
0001
0000
0000
,
0000
1000
0000
0000
0000
0001
0000
0000
,
0000
0000
0000
0000
0000
0010
0000
0000
,
0000
0100
0000
0000
0000
0010
0000
0000
,
0000
0000
0000
0000
,
0000
0100
0000
0100
,
0000
0010
0000
0010
,
0000
0010
0000
0000
,
0000
0000
0000
1000
,
0000
1000
0000
0000
,
0000
0001
0000
1000
,
0000
0110
0000
0000
,
0000
1001
0000
0000
,
0000
0000
0000
0000
,
0000
1000
0000
1000
,
0000
0001
0000
0001
,
0000
0100
0000
0100
,
0000
0010
0000
0010
,
0000
0100
0000
0100
,
0000
0100
0000
0100
,
0000
0010
0000
0010
,
0000
0010
0000
0010
,
0000
1000
0000
0001
,
0000
1000
0000
0001
,
0000
0100
0000
0010
,
0000
0110
0000
0000
,
0000
0000
0000
1000
,
0000
1000
0000
1000
,
0000
0000
0000
0001
,
0000
0001
0000
0001
,
0000
0000
0000
0000
0000
0100
0000
0000
,
0000
0100
0000
0000
0000
0100
0000
0000
,
0000
0000
0000
0000
0000
0010
0000
0000
,
0000
0010
0000
0000
0000
0010
0000
0000
,
0000
0000
0000
0000
0000
1000
0000
0000
,
0000
0001
0000
0000
0000
1000
0000
0000
,
0000
0000
0000
0010
0000
0000
0000
0100
,
0000
0000
0000
0010
0000
0000
0000
0000
,
0000
0000
0000
0001
0000
0000
0000
1000
,
0000
0000
0000
0001
0000
0000
0000
0000
,
0000
0000
0000
0100
0000
0000
0000
0010
,
0000
0000
0000
0100
0000
0000
0000
0000
,
0000
0000
0000
1001
0000
0000
0000
0000
;

//---------------dance-single - ----------------
#NOTES:
     dance-single:
     :
     Easy:
     8:
     0.297590,0.416272,0.367195,0.028246,0.000000,295.000000,243.000000,52.000000,4.000000,0.000000,0.000000,0.000000,0.000000,0.000000,0.297590,0.416272,0.367195,0.028246,0.000000,295.000000,243.000000,52.000000,4.000000,0.000000,0.000000,0.000000,0.000000,0.000000:
0000
0000
0000
0000
,
0000
0000
0000
0000
,
1000
0100
0010
0001
,
0010
0100
1000
0000
,
1000
1000
1000
1000
,
0001
0001
0001
0001
,
0100
0100
0100
0100
,
0010
0010
0010
0010
,
1000
0001
0100
0010
,
1000
0100
0010
0001
,
1000
0001
0100
0010
,
0110
0000
1001
0000
,
1000
0100
1000
0100
,
1000
0100
1000
0110
,
0001
0010
0001
0010
,
0001
0010
0100
0000
0110
0000
1001
0000
,
0110
0000
0000
0001
0000
0010
0000
0001
,
0000
0010
0000
0001
0000
0110
0000
1000
,
0000
0001
0000
1000
0000
0000
0000
0110
,
0000
0000
0000
0000
0000
0000
0000
0001
,
0000
0010
0000
0100
0000
1000
0000
0100
,
0000
0010
0000
0001
0000
0100
0010
1000
,
0000
0100
0000
0010
0000
0001
0000
0110
,
0000
0000
1001
0000
0000
0001
0000
0010
,
0000
0100
0000
1000
0000
0100
0000
0010
,
0000
0001
0000
0110
0000
0001
0000
0010
,
0000
0100
0000
1000
0000
0010
0000
0100
,
0000
0010
0000
0110
0000
0000
0001
0000
,
1000
0001
1000
0001
,
1000
0000
0010
0100
0010
0100
0001
0000
,
1000
0000
0001
1000
0001
0000
0100
0010
,
0100
0010
0000
1000
0001
0000
1000
0000
,
0001
1000
0001
1000
,
0001
0110
0000
1001
,
0000
0110
0000
0000
,
0000
0000
2002
3003
0000
0000
0000
0000
,
0000
1000
0100
0010
,
0001
1000
0100
0010
,
0001
0010
0100
1000
,
0110
0001
0010
0100
,
1000
0100
0010
0001
,
0000
1000
1000
1000
,
1000
0001
0001
0001
,
0001
0100
0100
0100
,
0100
0010
0010
0010
,
0010
1000
0001
0100
,
0010
1000
0100
0010
,
0001
1000
0001
0100
,
0010
0110
0000
1001
,
0000
0000
1000
0001
0110
1001
1000
0000
,
0100
1000
0100
1000
,
0100
1000
0110
0001
,
0010
0001
0010
0001
,
0010
0000
0100
0000
0110
1000
0000
0100
,
0000
1000
0000
0100
0000
1000
0000
0100
,
0000
1000
0000
0110
0000
0001
0000
1000
,
0000
0001
0000
1000
0000
0110
0000
0000
,
0000
0000
0000
0000
0000
1100
0000
1100
,
0000
0110
0000
0110
0000
0011
0000
0011
,
0000
1000
0001
1100
0000
1100
0000
0110
,
0000
0110
0000
0011
0000
0110
0000
1100
,
0000
0010
0100
0011
0000
0011
0000
0110
,
0000
0110
0000
1100
0000
1100
0000
0110
,
0000
0110
0000
0011
0000
0011
0000
0110
,
0000
0110
0000
1000
0000
0001
0000
1000
,
0000
0110
0000
2002
3003
0000
0000
0000
;

//---------------dance-single - ----------------
#NOTES:
     dance-single:
     :
     Medium:
     12:
     0.469082,0.531904,0.812067,0.176536,0.031777,465.000000,350.000000,115.000000,25.000000,0.000000,0.000000,0.000000,0.000000,0.000000,0.469082,0.531904,0.812067,0.176536,0.031777,465.000000,350.000000,115.000000,25.000000,0.000000,0.000000,0.000000,0.000000,0.000000:
0000
0000
0000
0000
,
0000
0000
0000
0000
,
2000
3200
0320
0032
,
0023
0230
2300
3000
,
1000
1000
1000
1000
0001
0001
0001
0001
,
0100
0100
0100
0100
0010
0010
0010
0010
,
1000
1000
1000
1000
0001
0001
0001
0001
,
0100
0100
0100
0100
0010
0010
0010
0010
,
1000
0100
0010
0000
0001
0010
0100
0000
,
1000
0100
0010
0001
0010
0100
1000
0000
,
0001
0010
0100
0000
1000
0100
0010
0000
,
0110
1001
0110
0000
,
1100
1100
0110
0110
,
0011
0011
0110
1001
,
0011
0011
0110
0110
,
1000
0100
1100
0000
0110
0000
1001
0000
,
0110
0000
0000
0000
0100
0010
1100
0000
0000
0000
1100
0000
0000
0000
0110
0000
,
0000
0110
0000
0011
0000
0011
0000
0110
,
0000
1001
0000
0110
0000
0000
0000
0010
,
0000
0000
0100
0000
0000
0110
0000
1100
,
0000
1100
0000
1010
0000
1010
0000
1100
,
0000
1100
0000
1010
0000
0100
0010
0011
,
0000
0011
0000
0101
0000
0101
0000
0011
,
0000
0000
0100
0010
1001
0000
0000
0000
0110
0000
1100
0000
0000
0000
1100
0000
,
0000
1010
0000
1010
0000
1100
0000
1100
,
0000
1000
0100
1000
0000
0011
0000
0011
,
0000
0101
0000
0011
0000
0001
0010
1000
,
0100
0000
0001
0000
0010
0000
0110
0000
0000
1000
0100
0010
0011
0000
0000
0000
,
1100
0011
1100
0011
,
1100
1100
0001
0010
0001
0010
1100
0000
,
0011
0000
0000
0000
1000
0100
1000
0000
0011
0000
0000
0000
0110
0000
0110
0000
,
1001
1001
0000
0011
1100
0000
0011
0000
,
0011
1100
1100
0011
,
0011
1100
0110
0000
0000
0000
1001
0000
,
0000
0000
0100
0010
0100
0010
0000
0000
,
0000
0000
2002
3003
0000
0000
0000
0000
,
0000
0000
1000
0100
0010
0001
0010
0100
,
1000
2000
3200
0320
,
0032
0023
0230
2300
,
3000
0002
0023
0230
,
2300
3200
0320
0032
,
0003
0000
1000
1000
1000
1000
0001
0001
,
0001
0001
0100
0100
0100
0100
0010
0010
,
0010
0010
1000
1000
1000
1000
0001
0001
,
0001
0001
0100
0100
0100
0100
0010
0010
,
0010
0010
1000
0100
0010
0000
0001
0010
,
0100
0000
1000
0100
0010
0001
0010
0100
,
1000
0000
0001
0010
0100
0000
1000
0100
,
0010
0110
1001
0110
,
0000
0000
1000
0001
0110
0110
1100
0000
,
0110
0011
0110
1100
,
0110
0000
0011
0000
0110
1001
0110
0000
,
1100
0000
0000
0000
0110
0000
0000
0000
0011
0000
0000
0000
1000
0100
1000
0000
,
0110
0000
0000
0000
0001
0010
0001
0000
0110
0000
1100
0000
0000
0000
0110
0000
,
0000
0011
0000
0110
0000
1100
0000
0110
,
0000
0011
0000
0110
0000
1001
0000
0110
,
0000
1001
0000
0110
0000
0010
0000
0000
,
0100
0000
0000
0110
0000
1000
0100
0001
,
0010
1000
0100
0001
0010
1000
0100
0001
,
0010
0000
0100
1000
0100
0010
0001
0000
0010
0000
1000
0000
0100
0000
0001
0000
,
0010
1000
0100
0001
0010
1000
0100
0001
,
0010
0100
1000
0100
0001
0010
1000
0100
,
0001
0010
1000
0100
0001
0010
1000
0100
,
0001
0010
1000
0100
0001
0010
1000
0100
,
0001
0010
1000
0100
0001
0010
0001
1000
,
0100
0110
0000
2002
3003
0000
0000
0000
;

//---------------dance-single - ----------------
#NOTES:
     dance-single:
     :
     Hard:
     16:
     0.653688,0.832545,0.932111,0.458994,0.370726,648.000000,516.000000,132.000000,65.000000,0.000000,0.000000,0.000000,0.000000,0.000000,0.653688,0.832545,0.932111,0.458994,0.370726,648.000000,516.000000,132.000000,65.000000,0.000000,0.000000,0.000000,0.000000,0.000000:
// measure 0
0000
0000
0000
0000
,  // measure 1
0000
0000
0000
0000
,  // measure 2
2200
3300
0220
0330
0022
0033
0220
0330
,  // measure 3
2200
3300
0022
0033
0220
0000
0000
0330
,  // measure 4
1000
0100
1000
0000
0100
0010
0100
0000
0001
0010
0001
0000
0010
0100
0010
0000
,  // measure 5
1000
0100
1000
0000
0100
0010
0100
0000
0001
0010
0001
0000
0010
0100
0010
0000
,  // measure 6
1000
0100
1000
0000
0100
0010
0100
0000
0001
0010
0001
0000
0010
0100
0010
0000
,  // measure 7
1000
0100
1000
0000
0100
0010
0100
0000
0001
0010
0001
0000
0010
0100
0010
0000
,  // measure 8
1000
0100
0010
0000
0001
0000
0000
0001
0010
1000
0100
0000
0110
0000
0001
0010
,  // measure 9
0000
1000
0100
0000
0001
0010
0100
1000
0100
0010
0100
0010
0000
0000
0000
0000
,  // measure 10
0001
0010
0100
0000
1000
0100
0000
0001
0010
0100
1000
0000
0110
0000
1000
0100
,  // measure 11
0001
0010
0100
0000
1000
0001
1000
0001
0100
0010
0100
0010
0000
0000
0110
0000
,  // measure 12
1100
1010
0011
0101
,  // measure 13
1100
1010
0011
0110
,  // measure 14
1100
1010
0011
0101
,  // measure 15
1100
0000
1010
0000
1100
0000
0000
0000
0011
0000
0100
0010
0100
0000
0000
0000
,  // measure 16
1001
0000
0000
0000
0010
0100
1100
0000
0000
0000
1010
0000
0000
0000
0011
0000
,  // measure 17
0000
0000
0101
0000
0000
0000
1100
0000
0000
0000
1010
0000
0000
0000
0100
0010
,  // measure 18
0100
0010
1001
0000
0110
0000
1001
0000
0000
0000
0001
0000
0010
0000
1000
0000
,  // measure 19
0100
0010
1000
0100
0010
0110
0000
2000
,  // measure 20
3100
0002
0013
2000
3100
0002
0013
2000
,  // measure 21
3100
0002
0013
2000
3100
0001
1000
0002
,  // measure 22
0013
2000
3100
0002
0013
2000
3100
0110
,  // measure 23
0000
0000
0001
1000
0010
0100
0010
0100
1001
0000
2000
0000
3100
0000
0002
0000
,  // measure 24
0013
2000
3100
0002
0013
2000
3100
0002
,  // measure 25
0013
1100
0110
0011
0000
2000
3100
0002
,  // measure 26
0013
2000
3100
0002
0013
1000
0100
0001
,  // measure 27
0010
0000
0100
0000
0010
0100
0010
0000
0000
1100
0110
0011
0110
0000
0000
0000
,  // measure 28
1001
0110
1001
0110
,  // measure 29
1001
0000
0110
0000
1000
0001
1000
0001
1100
0000
0011
0000
0110
0000
0000
0000
,  // measure 30
1001
0000
0000
0000
0010
0100
0010
0000
1001
0000
0000
0000
1100
0000
0110
0000
,  // measure 31
0011
0110
0000
1100
0011
0000
0110
0000
,  // measure 32
1001
0110
1001
0110
,  // measure 33
1001
0110
1100
0000
0110
0000
0011
0000
,  // measure 34
0100
0010
1000
0001
1000
0001
0100
0010
,  // measure 35
1001
0110
2002
3003
0000
0000
0000
0000
,  // measure 36
0000
0000
0000
0000
0000
0000
0000
0000
1000
0100
0010
0000
0000
0000
0000
0000
0001
0010
0100
0000
0000
0000
0000
0000
1000
0100
0010
0000
0000
0000
0000
0000
,  // measure 37
0001
0010
0100
0000
0000
0000
0000
0000
2200
0000
0000
0000
3300
0000
0000
0000
0220
0000
0000
0000
0330
0000
0000
0000
0022
0000
0000
0000
0033
0000
0000
0000
,  // measure 38
0110
1001
0022
0033
0220
0330
2200
3300
,  // measure 39
0110
1001
2200
3300
0220
0330
0022
0033
,  // measure 40
0220
0330
2200
3300
0022
0033
0220
0000
,  // measure 41
0000
0000
0330
0000
1000
0100
1000
0000
0100
0010
0100
0000
0001
0010
0001
0000
,  // measure 42
0010
0100
0010
0000
1000
0100
1000
0000
0100
0010
0100
0000
0001
0010
0001
0000
,  // measure 43
0010
0100
0010
0000
1000
0100
1000
0000
0100
0010
0100
0000
0001
0010
0001
0000
,  // measure 44
0010
0100
0010
0000
1000
0100
1000
0000
0100
0010
0100
0000
0001
0010
0001
0000
,  // measure 45
0010
0100
0010
0000
1000
0100
0010
0000
0001
0000
0000
0001
0010
1000
0100
0000
,  // measure 46
0110
0000
0001
0010
0000
1000
0100
0000
0001
0010
0100
1000
0100
0010
0100
0010
,  // measure 47
0000
0000
0000
0000
0001
0010
0100
0000
1000
0100
0000
0001
0010
0100
1000
0000
,  // measure 48
0110
0000
1000
0100
0001
0010
0100
0000
1000
0001
1000
0001
0100
0010
0100
0010
,  // measure 49
0000
0000
0000
0000
0000
0000
0000
0000
1100
0000
0100
0010
0011
0000
0010
0100
0110
0000
1001
0000
0110
0000
1001
0000
1100
0000
0000
0000
0100
0000
0000
0000
,  // measure 50
1010
0010
1100
0100
1010
0010
1100
0100
,  // measure 51
1010
0010
1100
0100
0010
0110
0011
0010
,  // measure 52
0101
0000
0100
0000
0011
0000
0010
0000
0101
0000
0100
0000
0011
0010
0001
0010
,  // measure 53
0110
0000
0000
0000
1100
0100
1000
0100
0110
0000
1100
0000
0100
0000
1010
0000
,  // measure 54
0010
1100
0100
1010
0010
1100
0100
1010
,  // measure 55
0010
0000
1100
0000
0100
0000
1010
0000
0010
0000
1100
0000
0100
1000
0100
0000
,  // measure 56
0000
0000
0011
0000
0010
0001
0010
0000
0000
0000
1000
0000
0100
0000
0010
0000
,  // measure 57
1000
0100
0010
0110
0000
1000
0100
0001
,  // measure 58
0010
0100
1000
0010
0001
1000
0100
0001
,  // measure 59
0010
0000
1000
0100
0010
0001
1000
0000
0100
0000
0001
0000
0010
0000
0100
0000
,  // measure 60
1000
0010
0001
1000
0100
0001
0010
0100
,  // measure 61
1000
0110
1001
0001
0010
1000
0100
0010
,  // measure 62
0001
0100
1000
0001
0010
1000
0100
0010
,  // measure 63
0001
0100
1000
0001
0010
1000
0100
0010
,  // measure 64
0001
0100
1000
0001
0010
0100
0100
1000
,  // measure 65
0001
0110
0000
2002
3003
0000
0000
0000
;

//---------------dance-single - ----------------
#NOTES:
     dance-single:
     :
     Beginner:
     3:
     0.106931,0.138493,0.035307,0.000000,0.000000,106.000000,101.000000,5.000000,0.000000,0.000000,0.000000,0.000000,0.000000,0.000000,0.106931,0.138493,0.035307,0.000000,0.000000,106.000000,101.000000,5.000000,0.000000,0.000000,0.000000,0.000000,0.000000,0.000000:
0000
0000
0000
0000
,
0000
0000
0000
0000
,
1000
0000
1000
0000
,
0001
0000
0001
0000
,
0100
0000
0100
0000
,
0100
0000
0100
0000
,
0010
0000
0010
0000
,
0010
0000
0010
0000
,
1000
0000
0001
0000
,
1000
0000
0001
0000
,
0100
0000
0010
0000
,
0110
0000
0000
0000
,
1000
0000
1000
0000
,
1000
0000
0000
0000
,
0001
0000
0001
0000
,
0001
0000
0000
0000
,
0100
0000
0000
0000
0000
0000
0000
0100
,
0000
0000
0000
0000
0000
0000
0000
0010
,
0000
0000
0000
0010
0000
0000
0000
0010
,
0000
0000
0000
0000
0000
0000
0000
1000
,
0000
0000
0000
0001
0000
0000
0000
1000
,
0000
0000
0000
0000
0000
0000
0000
0100
,
0000
0000
0000
0010
0000
0000
0000
0100
,
0000
0000
0000
0000
0000
0001
0000
0000
,
0000
1000
0000
0000
0000
0001
0000
0000
,
0000
0000
0000
0000
0000
0010
0000
0000
,
0000
0100
0000
0000
0000
0010
0000
0000
,
0000
0000
0000
0000
,
0000
0100
0000
0100
,
0000
0010
0000
0010
,
0000
0010
0000
0000
,
0000
0000
0000
1000
,
0000
1000
0000
0000
,
0000
0001
0000
1000
,
0000
0110
0000
0000
,
0000
1001
0000
0000
,
0000
0000
0000
0000
,
0000
1000
0000
1000
,
0000
0001
0000
0001
,
0000
0100
0000
0100
,
0000
0010
0000
0010
,
0000
0100
0000
0100
,
0000
0100
0000
0100
,
0000
0010
0000
0010
,
0000
0010
0000
0010
,
0000
1000
0000
0001
,
0000
1000
0000
0001
,
0000
0100
0000
0010
,
0000
0110
0000
0000
,
0000
0000
0000
1000
,
0000
1000
0000
1000
,
0000
0000
0000
0001
,
0000
0001
0000
0001
,
0000
0000
0000
0000
0000
0100
0000
0000
,
0000
0100
0000
0000
0000
0100
0000
0000
,
0000
0000
0000
0000
0000
0010
0000
0000
,
0000
0010
0000
0000
0000
0010
0000
0000
,
0000
0000
0000
0000
0000
1000
0000
0000
,
0000
0001
0000
0000
0000
1000
0000
0000
,
0000
0000
0000
0010
0000
0000
0000
0100
,
0000
0000
0000
0010
0000
0000
0000
0000
,
0000
0000
0000
0001
0000
0000
0000
1000
,
0000
0000
0000
0001
0000
0000
0000
0000
,
0000
0000
0000
0100
0000
0000
0000
0010
,
0000
0000
0000
0100
0000
0000
0000
0000
,
0000
0000
0000
1001
0000
0000
0000
0000
;

//---------------dance-single - ----------------
#NOTES:
     dance-single:
     :
     Easy:
     8:
     0.297590,0.416272,0.367195,0.028246,0.000000,295.000000,243.000000,52.000000,4.000000,0.000000,0.000000,0.000000,0.000000,0.000000,0.297590,0.416272,0.367195,0.028246,0.000000,295.000000,243.000000,52.000000,4.000000,0.000000,0.000000,0.000000,0.000000,0.000000:
0000
0000
0000
0000
,
0000
0000
0000
0000
,
1000
0100
0010
0001
,
0010
0100
1000
0000
,
1000
1000
1000
1000
,
0001
0001
0001
0001
,
0100
0100
0100
0100
,
0010
0010
0010
0010
,
1000
0001
0100
0010
,
1000
0100
0010
0001
,
1000
0001
0100
0010
,
0110
0000
1001
0000
,
1000
0100
1000
0100
,
1000
0100
1000
0110
,
0001
0010
0001
0010
,
0001
0010
0100
0000
0110
0000
1001
0000
,
0110
0000
0000
0001
0000
0010
0000
0001
,
0000
0010
0000
0001
0000
0110
0000
1000
,
0000
0001
0000
1000
0000
0000
0000
0110
,
0000
0000
0000
0000
0000
0000
0000
0001
,
0000
0010
0000
0100
0000
1000
0000
0100
,
0000
0010
0000
0001
0000
0100
0010
1000
,
0000
0100
0000
0010
0000
0001
0000
0110
,
0000
0000
1001
0000
0000
0001
0000
0010
,
0000
0100
0000
1000
0000
0100
0000
0010
,
0000
0001
0000
0110
0000
0001
0000
0010
,
0000
0100
0000
1000
0000
0010
0000
0100
,
0000
0010
0000
0110
0000
0000
0001
0000
,
1000
0001
1000
0001
,
1000
0000
0010
0100
0010
0100
0001
0000
,
1000
0000
0001
1000
0001
0000
0100
0010
,
0100
0010
0000
1000
0001
0000
1000
0000
,
0001
1000
0001
1000
,
0001
0110
0000
1001
,
0000
0110
0000
0000
,
0000
0000
2002
3003
0000
0000
0000
0000
,
0000
1000
0100
0010
,
0001
1000
0100
0010
,
0001
0010
0100
1000
,
0110
0001
0010
0100
,
1000
0100
0010
0001
,
0000
1000
1000
1000
,
1000
0001
0001
0001
,
0001
0100
0100
0100
,
0100
0010
0010
0010
,
0010
1000
0001
0100
,
0010
1000
0100
0010
,
0001
1000
0001
0100
,
0010
0110
0000
1001
,
0000
0000
1000
0001
0110
1001
1000
0000
,
0100
1000
0100
1000
,
0100
1000
0110
0001
,
0010
0001
0010
0001
,
0010
0000
0100
0000
0110
1000
0000
0100
,
0000
1000
0000
0100
0000
1000
0000
0100
,
0000
1000
0000
0110
0000
0001
0000
1000
,
0000
0001
0000
1000
0000
0110
0000
0000
,
0000
0000
0000
0000
0000
1100
0000
1100
,
0000
0110
0000
0110
0000
0011
0000
0011
,
0000
1000
0001
1100
0000
1100
0000
0110
,
0000
0110
0000
0011
0000
0110
0000
1100
,
0000
0010
0100
0011
0000
0011
0000
0110
,
0000
0110
0000
1100
0000
1100
0000
0110
,
0000
0110
0000
0011
0000
0011
0000
0110
,
0000
0110
0000
1000
0000
0001
0000
1000
,
0000
0110
0000
2002
3003
0000
0000
0000
;

//---------------dance-single - ----------------
#NOTES:
     dance-single:
     :
     Medium:
     12:
     0.469082,0.531904,0.812067,0.176536,0.031777,465.000000,350.000000,115.000000,25.000000,0.000000,0.000000,0.000000,0.000000,0.000000,0.469082,0.531904,0.812067,0.176536,0.031777,465.000000,350.000000,115.000000,25.000000,0.000000,0.000000,0.000000,0.000000,0.000000:
0000
0000
0000
0000
,
0000
0000
0000
0000
,
2000
3200
0320
0032
,
0023
0230
2300
3000
,
1000
1000
1000
1000
0001
0001
0001
0001
,
0100
0100
0100
0100
0010
0010
0010
0010
,
1000
1000
1000
1000
0001
0001
0001
0001
,
0100
0100
0100
0100
0010
0010
0010
0010
,
1000
0100
0010
0000
0001
0010
0100
0000
,
1000
0100
0010
0001
0010
0100
1000
0000
,
0001
0010
0100
0000
1000
0100
0010
0000
,
0110
1001
0110
0000
,
1100
1100
0110
0110
,
0011
0011
0110
1001
,
0011
0011
0110
0110
,
1000
0100
1100
0000
0110
0000
1001
0000
,
0110
0000
0000
0000
0100
0010
1100
0000
0000
0000
1100
0000
0000
0000
0110
0000
,
0000
0110
0000
0011
0000
0011
0000
0110
,
0000
1001
0000
0110
0000
0000
0000
0010
,
0000
0000
0100
0000
0000
0110
0000
1100
,
0000
1100
0000
1010
0000
1010
0000
1100
,
0000
1100
0000
1010
0000
0100
0010
0011
,
0000
0011
0000
0101
0000
0101
0000
0011
,
0000
0000
0100
0010
1001
0000
0000
0000
0110
0000
1100
0000
0000
0000
1100
0000
,
0000
1010
0000
1010
0000
1100
0000
1100
,
0000
1000
0100
1000
0000
0011
0000
0011
,
0000
0101
0000
0011
0000
0001
0010
1000
,
0100
0000
0001
0000
0010
0000
0110
0000
0000
1000
0100
0010
0011
0000
0000
0000
,
1100
0011
1100
0011
,
1100
1100
0001
0010
0001
0010
1100
0000
,
0011
0000
0000
0000
1000
0100
1000
0000
0011
0000
0000
0000
0110
0000
0110
0000
,
1001
1001
0000
0011
1100
0000
0011
0000
,
0011
1100
1100
0011
,
0011
1100
0110
0000
0000
0000
1001
0000
,
0000
0000
0100
0010
0100
0010
0000
0000
,
0000
0000
2002
3003
0000
0000
0000
0000
,
0000
0000
1000
0100
0010
0001
0010
0100
,
1000
2000
3200
0320
,
0032
0023
0230
2300
,
3000
0002
0023
0230
,
2300
3200
0320
0032
,
0003
0000
1000
1000
1000
1000
0001
0001
,
0001
0001
0100
0100
0100
0100
0010
0010
,
0010
0010
1000
1000
1000
1000
0001
0001
,
0001
0001
0100
0100
0100
0100
0010
0010
,
0010
0010
1000
0100
0010
0000
0001
0010
,
0100
0000
1000
0100
0010
0001
0010
0100
,
1000
0000
0001
0010
0100
0000
1000
0100
,
0010
0110
1001
0110
,
0000
0000
1000
0001
0110
0110
1100
0000
,
0110
0011
0110
1100
,
0110
0000
0011
0000
0110
1001
0110
0000
,
1100
0000
0000
0000
0110
0000
0000
0000
0011
0000
0000
0000
1000
0100
1000
0000
,
0110
0000
0000
0000
0001
0010
0001
0000
0110
0000
1100
0000
0000
0000
0110
0000
,
0000
0011
0000
0110
0000
1100
0000
0110
,
0000
0011
0000
0110
0000
1001
0000
0110
,
0000
1001
0000
0110
0000
0010
0000
0000
,
0100
0000
0000
0110
0000
1000
0100
0001
,
0010
1000
0100
0001
0010
1000
0100
0001
,
0010
0000
0100
1000
0100
0010
0001
0000
0010
0000
1000
0000
0100
0000
0001
0000
,
0010
1000
0100
0001
0010
1000
0100
0001
,
0010
0100
1000
0100
0001
0010
1000
0100
,
0001
0010
1000
0100
0001
0010
1000
0100
,
0001
0010
1000
0100
0001
0010
1000
0100
,
0001
0010
1000
0100
0001
0010
0001
1000
,
0100
0110
0000
2002
3003
0000
0000
0000
;

//---------------dance-single - ----------------
#NOTES:
     dance-single:
     :
     Hard:
     16:
     0.680925,0.832545,1.115709,0.310704,0.370726,675.000000,517.000000,158.000000,44.000000,0.000000,0.000000,0.000000,0.000000,0.000000,0.680925,0.832545,1.115709,0.310704,0.370726,675.000000,517.000000,158.000000,44.000000,0.000000,0.000000,0.000000,0.000000,0.000000:
0000
0000
0000
0000
,
0000
0000
0000
0000
,
2200
3300
0220
0330
0022
0033
0220
0330
,
2200
3300
0022
0033
0220
0000
0000
0330
,
1000
0100
1000
0000
0100
0010
0100
0000
0001
0010
0001
0000
0010
0100
0010
0000
,
1000
0100
1000
0000
0100
0010
0100
0000
0001
0010
0001
0000
0010
0100
0010
0000
,
1000
0100
1000
0000
0100
0010
0100
0000
0001
0010
0001
0000
0010
0100
0010
0000
,
1000
0100
1000
0000
0100
0010
0100
0000
0001
0010
0001
0000
0010
0100
0010
0000
,
1000
0100
0010
0000
0001
0000
0000
0001
0010
1000
0100
0000
0110
0000
0001
0010
,
0000
1000
0100
0000
0001
0010
0100
1000
0100
0010
0100
0010
0000
0000
0000
0000
,
0001
0010
0100
0000
1000
0100
0000
0001
0010
0100
1000
0000
0110
0000
1000
0100
,
0001
0010
0100
0000
1000
0001
1000
0001
0100
0010
0100
0010
0000
0000
0110
0000
,
1100
1010
0011
0101
,
1100
1010
0011
0110
,
1100
1010
0011
0101
,
1100
0000
1010
0000
1100
0000
0000
0000
0011
0000
0100
0010
0100
0000
0000
0000
,
1001
0000
0000
0000
0010
0100
1100
0000
0000
0000
1010
0000
0000
0000
0011
0000
,
0000
0000
0101
0000
0000
0000
1100
0000
0000
0000
1010
0000
0000
0000
0100
0010
,
0100
0010
1001
0000
0110
0000
1001
0000
0000
0000
0001
0000
0010
0000
1000
0000
,
0100
0010
1000
0100
0010
0110
0000
1100
,
0010
0011
0100
1100
0010
0011
0100
1100
,
0010
0011
0100
1100
0010
0011
0110
1100
,
0010
0011
0100
1100
0010
0011
0100
1100
,
0010
0000
0001
1000
0010
0100
0010
0100
1001
0000
1100
0000
0010
0000
0011
0000
,
0100
1100
0010
0011
0100
1100
0010
0011
,
0100
1100
0011
0110
0000
1100
0010
0011
,
0100
1100
0010
0011
0100
1100
0001
0011
,
1000
0000
0110
0000
0010
0100
0010
0000
0000
1100
0110
0011
0110
0000
0000
0000
,
1001
0110
1001
0110
,
1001
0000
0110
0000
1000
0001
1000
0001
1100
0000
0011
0000
0110
0000
0000
0000
,
1001
0000
0000
0000
0010
0100
0010
0000
1001
0000
0000
0000
1100
0000
0110
0000
,
0011
0110
0000
1100
0011
0000
0110
0000
,
1001
0110
1001
0110
,
1001
0110
1100
0000
0110
0000
0011
0000
,
0100
0010
1000
0001
1000
0001
0100
0010
,
1001
0110
2002
3003
0000
0000
0000
0000
,
0000
0000
0000
0000
0000
0000
0000
0000
1000
0100
0010
0000
0000
0000
0000
0000
0001
0010
0100
0000
0000
0000
0000
0000
1000
0100
0010
0000
0000
0000
0000
0000
,
0001
0010
0100
0000
0000
0000
0000
0000
2200
0000
0000
0000
3300
0000
0000
0000
0220
0000
0000
0000
0330
0000
0000
0000
0022
0000
0000
0000
0033
0000
0000
0000
,
0110
1001
0022
0033
0220
0330
2200
3300
,
0110
1001
2200
3300
0220
0330
0022
0033
,
0220
0330
2200
3300
0022
0033
0220
0000
,
0000
0000
0330
0000
1000
0100
1000
0000
0100
0010
0100
0000
0001
0010
0001
0000
,
0010
0100
0010
0000
1000
0100
1000
0000
0100
0010
0100
0000
0001
0010
0001
0000
,
0010
0100
0010
0000
1000
0100
1000
0000
0100
0010
0100
0000
0001
0010
0001
0000
,
0010
0100
0010
0000
1000
0100
1000
0000
0100
0010
0100
0000
0001
0010
0001
0000
,
0010
0100
0010
0000
1000
0100
0010
0000
0001
0000
0000
0001
0010
1000
0100
0000
,
0110
0000
0001
0010
0000
1000
0100
0000
0001
0010
0100
1000
0100
0010
0100
0010
,
0000
0000
0000
0000
0001
0010
0100
0000
1000
0100
0000
0001
0010
0100
1000
0000
,
0110
0000
1000
0100
0001
0010
0100
0000
1000
0001
1000
0001
0100
0010
0100
0010
,
0000
0000
0000
0000
0000
0000
0000
0000
1100
0000
0100
0010
0011
0000
0010
0100
0110
0000
1001
0000
0110
0000
1001
0000
1100
0000
0000
0000
0100
0000
0000
0000
,
1010
0010
1100
0100
1010
0010
1100
0100
,
1010
0010
1100
0100
0010
0110
0011
0010
,
0101
0000
0100
0000
0011
0000
0010
0000
0101
0000
0100
0000
0011
0010
0001
0010
,
0110
0000
0000
0000
1100
0100
1000
0100
0110
0000
1100
0000
0100
0000
1010
0000
,
0010
1100
0100
1010
0010
1100
0100
1010
,
0010
0000
1100
0000
0100
0000
1010
0000
0010
0000
1100
0000
0100
1000
0100
0000
,
0000
0000
0011
0000
0010
0001
0010
0000
0000
0000
1000
0000
0100
0000
0010
0000
,
1000
0100
0010
0110
0000
1000
0100
0001
,
0010
0100
1000
0010
0001
1000
0100
0001
,
0010
0000
1000
0100
0010
0001
1000
0000
0100
0000
0001
0000
0010
0000
0100
0000
,
1000
0010
0001
1000
0100
0001
0010
0100
,
1000
0110
1001
0001
0010
1000
0100
0010
,
0001
0100
1000
0001
0010
1000
0100
0010
,
0001
0100
1000
0001
0010
1000
0100
0010
,
0001
0100
1000
0001
0010
0100
0100
1000
,
0001
0110
0000
2002
3003
0000
0000
0000
;
