#TITLE:Phenomenon;
#SUBTITLE:;
#ARTIST:Unknown Brain & Hoober Ft. VinDon;
#TITLETRANSLIT:;
#SUBTITLETRANSLIT:;
#ARTISTTRANSLIT:;
#GENRE:;
#CREDIT:;
#BANNER:Phenomenon-banner.png;
#BACKGROUND:;
#LYRICSPATH:;
#CDTITLE:;
#MUSIC:Phenomenon.ogg;
#OFFSET:-0.500000;
#SAMPLESTART:106.050003;
#SAMPLELENGTH:19.000000;
#SELECTABLE:YES;
#BPMS:0.000000=100.000069
;
#STOPS:
;
#BGCHANGES:;
#KEYSOUNDS:;
#ATTACKS:;

//---------------dance-single - ----------------
#NOTES:
     dance-single:
     :
     Beginner:
     1:
     0.071819,0.122541,0.133539,0.039276,0.000000,64.000000,47.000000,17.000000,5.000000,0.000000,0.000000,0.000000,0.000000,0.000000,0.071819,0.122541,0.133539,0.039276,0.000000,64.000000,47.000000,17.000000,5.000000,0.000000,0.000000,0.000000,0.000000,0.000000:
0000
0000
0000
0000
,
0000
0000
0000
0000
,
0000
0000
0000
0000
,
0000
0000
0000
0000
,
1000
0000
0000
0000
,
1000
0000
0000
0000
,
0001
0000
0000
0000
,
0001
0000
0000
0000
,
1000
0000
0000
0000
,
1000
0000
0000
0000
,
1000
0000
0000
0000
,
0000
0000
0000
0000
,
0001
0000
0000
0000
,
0001
0000
0000
0000
,
0001
0000
0000
0000
,
1001
0000
0000
0000
,
0200
0000
0000
0000
,
0300
0000
0000
0000
,
0020
0000
0000
0000
,
0030
0000
0000
0000
,
1000
0000
1000
0000
,
1000
0000
1000
0000
,
0002
0000
0000
0000
,
0003
0000
0000
0000
,
1001
0000
0000
0000
,
1001
0000
0000
0000
,
0110
0000
0000
0000
,
0110
0000
0000
0000
,
1001
0000
0000
0000
,
1001
0000
0000
0000
,
0110
0000
0000
0000
,
0020
0000
0000
0000
,
0030
0000
0000
0000
,
0010
0000
0000
0000
,
0100
0000
0000
0000
,
0100
0000
0000
0000
,
1000
0000
0000
0000
,
1000
0000
0000
0000
,
0001
0000
0000
0000
,
0001
0000
0000
0000
,
1000
0000
1000
0000
,
1000
0000
1000
0000
,
0002
0000
0000
0000
,
0003
0000
0000
0000
,
1001
0000
0000
0000
,
1001
0000
0000
0000
,
0110
0000
0000
0000
,
0110
0000
0000
0000
,
1001
0000
0000
0000
,
1001
0000
0000
0000
,
0110
0000
0000
0000
,
0110
0000
0000
0000
,
1001
0000
0000
0000
;

//---------------dance-single - ----------------
#NOTES:
     dance-single:
     :
     Easy:
     3:
     0.158226,0.285930,0.227801,0.000000,0.000000,141.000000,112.000000,29.000000,0.000000,0.000000,0.000000,0.000000,0.000000,0.000000,0.158226,0.285930,0.227801,0.000000,0.000000,141.000000,112.000000,29.000000,0.000000,0.000000,0.000000,0.000000,0.000000,0.000000:
0000
0000
0000
0000
,
0000
0000
0000
0000
,
0000
0000
0000
0000
,
0000
0000
0000
0000
,
1000
0000
1000
0000
,
1000
0000
0000
0000
,
0001
0000
0001
0000
,
0001
0000
0000
0000
,
1001
0000
1000
0100
,
1000
0000
0100
0010
,
0100
0000
0010
0001
,
0010
0000
0001
0010
,
0001
0000
0000
0000
,
0110
0000
0010
0100
,
0010
0000
0100
0010
,
0100
0000
0000
0000
,
0110
0000
0000
0000
,
1001
0000
0000
0000
,
0110
0000
0000
0000
,
1001
0000
0000
0000
,
1100
0000
0110
0000
,
0011
0000
0110
0000
,
1001
0110
1001
0110
,
1001
0000
0000
0000
,
0001
0010
0001
0000
,
0010
0100
0010
0000
,
1000
0100
1000
0000
,
0100
0010
0100
0000
,
0001
0010
0001
0000
,
0100
0010
0100
0000
,
1000
0100
1000
0000
,
1001
0000
0110
0000
,
1001
0000
0000
0000
,
0100
0000
0000
0000
,
0010
0000
0000
0000
,
1001
0000
0000
0000
,
1000
0000
1000
0100
,
1000
0000
0010
0100
,
0010
0000
0001
0010
,
0001
0000
0010
0100
,
0110
0000
1001
0000
,
0110
0000
1001
0000
,
0110
1001
0110
1001
,
0110
0000
0000
0000
,
1000
0100
1000
0000
,
0010
0100
0010
0000
,
0001
0010
0001
0000
,
0010
0100
0010
0000
,
1000
0100
1000
0000
,
0010
0100
0010
0000
,
0001
0010
0001
0000
,
0100
0010
0100
0000
,
0110
0000
0000
0000
;

//---------------dance-single - ----------------
#NOTES:
     dance-single:
     :
     Easy:
     1:
     0.158226,0.285930,0.227801,0.000000,0.000000,141.000000,112.000000,29.000000,0.000000,0.000000,0.000000,0.000000,0.000000,0.000000,0.158226,0.285930,0.227801,0.000000,0.000000,141.000000,112.000000,29.000000,0.000000,0.000000,0.000000,0.000000,0.000000,0.000000:
0000
0000
0000
0000
,
0000
0000
0000
0000
,
0000
0000
0000
0000
,
0000
0000
0000
0000
,
1000
0000
1000
0000
,
1000
0000
0000
0000
,
0001
0000
0001
0000
,
0001
0000
0000
0000
,
1001
0000
1000
0100
,
1000
0000
0100
0010
,
0100
0000
0010
0001
,
0010
0000
0001
0010
,
0001
0000
0000
0000
,
0110
0000
0010
0100
,
0010
0000
0100
0010
,
0100
0000
0000
0000
,
0110
0000
0000
0000
,
1001
0000
0000
0000
,
0110
0000
0000
0000
,
1001
0000
0000
0000
,
1100
0000
0110
0000
,
0011
0000
0110
0000
,
1001
0110
1001
0110
,
1001
0000
0000
0000
,
0001
0010
0001
0000
,
0010
0100
0010
0000
,
1000
0100
1000
0000
,
0100
0010
0100
0000
,
0001
0010
0001
0000
,
0100
0010
0100
0000
,
1000
0100
1000
0000
,
1001
0000
0110
0000
,
1001
0000
0000
0000
,
0100
0000
0000
0000
,
0010
0000
0000
0000
,
1001
0000
0000
0000
,
1000
0000
1000
0100
,
1000
0000
0010
0100
,
0010
0000
0001
0010
,
0001
0000
0010
0100
,
0110
0000
1001
0000
,
0110
0000
1001
0000
,
0110
1001
0110
1001
,
0110
0000
0000
0000
,
1000
0100
1000
0000
,
0010
0100
0010
0000
,
0001
0010
0001
0000
,
0010
0100
0010
0000
,
1000
0100
1000
0000
,
0010
0100
0010
0000
,
0001
0010
0001
0000
,
0100
0010
0100
0000
,
0110
0000
0000
0000
;

//---------------dance-single - ----------------
#NOTES:
     dance-single:
     :
     Medium:
     8:
     0.310842,0.367624,0.188525,0.000000,0.000000,277.000000,253.000000,24.000000,0.000000,0.000000,0.000000,0.000000,0.000000,0.000000,0.310842,0.367624,0.188525,0.000000,0.000000,277.000000,253.000000,24.000000,0.000000,0.000000,0.000000,0.000000,0.000000,0.000000:
0000
0000
0000
0000
,
0000
0000
0000
0000
,
0000
0000
0000
0000
,
0000
0000
0000
0000
,
1000
0000
0100
0000
0010
0001
0010
0000
,
0001
0000
0010
0000
0100
1000
0100
0000
,
1000
0000
0100
0000
0010
0001
0010
0000
,
1001
0000
0110
0000
,
1000
0100
0010
0001
0010
0100
1000
0000
,
0001
0010
0100
1000
0100
0010
0001
0000
,
1000
0100
0010
0001
0010
0100
1000
0000
,
0010
0100
0010
0000
0100
0010
0100
0000
,
1001
0000
0110
0000
,
1000
0100
1000
0100
0001
0010
0001
0000
,
0010
0100
0010
0100
0010
0100
0000
0000
,
1001
0000
0110
0000
,
1000
0000
1000
0000
1000
0100
0010
0000
,
0001
0000
0001
0000
0001
0010
0100
0000
,
1000
0000
1000
0000
1000
0100
0010
0000
,
0001
0000
0001
0000
0001
0010
0100
0000
,
1000
0100
1000
0100
0001
0010
0001
0010
,
1000
0100
1000
0100
0001
0010
0001
0010
,
1100
0110
0011
0110
,
1001
0000
0000
0000
0100
0010
0100
0000
,
1000
0100
0010
0100
1000
0100
0010
0000
,
0001
0010
0100
0010
0001
0010
0100
0100
,
1000
0100
0010
0100
1000
0100
0010
0000
,
0001
0010
0100
0010
0001
0010
0100
0100
,
1001
0110
0010
0100
1000
0100
0010
0000
,
0001
0010
0100
0010
0001
0010
0100
0000
,
1000
0100
0010
0100
1000
0100
0010
0000
,
1001
0000
0000
0000
0010
0100
0010
0000
,
1000
0000
1000
1000
,
0001
0000
0001
0001
,
0100
0000
0100
0100
,
0010
0000
0010
0010
,
1000
0000
1000
0000
1000
0100
0010
0000
,
0001
0000
0001
0000
0001
0010
0100
0000
,
1000
0000
1000
0000
1000
0100
0010
0000
,
0001
0000
0001
0000
0010
0100
1000
0000
,
1001
0000
0110
0000
,
1001
0000
0110
0000
,
1100
0110
0011
0110
,
1001
0000
0000
0000
0010
0100
0010
0000
,
1000
0100
1000
0000
0100
0010
0100
0000
,
0001
0010
0001
0000
0100
0010
0100
0000
,
1000
0100
1000
0000
0010
0100
0010
0000
,
0001
0010
0001
0000
0010
0100
0010
0000
,
1000
0100
1000
0000
0010
0100
0010
0000
,
0001
0010
0001
0000
0010
0100
0010
0000
,
1000
0100
1000
0000
0010
0100
0010
0000
,
0001
0010
0001
0000
0100
0010
0100
0000
,
0110
0000
0000
0000
;

//---------------dance-single - ----------------
#NOTES:
     dance-single:
     :
     Hard:
     13:
     0.594752,0.673977,0.219946,0.023566,0.754100,530.000000,502.000000,28.000000,3.000000,0.000000,0.000000,0.000000,0.000000,0.000000,0.594752,0.673977,0.219946,0.023566,0.754100,530.000000,502.000000,28.000000,3.000000,0.000000,0.000000,0.000000,0.000000,0.000000:
// measure 0
0000
0000
0000
0000
,  // measure 1
0000
0000
0000
0000
,  // measure 2
0000
0000
0000
0000
,  // measure 3
0000
0000
0000
0000
,  // measure 4
1001
0000
0000
0000
0000
0000
1000
0000
0000
0000
0000
0000
1000
0000
0100
0000
0010
0000
0001
0000
0000
1000
0000
0000
,  // measure 5
1001
0000
0000
0000
0000
0000
0000
0000
0000
0000
0000
0000
0001
0000
0000
0010
0000
0000
0001
0000
0000
0000
0000
0000
0001
0000
0000
0000
0010
0000
0000
0000
0100
0000
0000
0000
1000
0000
0000
0000
0000
0000
0000
0000
0000
0000
0000
0000
,  // measure 6
0001
0000
0000
0010
0000
0000
0001
0000
0000
0010
0000
0000
0001
0000
0000
0000
0000
0000
0000
0000
0000
0000
0000
0000
0001
0000
0000
0000
0010
0000
0000
0000
0100
0000
0000
0000
1000
0000
0000
0100
0000
0000
1000
0000
0000
0100
0000
0000
,  // measure 7
1000
0000
0000
0000
0000
0000
0000
0000
0001
0010
0001
0010
0001
0000
0000
0000
,  // measure 8
1001
0000
1000
0000
0100
0000
0010
0000
0001
0010
0001
0010
0001
0000
0000
0000
,  // measure 9
1001
0000
0001
0000
0010
0000
0100
0000
1000
0100
1000
0100
1000
0000
0000
0000
,  // measure 10
1001
0000
1000
0000
0100
0000
0010
0000
0001
0010
0001
0010
0001
0000
1000
0100
,  // measure 11
0000
0001
0010
0000
1000
0100
0000
0000
0001
0010
0001
0010
0001
0000
0000
0000
,  // measure 12
0000
0000
0100
0010
0100
0000
0010
0100
0010
0000
0100
0010
0000
0000
1000
0001
,  // measure 13
1000
0001
1000
0000
1000
0100
0010
0001
0010
0000
0100
1000
0000
0000
1000
0001
,  // measure 14
1000
0000
0001
1000
0001
0000
1000
0100
0010
0000
0001
0010
0000
0000
1000
0100
,  // measure 15
1000
0100
0010
0001
0001
0000
0001
0010
0100
1000
0100
0010
0001
0010
0100
0000
,  // measure 16
1001
0000
1000
0100
0010
0100
1000
0100
,  // measure 17
0010
0000
0001
0000
0010
0000
0100
0000
0010
0000
0001
0000
0010
0000
0100
0100
,  // measure 18
0000
0000
1000
0100
0010
0100
1000
0100
,  // measure 19
0001
0000
0010
0000
0100
0000
0010
0000
0001
0000
0010
0000
0100
0100
0010
0010
,  // measure 20
1000
0100
1000
0100
1000
0100
1000
0100
0010
0001
0010
0001
0010
0001
0010
0001
,  // measure 21
1000
0100
1000
0100
1000
0100
1000
0100
0010
0001
0010
0001
0010
0001
0010
0001
,  // measure 22
1000
0100
0010
0001
1000
0100
0010
0001
0001
0010
0100
1000
0001
0010
0100
1000
,  // measure 23
0001
0010
0001
0010
0001
0000
0010
0100
0010
0100
0010
1000
0100
1000
0100
0000
,  // measure 24
1001
0000
0000
0000
0010
0100
0010
0100
0001
1000
0001
1000
0001
0010
0100
0000
,  // measure 25
2000
0000
3100
0010
0001
0010
0001
0010
1000
0100
1000
0100
0001
0001
0010
0010
,  // measure 26
1001
0000
0000
0000
0100
0010
0100
0010
1000
0001
1000
0001
1000
0100
0010
0000
,  // measure 27
0002
0000
0013
0100
1000
0100
1000
0100
0001
0010
0001
0010
1000
1000
0100
0100
,  // measure 28
1001
0000
0110
0000
0010
0100
0010
0100
0001
1000
0001
1000
0001
0010
0100
0000
,  // measure 29
2000
0000
3100
0010
0001
0010
0001
0010
1000
0100
1000
0100
0001
0001
0010
0010
,  // measure 30
1001
0000
0000
0000
0100
0010
0100
0010
1000
0001
1000
0001
1000
0100
0010
0000
,  // measure 31
0001
0010
0001
0010
0001
0000
0010
0100
0010
0100
0010
1000
0100
1000
0100
0000
,  // measure 32
1001
0000
0000
0000
0000
0000
1000
0000
0000
0000
0000
0000
1000
0000
0100
0000
0010
0000
0001
0000
0000
1000
0000
0000
,  // measure 33
1001
0000
0000
0000
0000
0000
0000
0000
0000
0000
0000
0000
0001
0000
0000
1000
0000
0000
0001
0000
0000
0000
0000
0000
0001
0000
0000
0000
0010
0000
0000
0000
0100
0000
0000
0000
1000
0000
0000
0000
0000
0000
0000
0000
0000
0000
0000
0000
,  // measure 34
1001
0000
0000
0000
0000
0000
1000
0000
0000
0000
0000
0000
1000
0000
0100
0000
0010
0000
0001
0000
0000
0001
0000
0000
,  // measure 35
1001
0000
0000
0000
0000
0000
0000
0000
0000
0000
0000
0000
0001
0000
0000
1000
0000
0000
0001
0000
0000
0000
0000
0000
0001
0000
0000
0000
0010
0000
0000
0000
0100
0000
0000
0000
1000
0000
0000
0000
0000
0000
0000
0000
0000
0000
0000
0000
,  // measure 36
0110
0000
0000
0000
0000
0000
0100
0000
0000
0000
0000
0000
0001
0000
0010
0000
0100
0000
1000
0000
0000
0100
0000
0000
,  // measure 37
0110
0000
0000
0000
0000
0000
0000
0000
0000
0000
0000
0000
0010
0000
0000
0100
0000
0000
0010
0000
0000
0000
0000
0000
1000
0000
0000
0000
0001
0000
0000
0000
1000
0000
0000
0000
0001
0000
0000
0000
0000
0000
0000
0000
0000
0000
0000
0000
,  // measure 38
0110
0000
0000
0000
0000
0000
0010
0000
0000
0000
0000
0000
1000
0000
0100
0000
0010
0000
0001
0000
0000
0010
0000
0000
,  // measure 39
1001
0000
0000
0000
0000
0000
0000
0000
0000
0000
0000
0000
0010
0000
0000
0100
0000
0000
0010
0000
0000
0000
0000
0000
0001
0000
0000
0000
1000
0000
0000
0000
0001
0000
0000
0000
1000
0000
0000
0000
0000
0000
0000
0000
0000
0000
0000
0000
,  // measure 40
1000
0100
1000
0100
1000
0100
1000
0100
0010
0001
0010
0001
0010
0001
0010
0001
,  // measure 41
1000
0100
1000
0100
1000
0100
1000
0100
0010
0001
0010
0001
0010
0001
0010
0000
,  // measure 42
1000
0100
0010
0001
1000
0100
0010
0001
0001
0010
0100
1000
0001
0010
0100
1000
,  // measure 43
0001
0010
0001
0010
0001
0000
0010
0100
0010
0100
0010
1000
0100
1000
0100
0000
,  // measure 44
1001
0000
0000
0000
0000
0000
1000
0000
0000
0000
0000
0000
1000
0000
0100
0000
0010
0000
0001
0000
0000
1000
0000
0000
,  // measure 45
1001
0000
0000
0000
0000
0000
0000
0000
0000
0000
0000
0000
0001
0000
0000
1000
0000
0000
0001
0000
0000
0000
0000
0000
0001
0000
0000
0000
0010
0000
0000
0000
0100
0000
0000
0000
1000
0000
0000
0000
0000
0000
0000
0000
0000
0000
0000
0000
,  // measure 46
1001
0000
0000
0000
0000
0000
1000
0000
0000
0000
0000
0000
1000
0000
0100
0000
0010
0000
0001
0000
0000
0001
0000
0000
,  // measure 47
1001
0000
0000
0000
0000
0000
0000
0000
0000
0000
0000
0000
0001
0000
0000
1000
0000
0000
0001
0000
0000
0000
0000
0000
0001
0000
0000
0000
0010
0000
0000
0000
0100
0000
0000
0000
1000
0000
0000
0000
0000
0000
0000
0000
0000
0000
0000
0000
,  // measure 48
0110
0000
0000
0000
0000
0000
0100
0000
0000
0000
0000
0000
0001
0000
0010
0000
0100
0000
1000
0000
0000
0100
0000
0000
,  // measure 49
0110
0000
0000
0000
0000
0000
0000
0000
0000
0000
0000
0000
0010
0000
0000
0100
0000
0000
0010
0000
0000
0000
0000
0000
1000
0000
0000
0000
0001
0000
0000
0000
1000
0000
0000
0000
0001
0000
0000
0000
0000
0000
0000
0000
0000
0000
0000
0000
,  // measure 50
0110
0000
0000
0000
0000
0000
0010
0000
0000
0000
0000
0000
1000
0000
0100
0000
0010
0000
0001
0000
0000
0010
0000
0000
,  // measure 51
1001
0000
0000
0000
0000
0000
0000
0000
0000
0000
0000
0000
0010
0000
0000
0100
0000
0000
0010
0000
0000
0000
0000
0000
0001
0000
0000
0000
1000
0000
0000
0000
0001
0000
0000
0000
1000
0000
0000
0000
0000
0000
0000
0000
0000
0000
0000
0000
,  // measure 52
1001
0000
0000
0000
;

//---------------dance-single - ----------------
#NOTES:
     dance-single:
     :
     Hard:
     1:
     0.594752,0.673977,0.219946,0.023566,0.754100,530.000000,502.000000,28.000000,3.000000,0.000000,0.000000,0.000000,0.000000,0.000000,0.594752,0.673977,0.219946,0.023566,0.754100,530.000000,502.000000,28.000000,3.000000,0.000000,0.000000,0.000000,0.000000,0.000000:
0000
0000
0000
0000
,
0000
0000
0000
0000
,
0000
0000
0000
0000
,
0000
0000
0000
0000
,
1001
0000
0000
0000
0000
0000
1000
0000
0000
0000
0000
0000
1000
0000
0100
0000
0010
0000
0001
0000
0000
1000
0000
0000
,
1001
0000
0000
0000
0000
0000
0000
0000
0000
0000
0000
0000
0001
0000
0000
0010
0000
0000
0001
0000
0000
0000
0000
0000
0001
0000
0000
0000
0010
0000
0000
0000
0100
0000
0000
0000
1000
0000
0000
0000
0000
0000
0000
0000
0000
0000
0000
0000
,
0001
0000
0000
0010
0000
0000
0001
0000
0000
0010
0000
0000
0001
0000
0000
0000
0000
0000
0000
0000
0000
0000
0000
0000
0001
0000
0000
0000
0010
0000
0000
0000
0100
0000
0000
0000
1000
0000
0000
0100
0000
0000
1000
0000
0000
0100
0000
0000
,
1000
0000
0000
0000
0000
0000
0000
0000
0001
0010
0001
0010
0001
0000
0000
0000
,
1001
0000
1000
0000
0100
0000
0010
0000
0001
0010
0001
0010
0001
0000
0000
0000
,
1001
0000
0001
0000
0010
0000
0100
0000
1000
0100
1000
0100
1000
0000
0000
0000
,
1001
0000
1000
0000
0100
0000
0010
0000
0001
0010
0001
0010
0001
0000
1000
0100
,
0000
0001
0010
0000
1000
0100
0000
0000
0001
0010
0001
0010
0001
0000
0000
0000
,
0000
0000
0100
0010
0100
0000
0010
0100
0010
0000
0100
0010
0000
0000
1000
0001
,
1000
0001
1000
0000
1000
0100
0010
0001
0010
0000
0100
1000
0000
0000
1000
0001
,
1000
0000
0001
1000
0001
0000
1000
0100
0010
0000
0001
0010
0000
0000
1000
0100
,
1000
0100
0010
0001
0001
0000
0001
0010
0100
1000
0100
0010
0001
0010
0100
0000
,
1001
0000
1000
0100
0010
0100
1000
0100
,
0010
0000
0001
0000
0010
0000
0100
0000
0010
0000
0001
0000
0010
0000
0100
0100
,
0000
0000
1000
0100
0010
0100
1000
0100
,
0001
0000
0010
0000
0100
0000
0010
0000
0001
0000
0010
0000
0100
0100
0010
0010
,
1000
0100
1000
0100
1000
0100
1000
0100
0010
0001
0010
0001
0010
0001
0010
0001
,
1000
0100
1000
0100
1000
0100
1000
0100
0010
0001
0010
0001
0010
0001
0010
0001
,
1000
0100
0010
0001
1000
0100
0010
0001
0001
0010
0100
1000
0001
0010
0100
1000
,
0001
0010
0001
0010
0001
0000
0010
0100
0010
0100
0010
1000
0100
1000
0100
0000
,
1001
0000
0000
0000
0010
0100
0010
0100
0001
1000
0001
1000
0001
0010
0100
0000
,
2000
0000
3100
0010
0001
0010
0001
0010
1000
0100
1000
0100
0001
0001
0010
0010
,
1001
0000
0000
0000
0100
0010
0100
0010
1000
0001
1000
0001
1000
0100
0010
0000
,
0002
0000
0013
0100
1000
0100
1000
0100
0001
0010
0001
0010
1000
1000
0100
0100
,
1001
0000
0110
0000
0010
0100
0010
0100
0001
1000
0001
1000
0001
0010
0100
0000
,
2000
0000
3100
0010
0001
0010
0001
0010
1000
0100
1000
0100
0001
0001
0010
0010
,
1001
0000
0000
0000
0100
0010
0100
0010
1000
0001
1000
0001
1000
0100
0010
0000
,
0001
0010
0001
0010
0001
0000
0010
0100
0010
0100
0010
1000
0100
1000
0100
0000
,
1001
0000
0000
0000
0000
0000
1000
0000
0000
0000
0000
0000
1000
0000
0100
0000
0010
0000
0001
0000
0000
1000
0000
0000
,
1001
0000
0000
0000
0000
0000
0000
0000
0000
0000
0000
0000
0001
0000
0000
1000
0000
0000
0001
0000
0000
0000
0000
0000
0001
0000
0000
0000
0010
0000
0000
0000
0100
0000
0000
0000
1000
0000
0000
0000
0000
0000
0000
0000
0000
0000
0000
0000
,
1001
0000
0000
0000
0000
0000
1000
0000
0000
0000
0000
0000
1000
0000
0100
0000
0010
0000
0001
0000
0000
0001
0000
0000
,
1001
0000
0000
0000
0000
0000
0000
0000
0000
0000
0000
0000
0001
0000
0000
1000
0000
0000
0001
0000
0000
0000
0000
0000
0001
0000
0000
0000
0010
0000
0000
0000
0100
0000
0000
0000
1000
0000
0000
0000
0000
0000
0000
0000
0000
0000
0000
0000
,
0110
0000
0000
0000
0000
0000
0100
0000
0000
0000
0000
0000
0001
0000
0010
0000
0100
0000
1000
0000
0000
0100
0000
0000
,
0110
0000
0000
0000
0000
0000
0000
0000
0000
0000
0000
0000
0010
0000
0000
0100
0000
0000
0010
0000
0000
0000
0000
0000
1000
0000
0000
0000
0001
0000
0000
0000
1000
0000
0000
0000
0001
0000
0000
0000
0000
0000
0000
0000
0000
0000
0000
0000
,
0110
0000
0000
0000
0000
0000
0010
0000
0000
0000
0000
0000
1000
0000
0100
0000
0010
0000
0001
0000
0000
0010
0000
0000
,
1001
0000
0000
0000
0000
0000
0000
0000
0000
0000
0000
0000
0010
0000
0000
0100
0000
0000
0010
0000
0000
0000
0000
0000
0001
0000
0000
0000
1000
0000
0000
0000
0001
0000
0000
0000
1000
0000
0000
0000
0000
0000
0000
0000
0000
0000
0000
0000
,
1000
0100
1000
0100
1000
0100
1000
0100
0010
0001
0010
0001
0010
0001
0010
0001
,
1000
0100
1000
0100
1000
0100
1000
0100
0010
0001
0010
0001
0010
0001
0010
0000
,
1000
0100
0010
0001
1000
0100
0010
0001
0001
0010
0100
1000
0001
0010
0100
1000
,
0001
0010
0001
0010
0001
0000
0010
0100
0010
0100
0010
1000
0100
1000
0100
0000
,
1001
0000
0000
0000
0000
0000
1000
0000
0000
0000
0000
0000
1000
0000
0100
0000
0010
0000
0001
0000
0000
1000
0000
0000
,
1001
0000
0000
0000
0000
0000
0000
0000
0000
0000
0000
0000
0001
0000
0000
1000
0000
0000
0001
0000
0000
0000
0000
0000
0001
0000
0000
0000
0010
0000
0000
0000
0100
0000
0000
0000
1000
0000
0000
0000
0000
0000
0000
0000
0000
0000
0000
0000
,
1001
0000
0000
0000
0000
0000
1000
0000
0000
0000
0000
0000
1000
0000
0100
0000
0010
0000
0001
0000
0000
0001
0000
0000
,
1001
0000
0000
0000
0000
0000
0000
0000
0000
0000
0000
0000
0001
0000
0000
1000
0000
0000
0001
0000
0000
0000
0000
0000
0001
0000
0000
0000
0010
0000
0000
0000
0100
0000
0000
0000
1000
0000
0000
0000
0000
0000
0000
0000
0000
0000
0000
0000
,
0110
0000
0000
0000
0000
0000
0100
0000
0000
0000
0000
0000
0001
0000
0010
0000
0100
0000
1000
0000
0000
0100
0000
0000
,
0110
0000
0000
0000
0000
0000
0000
0000
0000
0000
0000
0000
0010
0000
0000
0100
0000
0000
0010
0000
0000
0000
0000
0000
1000
0000
0000
0000
0001
0000
0000
0000
1000
0000
0000
0000
0001
0000
0000
0000
0000
0000
0000
0000
0000
0000
0000
0000
,
0110
0000
0000
0000
0000
0000
0010
0000
0000
0000
0000
0000
1000
0000
0100
0000
0010
0000
0001
0000
0000
0010
0000
0000
,
1001
0000
0000
0000
0000
0000
0000
0000
0000
0000
0000
0000
0010
0000
0000
0100
0000
0000
0010
0000
0000
0000
0000
0000
0001
0000
0000
0000
1000
0000
0000
0000
0001
0000
0000
0000
1000
0000
0000
0000
0000
0000
0000
0000
0000
0000
0000
0000
,
1001
0000
0000
0000
;
