#TITLE:No Man;
#SUBTITLE:;
#ARTIST:SMACK & No Thanks Ft. Weird Grrl;
#TITLETRANSLIT:;
#SUBTITLETRANSLIT:;
#ARTISTTRANSLIT:;
#GENRE:;
#CREDIT:;
#BANNER:;
#BACKGROUND:;
#LYRICSPATH:;
#CDTITLE:;
#MUSIC:No Man.ogg;
#OFFSET:-0.980000;
#SAMPLESTART:31.450001;
#SAMPLELENGTH:15.300000;
#SELECTABLE:YES;
#BPMS:0.000000=126.000107
;
#STOPS:
;
#BGCHANGES:;
#KEYSOUNDS:;
#ATTACKS:;

//---------------dance-single - ----------------
#NOTES:
     dance-single:
     :
     Beginner:
     1:
     0.054549,0.100806,0.015274,0.122190,0.000000,50.000000,48.000000,2.000000,16.000000,0.000000,0.000000,0.000000,0.000000,0.000000,0.054549,0.100806,0.015274,0.122190,0.000000,50.000000,48.000000,2.000000,16.000000,0.000000,0.000000,0.000000,0.000000,0.000000:
// measure 0
0000
0000
0000
0000
,  // measure 1
0000
0000
0000
0000
,  // measure 2
0000
0000
0000
0000
,  // measure 3
0000
0000
0000
0000
,  // measure 4
0100
0000
0000
0000
,  // measure 5
0100
0000
0000
0000
,  // measure 6
0010
0000
0000
0000
,  // measure 7
0010
0000
0000
0000
,  // measure 8
2000
0000
0000
0000
,  // measure 9
3000
0000
0000
0000
,  // measure 10
0002
0000
0000
0000
,  // measure 11
0003
0000
0000
0000
,  // measure 12
0200
0000
0000
0000
,  // measure 13
0300
0000
0000
0000
,  // measure 14
0020
0000
0000
0000
,  // measure 15
0030
0000
0000
0000
,  // measure 16
1000
0000
1000
0000
,  // measure 17
1000
0000
0000
0000
,  // measure 18
0002
0000
0000
0000
,  // measure 19
0000
0000
0003
0000
,  // measure 20
0100
0000
0100
0000
,  // measure 21
0100
0000
0000
0000
,  // measure 22
0020
0000
0000
0000
,  // measure 23
0000
0000
0030
0000
,  // measure 24
1001
0000
0000
0000
,  // measure 25
0000
0000
0000
0000
,  // measure 26
0002
0000
0000
0000
,  // measure 27
0000
0000
0003
0000
,  // measure 28
0100
0000
0100
0000
,  // measure 29
0100
0000
0000
0000
,  // measure 30
0020
0000
0000
0000
,  // measure 31
0000
0000
0000
0000
,  // measure 32
0030
0000
0000
0000
,  // measure 33
0000
0000
0000
0000
,  // measure 34
1000
0000
0000
0000
,  // measure 35
1000
0000
0000
0000
,  // measure 36
0001
0000
0000
0000
,  // measure 37
0001
0000
0000
0000
,  // measure 38
0100
0000
0000
0000
,  // measure 39
0100
0000
0000
0000
,  // measure 40
0010
0000
0000
0000
,  // measure 41
0010
0000
0000
0000
,  // measure 42
2000
0000
0000
0000
,  // measure 43
3000
0000
0000
0000
,  // measure 44
0002
0000
0000
0000
,  // measure 45
0003
0000
0000
0000
,  // measure 46
0200
0000
0000
0000
,  // measure 47
0300
0000
0000
0000
,  // measure 48
0020
0000
0000
0000
,  // measure 49
0030
0000
0000
0000
,  // measure 50
1000
0000
1000
0000
,  // measure 51
1000
0000
0000
0000
,  // measure 52
0002
0000
0000
0000
,  // measure 53
0000
0000
0003
0000
,  // measure 54
0100
0000
0100
0000
,  // measure 55
0100
0000
0000
0000
,  // measure 56
0020
0000
0000
0000
,  // measure 57
0000
0000
0030
0000
,  // measure 58
1001
0000
0000
0000
,  // measure 59
0000
0000
0000
0000
,  // measure 60
0002
0000
0000
0000
,  // measure 61
0000
0000
0003
0000
,  // measure 62
0100
0000
0100
0000
,  // measure 63
0100
0000
0000
0000
,  // measure 64
0020
0000
0000
0000
,  // measure 65
0000
0000
0000
0000
,  // measure 66
0030
0000
0000
0000
;

//---------------dance-single - ----------------
#NOTES:
     dance-single:
     :
     Easy:
     6:
     0.257471,0.336928,0.213832,0.045821,0.000000,236.000000,208.000000,28.000000,6.000000,0.000000,0.000000,0.000000,0.000000,0.000000,0.257471,0.336928,0.213832,0.045821,0.000000,236.000000,208.000000,28.000000,6.000000,0.000000,0.000000,0.000000,0.000000,0.000000:
0000
0000
0000
0000
,
0000
0000
0000
0000
,
0000
0000
0000
0000
,
0000
0000
0000
0000
,
1000
0100
1000
0000
,
0010
0010
0010
0000
,
0001
0010
0001
0000
,
0100
0100
0100
0000
,
1000
1000
0001
0001
,
0100
0100
0100
0000
,
0001
0001
1000
1000
,
0010
0010
0010
0000
,
1000
1000
0001
0001
,
0100
0100
0100
0000
,
0001
0001
1000
1000
,
0010
0010
0010
0000
,
1000
1100
0001
0011
,
1000
1100
0001
0011
,
1000
0001
0100
0010
,
1000
0001
0100
0010
,
1000
1100
0001
0011
,
1000
1100
0001
0011
,
1000
0001
0100
0010
,
1000
0001
0100
0010
,
2002
0000
0000
0000
,
0000
0000
0000
3003
,
1000
0001
0100
0010
,
1000
0001
0100
0010
,
1000
1100
0001
0011
,
1000
1100
0001
0011
,
1000
0001
0100
0010
,
1000
0001
0100
0010
,
0110
0000
0000
0000
,
0000
0000
0000
0000
,
1000
0100
1000
0000
,
0010
0010
0010
0000
,
0001
0010
0001
0000
,
0100
0100
0100
0000
,
0100
0010
0100
0000
,
0001
0001
0001
0000
,
0010
0100
0010
0000
,
1000
1000
1000
0000
,
1000
1000
0001
0001
,
0100
0100
0100
0000
,
0001
0001
1000
1000
,
0010
0010
0010
0000
,
1000
1000
0001
0001
,
0100
0100
0100
0000
,
0001
0001
1000
1000
,
0010
0010
0010
0000
,
1000
1100
0001
0011
,
1000
1100
0001
0011
,
1000
0001
0100
0010
,
1000
0001
0100
0010
,
1000
1100
0001
0011
,
1000
1100
0001
0011
,
1000
0001
0100
0010
,
1000
0001
0100
0010
,
2002
0000
0000
0000
,
0000
0000
0000
3003
,
1000
0001
0100
0010
,
1000
0001
0100
0010
,
1000
1100
0001
0011
,
1000
1100
0001
0011
,
1000
0001
0100
0010
,
1000
0001
0100
0010
,
0220
0000
0000
0000
,
0000
0000
0000
0000
0000
0000
0000
0330
;

//---------------dance-single - ----------------
#NOTES:
     dance-single:
     :
     Easy:
     5:
     0.257471,0.336928,0.213832,0.045821,0.000000,236.000000,208.000000,28.000000,6.000000,0.000000,0.000000,0.000000,0.000000,0.000000,0.257471,0.336928,0.213832,0.045821,0.000000,236.000000,208.000000,28.000000,6.000000,0.000000,0.000000,0.000000,0.000000,0.000000:
0000
0000
0000
0000
,
0000
0000
0000
0000
,
0000
0000
0000
0000
,
0000
0000
0000
0000
,
1000
0100
1000
0000
,
0010
0010
0010
0000
,
0001
0010
0001
0000
,
0100
0100
0100
0000
,
1000
1000
0001
0001
,
0100
0100
0100
0000
,
0001
0001
1000
1000
,
0010
0010
0010
0000
,
1000
1000
0001
0001
,
0100
0100
0100
0000
,
0001
0001
1000
1000
,
0010
0010
0010
0000
,
1000
1100
0001
0011
,
1000
1100
0001
0011
,
1000
0001
0100
0010
,
1000
0001
0100
0010
,
1000
1100
0001
0011
,
1000
1100
0001
0011
,
1000
0001
0100
0010
,
1000
0001
0100
0010
,
2002
0000
0000
0000
,
0000
0000
0000
3003
,
1000
0001
0100
0010
,
1000
0001
0100
0010
,
1000
1100
0001
0011
,
1000
1100
0001
0011
,
1000
0001
0100
0010
,
1000
0001
0100
0010
,
0110
0000
0000
0000
,
0000
0000
0000
0000
,
1000
0100
1000
0000
,
0010
0010
0010
0000
,
0001
0010
0001
0000
,
0100
0100
0100
0000
,
0100
0010
0100
0000
,
0001
0001
0001
0000
,
0010
0100
0010
0000
,
1000
1000
1000
0000
,
1000
1000
0001
0001
,
0100
0100
0100
0000
,
0001
0001
1000
1000
,
0010
0010
0010
0000
,
1000
1000
0001
0001
,
0100
0100
0100
0000
,
0001
0001
1000
1000
,
0010
0010
0010
0000
,
1000
1100
0001
0011
,
1000
1100
0001
0011
,
1000
0001
0100
0010
,
1000
0001
0100
0010
,
1000
1100
0001
0011
,
1000
1100
0001
0011
,
1000
0001
0100
0010
,
1000
0001
0100
0010
,
2002
0000
0000
0000
,
0000
0000
0000
3003
,
1000
0001
0100
0010
,
1000
0001
0100
0010
,
1000
1100
0001
0011
,
1000
1100
0001
0011
,
1000
0001
0100
0010
,
1000
0001
0100
0010
,
0220
0000
0000
0000
,
0000
0000
0000
0000
0000
0000
0000
0330
;

//---------------dance-single - ----------------
#NOTES:
     dance-single:
     :
     Medium:
     11:
     0.468030,0.466516,0.320748,0.045821,0.034366,429.000000,387.000000,42.000000,6.000000,0.000000,0.000000,0.000000,0.000000,0.000000,0.468030,0.466516,0.320748,0.045821,0.034366,429.000000,387.000000,42.000000,6.000000,0.000000,0.000000,0.000000,0.000000,0.000000:
0000
0000
0000
0000
,
0000
0000
0000
0000
,
0000
0000
0000
0000
,
0000
0000
0000
0000
,
0000
0000
0000
1000
0000
0000
0100
0000
0000
0000
0000
0000
0001
0000
0000
0000
0010
0000
0000
0000
0000
0000
0000
0000
,
0000
1000
0100
1000
0100
0000
0000
0000
,
0000
0000
0000
0001
0000
0000
0010
0000
0000
0100
0000
0000
1000
0000
0000
0000
0100
0000
0000
0000
0000
0000
0000
0000
,
0000
0001
0010
0001
0010
0000
0100
0010
,
0100
0010
0001
0010
1000
0100
0001
0010
,
1000
0100
1000
0100
0010
0000
0001
0010
,
0100
0010
0100
0010
0100
0010
0001
0010
,
0100
1000
0100
0010
0001
0000
0100
0010
,
0100
0010
1000
0100
0001
0010
1000
0100
,
0001
0010
0001
0010
0100
0000
1000
0100
,
0010
0100
0010
0100
0010
0100
0010
0100
,
1000
0100
0010
0001
0010
0000
1001
0000
,
0110
0000
0001
0010
1100
0000
1000
0100
,
0011
0000
0001
0010
1100
0000
0110
0000
,
1000
0001
1000
0001
0100
0010
0100
0010
,
1000
0001
1000
0001
0100
0010
0100
0010
,
0110
0000
1000
0100
0011
0000
0001
0010
,
1100
0000
1000
0100
0011
0000
0110
0000
,
0001
0010
0001
0010
0100
0010
0100
0010
,
0100
1000
0100
1000
0100
0010
0100
0010
,
0110
0000
0000
0010
0000
0000
0100
0000
0000
0000
0000
0000
1000
0000
0000
0001
0000
0000
0000
0000
1000
0000
0000
0000
,
2002
0000
0000
3003
,
1000
0001
1000
0001
0100
0010
0100
0010
,
1000
0001
1000
0001
0100
0010
0100
0010
,
0110
0000
1000
0100
0011
0000
0001
0010
,
1100
0000
1000
0100
0011
0000
0110
0000
,
0001
0010
0001
0010
0100
0010
0100
0010
,
0100
1000
0100
1000
0100
0010
0100
0010
,
0110
0000
0000
0000
,
0000
0000
0000
0000
,
0000
0000
0000
1000
0000
0000
0100
0000
0000
0010
0000
0000
0001
0000
0000
0000
0001
0000
0000
0000
0000
0001
0000
0000
,
0000
0010
0000
0000
0100
0000
1000
0000
0100
0000
0000
0000
0000
0000
0000
0000
,
0000
0000
0000
0001
0000
0000
0010
0000
0000
0100
0000
0000
1000
0000
0000
0000
1000
0000
0000
0000
0000
1000
0000
0000
,
0000
0100
0010
0001
0010
0000
0000
0000
,
0000
0000
0000
0001
0000
0000
1000
0000
0000
0001
0000
0000
0110
0000
0000
0000
1001
0000
0000
0000
0000
0000
0000
0000
,
0000
1000
0100
0010
0001
0000
0000
0000
,
0000
0000
0000
0010
0000
0000
0100
0000
0000
0010
0000
0000
1100
0000
0000
0000
0011
0000
0000
0000
0000
0000
0000
0000
,
0000
1000
0100
0010
0001
0000
0100
0010
,
0100
0010
0001
0010
1000
0100
0001
0010
,
1000
0100
1000
0100
0010
0000
0001
0010
,
0100
0010
0100
0010
0100
0010
0001
0010
,
0100
1000
0100
0010
0001
0000
0100
0010
,
0100
0010
1000
0100
0001
0010
1000
0100
,
0001
0010
0001
0010
0100
0000
1000
0100
,
0010
0100
0010
0100
0010
0100
0010
0100
,
1000
0100
0010
0001
0010
0000
1001
0000
,
0110
0000
0001
0010
1100
0000
1000
0100
,
0011
0000
0001
0010
1100
0000
0110
0000
,
1000
0001
1000
0001
0100
0010
0100
0010
,
1000
0001
1000
0001
0100
0010
0100
0010
,
0110
0000
1000
0100
0011
0000
0001
0010
,
1100
0000
1000
0100
0011
0000
0110
0000
,
0001
0010
0001
0010
0100
0010
0100
0010
,
0100
1000
0100
1000
0100
0010
0100
0010
,
0110
0000
0000
0010
0000
0000
0100
0000
0000
0000
0000
0000
1000
0000
0000
0001
0000
0000
0000
0000
1000
0000
0000
0000
,
2002
0000
0000
3003
,
1000
0001
1000
0001
0100
0010
0100
0010
,
1000
0001
1000
0001
0100
0010
0100
0010
,
0110
0000
1000
0100
0011
0000
0001
0010
,
1100
0000
1000
0100
0011
0000
0110
0000
,
0001
0010
0001
0010
0100
0010
0100
0010
,
0100
1000
0100
1000
0100
0010
0100
0010
,
0220
0000
0000
0000
,
0000
0000
0000
0000
0000
0000
0000
0330
;

//---------------dance-single - ----------------
#NOTES:
     dance-single:
     :
     Medium:
     10:
     0.468030,0.466516,0.320748,0.045821,0.034366,429.000000,387.000000,42.000000,6.000000,0.000000,0.000000,0.000000,0.000000,0.000000,0.468030,0.466516,0.320748,0.045821,0.034366,429.000000,387.000000,42.000000,6.000000,0.000000,0.000000,0.000000,0.000000,0.000000:
0000
0000
0000
0000
,
0000
0000
0000
0000
,
0000
0000
0000
0000
,
0000
0000
0000
0000
,
0000
0000
0000
1000
0000
0000
0100
0000
0000
0000
0000
0000
0001
0000
0000
0000
0010
0000
0000
0000
0000
0000
0000
0000
,
0000
1000
0100
1000
0100
0000
0000
0000
,
0000
0000
0000
0001
0000
0000
0010
0000
0000
0100
0000
0000
1000
0000
0000
0000
0100
0000
0000
0000
0000
0000
0000
0000
,
0000
0001
0010
0001
0010
0000
0100
0010
,
0100
0010
0001
0010
1000
0100
0001
0010
,
1000
0100
1000
0100
0010
0000
0001
0010
,
0100
0010
0100
0010
0100
0010
0001
0010
,
0100
1000
0100
0010
0001
0000
0100
0010
,
0100
0010
1000
0100
0001
0010
1000
0100
,
0001
0010
0001
0010
0100
0000
1000
0100
,
0010
0100
0010
0100
0010
0100
0010
0100
,
1000
0100
0010
0001
0010
0000
1001
0000
,
0110
0000
0001
0010
1100
0000
1000
0100
,
0011
0000
0001
0010
1100
0000
0110
0000
,
1000
0001
1000
0001
0100
0010
0100
0010
,
1000
0001
1000
0001
0100
0010
0100
0010
,
0110
0000
1000
0100
0011
0000
0001
0010
,
1100
0000
1000
0100
0011
0000
0110
0000
,
0001
0010
0001
0010
0100
0010
0100
0010
,
0100
1000
0100
1000
0100
0010
0100
0010
,
0110
0000
0000
0010
0000
0000
0100
0000
0000
0000
0000
0000
1000
0000
0000
0001
0000
0000
0000
0000
1000
0000
0000
0000
,
2002
0000
0000
3003
,
1000
0001
1000
0001
0100
0010
0100
0010
,
1000
0001
1000
0001
0100
0010
0100
0010
,
0110
0000
1000
0100
0011
0000
0001
0010
,
1100
0000
1000
0100
0011
0000
0110
0000
,
0001
0010
0001
0010
0100
0010
0100
0010
,
0100
1000
0100
1000
0100
0010
0100
0010
,
0110
0000
0000
0000
,
0000
0000
0000
0000
,
0000
0000
0000
1000
0000
0000
0100
0000
0000
0010
0000
0000
0001
0000
0000
0000
0001
0000
0000
0000
0000
0001
0000
0000
,
0000
0010
0000
0000
0100
0000
1000
0000
0100
0000
0000
0000
0000
0000
0000
0000
,
0000
0000
0000
0001
0000
0000
0010
0000
0000
0100
0000
0000
1000
0000
0000
0000
1000
0000
0000
0000
0000
1000
0000
0000
,
0000
0100
0010
0001
0010
0000
0000
0000
,
0000
0000
0000
0001
0000
0000
1000
0000
0000
0001
0000
0000
0110
0000
0000
0000
1001
0000
0000
0000
0000
0000
0000
0000
,
0000
1000
0100
0010
0001
0000
0000
0000
,
0000
0000
0000
0010
0000
0000
0100
0000
0000
0010
0000
0000
1100
0000
0000
0000
0011
0000
0000
0000
0000
0000
0000
0000
,
0000
1000
0100
0010
0001
0000
0100
0010
,
0100
0010
0001
0010
1000
0100
0001
0010
,
1000
0100
1000
0100
0010
0000
0001
0010
,
0100
0010
0100
0010
0100
0010
0001
0010
,
0100
1000
0100
0010
0001
0000
0100
0010
,
0100
0010
1000
0100
0001
0010
1000
0100
,
0001
0010
0001
0010
0100
0000
1000
0100
,
0010
0100
0010
0100
0010
0100
0010
0100
,
1000
0100
0010
0001
0010
0000
1001
0000
,
0110
0000
0001
0010
1100
0000
1000
0100
,
0011
0000
0001
0010
1100
0000
0110
0000
,
1000
0001
1000
0001
0100
0010
0100
0010
,
1000
0001
1000
0001
0100
0010
0100
0010
,
0110
0000
1000
0100
0011
0000
0001
0010
,
1100
0000
1000
0100
0011
0000
0110
0000
,
0001
0010
0001
0010
0100
0010
0100
0010
,
0100
1000
0100
1000
0100
0010
0100
0010
,
0110
0000
0000
0010
0000
0000
0100
0000
0000
0000
0000
0000
1000
0000
0000
0001
0000
0000
0000
0000
1000
0000
0000
0000
,
2002
0000
0000
3003
,
1000
0001
1000
0001
0100
0010
0100
0010
,
1000
0001
1000
0001
0100
0010
0100
0010
,
0110
0000
1000
0100
0011
0000
0001
0010
,
1100
0000
1000
0100
0011
0000
0110
0000
,
0001
0010
0001
0010
0100
0010
0100
0010
,
0100
1000
0100
1000
0100
0010
0100
0010
,
0220
0000
0000
0000
,
0000
0000
0000
0000
0000
0000
0000
0330
;

//---------------dance-single - ----------------
#NOTES:
     dance-single:
     :
     Hard:
     15:
     0.681862,0.881197,0.305474,0.061095,0.859146,625.000000,585.000000,40.000000,8.000000,0.000000,0.000000,0.000000,0.000000,0.000000,0.681862,0.881197,0.305474,0.061095,0.859146,625.000000,585.000000,40.000000,8.000000,0.000000,0.000000,0.000000,0.000000,0.000000:
0000
0000
0000
0000
,
0000
0000
0000
0000
,
0000
0000
0000
0000
,
0000
0000
0000
0000
,
0000
0000
0000
0000
0000
0000
1000
0000
0000
0000
0000
0000
0100
0000
0000
0000
0000
0000
0010
0000
0000
0001
0000
0000
0010
0000
0000
0000
0000
0000
0000
0000
0010
0000
0000
0000
0000
0000
0000
0000
0000
0000
0000
0000
0000
0000
0000
0000
,
0000
0000
1000
0100
1000
0100
0010
0000
0001
0000
0000
0000
0000
0000
0000
0000
,
0000
0000
0000
0000
0000
0000
0001
0000
0000
0010
0000
0000
0001
0000
0000
0010
0000
0000
0001
0000
0000
0010
0000
0000
0100
0000
0000
0000
0000
0000
0000
0000
1000
0000
0000
0000
0000
0000
0000
0000
0000
0000
0000
0000
0000
0000
0000
0000
,
0000
1000
0100
0010
0100
1000
0100
0000
0010
0000
0000
0000
0001
0000
0010
0000
,
0100
0010
0001
0010
0100
1000
0100
0010
,
0001
0010
0001
1000
0100
0000
1000
0100
,
0010
0100
1000
0100
0010
0001
0010
0100
,
1000
0100
1000
0001
0010
0000
0001
0010
,
0100
0010
0001
0010
0100
1000
0100
0010
,
0001
0010
0001
1000
0100
0000
0001
0010
,
0100
0010
0001
0010
0100
1000
0100
0010
,
0001
0010
0001
1000
0100
0000
0110
0000
,
1000
0000
0000
0000
0001
0000
0000
0000
0000
0100
0000
0000
0000
0000
0000
0000
0000
0000
0110
0000
0000
0000
0000
0000
1000
0000
0000
0000
0001
0000
0000
0000
0000
0100
0000
0000
0000
0000
0000
0000
0000
0000
0110
0000
0000
0000
0000
0000
,
1000
0000
0000
0000
0001
0000
0000
0000
0000
0100
0000
0000
0000
0000
0000
0000
0000
0000
0110
0000
0000
0000
0000
0000
1000
0000
0000
0000
0001
0000
0000
0000
0000
0100
0000
0000
0110
0000
0000
0000
0000
0000
0000
0000
0000
0000
0000
0000
,
1000
0100
1000
0100
0001
0010
0001
0010
1000
0100
1000
0100
0001
0010
0001
0010
,
1000
0100
1000
0100
0001
0010
0001
0010
1000
0100
1000
0100
0001
0010
0001
0010
,
0001
0000
0000
0000
1000
0000
0000
0000
0000
0100
0000
0000
0000
0000
0000
0000
0000
0000
0110
0000
0000
0000
0000
0000
0001
0000
0000
0000
1000
0000
0000
0000
0000
0100
0000
0000
0000
0000
0000
0000
0000
0000
0110
0000
0000
0000
0000
0000
,
0001
0000
0000
0000
1000
0000
0000
0000
0000
0100
0000
0000
0000
0000
0000
0000
0000
0000
0110
0000
0000
0000
0000
0000
0001
0000
0000
0000
1000
0000
0000
0000
0000
0100
0000
0000
0110
0000
0000
0000
0000
0000
0000
0000
0000
0000
0000
0000
,
1000
0100
1000
0100
1000
0100
1000
0100
0010
0100
0010
0100
0010
0100
0010
0100
,
0001
0010
0001
0010
0001
0010
0001
0010
0100
0010
0100
0010
0100
0010
0100
0010
,
0110
0000
0000
0000
0000
0000
1001
0000
0000
0000
0000
0000
0110
0000
0000
0000
0000
0000
0000
0000
0000
0000
0000
0000
1000
0000
0000
0000
0000
0000
0000
0000
0001
0000
0000
0000
0000
0000
0000
1000
0000
0000
0000
0000
0000
0000
0000
0000
,
0001
0000
0000
1000
0000
0000
0000
0001
0000
1000
0000
0001
0000
1000
0000
0001
0000
1000
2002
0000
0000
0000
0000
0000
3003
0000
0000
0000
0000
0000
0000
0000
,
1000
0100
1000
0100
0001
0010
0001
0010
1000
0100
1000
0100
0001
0010
0001
0010
,
1000
0100
1000
0100
0001
0010
0001
0010
1000
0100
1000
0100
0001
0010
0001
0010
,
0001
0000
0000
0000
1000
0000
0000
0000
0000
0100
0000
0000
0000
0000
0000
0000
0000
0000
0110
0000
0000
0000
0000
0000
0001
0000
0000
0000
1000
0000
0000
0000
0000
0100
0000
0000
0000
0000
0000
0000
0000
0000
0110
0000
0000
0000
0000
0000
,
0001
0000
0000
0000
1000
0000
0000
0000
0000
0100
0000
0000
0000
0000
0000
0000
0000
0000
0110
0000
0000
0000
0000
0000
0001
0000
0000
0000
1000
0000
0000
0000
0000
0100
0000
0000
0110
0000
0000
0000
0000
0000
0000
0000
0000
0000
0000
0000
,
1000
0100
1000
0100
1000
0100
1000
0100
0010
0100
0010
0100
0010
0100
0010
0100
,
0001
0010
0001
0010
0001
0010
0001
0010
0100
0010
0100
0010
0100
0010
0100
0010
,
0110
0000
0000
0000
,
0000
0000
0000
0000
,
0000
0000
0000
1000
0000
0000
0100
0000
0000
0010
0000
0000
0001
0000
0000
0000
0000
0000
0010
0000
0000
0000
0000
0000
0100
0000
0000
0000
0000
0000
0000
0000
1000
0000
0000
0000
0000
0000
0000
0000
0000
0000
0100
0000
0000
0000
0000
0000
,
0000
0010
0001
0000
0010
0000
0100
0000
2000
0000
0000
0000
3000
0000
0000
0000
,
0000
0000
0000
0001
0000
0000
0010
0000
0000
0100
0000
0000
1000
0000
0000
0000
0000
0000
0100
0000
0000
0000
0000
0000
0010
0000
0000
0000
0000
0000
0000
0000
0001
0000
0000
0000
0000
0000
0000
0000
0000
0000
0010
0000
0000
0000
0000
0000
,
0000
0000
0100
1000
0100
1000
0100
1000
0100
0000
0000
0000
0000
0000
0000
0000
,
0000
0000
0000
0000
0000
0000
0110
0000
0000
0000
0000
0000
1001
0000
0000
0000
0000
0000
0010
0000
0000
0100
0000
0000
0010
0000
0000
0000
0000
0000
0000
0000
0110
0000
0000
0000
0000
0000
0000
0000
0000
0000
0000
0000
0000
0000
0000
0000
,
0000
1000
0100
0000
0100
0000
0010
0100
0020
0000
0000
0000
0030
0000
0000
0000
,
0000
0000
0000
0000
0000
0000
0001
0000
0000
0000
0000
0000
1000
0000
0000
0000
0000
0000
0001
0000
0000
1000
0000
0000
0001
0000
0000
0000
0000
0000
0000
0000
1001
0000
0000
0000
0000
0000
0000
0000
0000
0000
0000
0000
0000
0000
0000
0000
,
0000
0010
0100
0000
0010
0000
1000
0001
1000
0000
0000
0000
0001
0000
0010
0000
,
0100
0010
0001
0010
0100
1000
0100
0010
,
0001
0010
0001
1000
0100
0000
1000
0100
,
0010
0100
1000
0100
0010
0001
0010
0100
,
1000
0100
1000
0001
0010
0000
0001
0010
,
0100
0010
0001
0010
0100
1000
0100
0010
,
0001
0010
0001
1000
0100
0000
0001
0010
,
0100
0010
0001
0010
0100
1000
0100
0010
,
0001
0010
0001
1000
0100
0000
0110
0000
,
1000
0000
0000
0000
0001
0000
0000
0000
0000
0100
0000
0000
0000
0000
0000
0000
0000
0000
0110
0000
0000
0000
0000
0000
1000
0000
0000
0000
0001
0000
0000
0000
0000
0100
0000
0000
0000
0000
0000
0000
0000
0000
0110
0000
0000
0000
0000
0000
,
1000
0000
0000
0000
0001
0000
0000
0000
0000
0100
0000
0000
0000
0000
0000
0000
0000
0000
0110
0000
0000
0000
0000
0000
1000
0000
0000
0000
0001
0000
0000
0000
0000
0100
0000
0000
0110
0000
0000
0000
0000
0000
0000
0000
0000
0000
0000
0000
,
1000
0100
1000
0100
0001
0010
0001
0010
1000
0100
1000
0100
0001
0010
0001
0010
,
1000
0100
1000
0100
0001
0010
0001
0010
1000
0100
1000
0100
0001
0010
0001
0010
,
0001
0000
0000
0000
1000
0000
0000
0000
0000
0100
0000
0000
0000
0000
0000
0000
0000
0000
0110
0000
0000
0000
0000
0000
0001
0000
0000
0000
1000
0000
0000
0000
0000
0100
0000
0000
0000
0000
0000
0000
0000
0000
0110
0000
0000
0000
0000
0000
,
0001
0000
0000
0000
1000
0000
0000
0000
0000
0100
0000
0000
0000
0000
0000
0000
0000
0000
0110
0000
0000
0000
0000
0000
0001
0000
0000
0000
1000
0000
0000
0000
0000
0100
0000
0000
0110
0000
0000
0000
0000
0000
0000
0000
0000
0000
0000
0000
,
1000
0100
1000
0100
1000
0100
1000
0100
0010
0100
0010
0100
0010
0100
0010
0100
,
0001
0010
0001
0010
0001
0010
0001
0010
0100
0010
0100
0010
0100
0010
0100
0010
,
0110
0000
0000
0000
0000
0000
1001
0000
0000
0000
0000
0000
0110
0000
0000
0000
0000
0000
0000
0000
0000
0000
0000
0000
1000
0000
0000
0000
0000
0000
0000
0000
0001
0000
0000
0000
0000
0000
0000
1000
0000
0000
0000
0000
0000
0000
0000
0000
,
0001
0000
0000
1000
0000
0000
0000
0001
0000
1000
0000
0001
0000
1000
0000
0001
0000
1000
2002
0000
0000
0000
0000
0000
3003
0000
0000
0000
0000
0000
0000
0000
,
1000
0100
1000
0100
0001
0010
0001
0010
1000
0100
1000
0100
0001
0010
0001
0010
,
1000
0100
1000
0100
0001
0010
0001
0010
1000
0100
1000
0100
0001
0010
0001
0010
,
0001
0000
0000
0000
1000
0000
0000
0000
0000
0100
0000
0000
0000
0000
0000
0000
0000
0000
0110
0000
0000
0000
0000
0000
0001
0000
0000
0000
1000
0000
0000
0000
0000
0100
0000
0000
0000
0000
0000
0000
0000
0000
0110
0000
0000
0000
0000
0000
,
0001
0000
0000
0000
1000
0000
0000
0000
0000
0100
0000
0000
0000
0000
0000
0000
0000
0000
0110
0000
0000
0000
0000
0000
0001
0000
0000
0000
1000
0000
0000
0000
0000
0100
0000
0000
0110
0000
0000
0000
0000
0000
0000
0000
0000
0000
0000
0000
,
1000
0100
1000
0100
1000
0100
1000
0100
0010
0100
0010
0100
0010
0100
0010
0100
,
0001
0010
0001
0010
0001
0010
0001
0010
0100
0010
0100
0010
0100
0010
0100
0010
,
0220
0000
0000
0000
,
0000
0000
0000
0000
0000
0000
0000
0330
;
