#TITLE:Lover's Trick;
#SUBTITLE:;
#ARTIST:litmus*;
#TITLETRANSLIT:;
#SUBTITLETRANSLIT:;
#ARTISTTRANSLIT:;
#GENRE:;
#CREDIT:;
#BANNER:;
#BACKGROUND:;
#LYRICSPATH:;
#CDTITLE:;
#MUSIC:Lover's Trick.ogg;
#OFFSET:-0.380000;
#SAMPLESTART:96.181793;
#SAMPLELENGTH:14.769211;
#SELECTABLE:YES;
#BPMS:0.000000=130.000198
;
#STOPS:143.000000=0.230774,
264.000000=0.230774,
264.500000=0.461540
;
#BGCHANGES:;
#KEYSOUNDS:;
#ATTACKS:;

//---------------dance-single - ----------------
#NOTES:
     dance-single:
     :
     Beginner:
     2:
     0.078272,0.158664,0.083707,0.068488,0.000000,72.000000,61.000000,11.000000,9.000000,0.000000,0.000000,0.000000,0.000000,0.000000,0.078272,0.158664,0.083707,0.068488,0.000000,72.000000,61.000000,11.000000,9.000000,0.000000,0.000000,0.000000,0.000000,0.000000:
0000
0000
0000
0000
,
0000
0000
0000
0000
,
0000
0000
0000
0000
,
0000
0000
0000
0000
,
1000
0000
0000
0000
,
1000
0000
0000
0000
,
0001
0000
0000
0000
,
0001
0000
0000
0000
,
1001
0000
0000
0000
,
0110
0000
0000
0000
,
1001
0000
0000
0000
,
0110
0000
0000
0000
,
1000
0000
0000
0000
,
1000
0000
0000
0000
,
0002
0000
0000
0000
0000
0000
0000
0003
,
0000
0000
0000
0000
,
0100
0000
0000
0000
,
0100
0000
0000
0000
,
0020
0000
0000
0000
,
0030
0000
0000
0000
,
1000
0000
0000
0000
,
1000
0000
0000
0000
,
0001
0000
0000
0000
,
0001
0000
0000
0000
,
0100
0000
0000
0000
,
0100
0000
0000
0000
,
0010
0000
0000
0000
,
0010
0000
0000
0000
,
1001
0000
0000
0000
,
1000
0000
0000
0000
,
0001
0000
0000
0000
,
0001
0000
0000
0000
,
0100
0000
0000
0000
,
0100
0000
0000
0000
,
0010
0000
0000
0000
,
0010
0000
0000
0000
0000
0000
0000
1000
,
0000
0000
0000
0000
0000
0000
0000
1000
,
0000
0000
0000
0000
0000
0000
0000
0001
,
0000
0000
0000
0000
0000
0000
0000
0001
,
0000
0000
0000
0000
0000
0000
0000
0100
,
0000
0000
0000
0000
0000
0000
0000
0100
,
0000
0000
0000
0000
0000
0000
0000
0010
,
0000
0000
0000
0000
0000
0000
0000
0010
,
0000
0000
0000
0000
0000
0000
0000
0220
,
0000
0000
0000
0330
,
0000
0000
0000
0000
0000
0000
0000
2002
,
0000
0000
0000
3003
,
0000
0000
0000
0000
0000
0000
0000
1000
,
0000
0000
0000
0000
0000
0000
0000
0001
,
0000
0000
0000
0000
0000
0000
0000
0220
,
0000
0000
0000
0000
0000
0000
0000
0330
,
0000
0000
0000
0000
0000
0000
0000
1000
,
0000
0000
0000
0000
0000
0000
0000
1000
,
0000
0000
0000
0000
0000
0000
0000
0001
,
0000
0000
0000
0000
0000
0000
0000
0001
,
0000
0000
0000
0000
0000
0000
0000
0100
,
0000
0000
0000
0000
0000
0000
0000
0100
,
0000
0000
0000
0000
0000
0000
0000
0010
,
0000
0000
0000
0020
,
0000
0000
0030
0000
0000
0000
0000
1000
,
0000
0000
0000
0000
0000
0000
0000
1000
,
0000
0000
0000
0000
0000
0000
0000
0001
,
0000
0000
0000
0000
0000
0000
0000
0001
,
0000
0000
0000
0000
0000
0000
0000
0100
,
0000
0000
0000
0000
0000
0000
0000
0100
,
0000
0000
0000
0000
0000
0000
0000
0010
,
0000
0000
0110
0000
,
0000
0000
1001
0000
,
0000
0000
0000
0000
,
0000
0000
0110
0000
;

//---------------dance-single - ----------------
#NOTES:
     dance-single:
     :
     Easy:
     5:
     0.222858,0.264440,0.289171,0.106537,0.000000,205.000000,167.000000,38.000000,14.000000,0.000000,0.000000,0.000000,0.000000,0.000000,0.222858,0.264440,0.289171,0.106537,0.000000,205.000000,167.000000,38.000000,14.000000,0.000000,0.000000,0.000000,0.000000,0.000000:
0000
0000
0000
0000
,
0000
0000
0000
0000
,
0000
0000
0000
0000
,
0000
0000
0000
0000
,
1000
0100
1000
0000
,
0010
0100
0010
0000
,
0001
0010
0001
0000
,
0100
0010
0100
0000
,
1001
0000
0000
0000
,
0110
0000
0000
0000
,
0011
0000
0000
0000
,
1100
0000
0000
0000
,
1000
0100
1000
0000
,
0010
0100
0010
0000
,
0011
0000
0000
0110
0000
0000
0000
1100
,
0000
0000
0000
0000
,
1000
0100
1000
0100
,
0001
0010
0001
0010
,
0220
0000
0000
0330
,
1000
0001
0110
0000
,
0000
0001
0010
0001
,
0000
0000
0010
0100
,
0010
1000
0001
1000
,
0001
0000
0110
1001
,
0000
1000
0100
1000
,
0000
0000
0010
0100
,
0010
0001
1000
0001
,
1000
0000
0110
1001
,
0000
0001
0010
0001
,
0000
0000
0010
0100
,
0010
1000
0001
1000
,
0001
0000
0110
1001
,
0000
1000
0100
1000
,
0000
0000
0010
0100
,
0010
0001
1000
0001
,
1000
0000
0000
0000
0110
0000
0000
1000
,
0000
0100
0000
1000
0000
0000
0000
0010
,
0000
0100
0000
0010
0000
0000
0000
0001
,
0000
0010
0000
0001
0000
0000
0000
0100
,
0000
0010
0000
0100
0000
0000
0000
1000
,
0000
0100
0000
0010
0000
0000
0000
0001
,
0000
0010
0000
0100
0000
0000
0000
1000
,
0000
0100
0000
0010
0000
0000
0000
0220
,
0000
0000
0330
0000
0000
0000
0000
1001
,
0000
0110
0000
2002
,
0000
0000
0000
3003
0000
0000
0000
1100
,
0000
0011
0000
0220
,
0000
0000
0000
0330
0000
0000
0000
0010
,
0000
0100
0000
0010
0000
0000
0000
0100
,
0000
0010
0000
0100
0000
0000
0000
0220
,
0000
0000
0000
0000
0000
0000
0000
0330
,
0000
0000
0000
0000
0000
0000
0000
1000
,
0000
0100
0000
0010
0000
0001
0000
0010
,
0000
0100
0000
1000
0000
0000
0000
0110
,
0000
0000
0000
1001
0000
0000
0000
0110
,
0000
0000
0000
1001
0000
0000
0000
0001
,
0000
0010
0000
0100
0000
1000
0000
0100
,
0000
0010
0000
0001
0000
0000
0000
0110
,
0000
1001
0000
0220
,
0000
0000
0000
0330
0000
0000
0000
1000
,
0000
0100
0000
0010
0000
0001
0000
0010
,
0000
0100
0000
1000
0000
0000
0000
0110
,
0000
0000
0000
1001
0000
0000
0000
0110
,
0000
0000
0000
1001
0000
0000
0000
0001
,
0000
0010
0000
0100
0000
1000
0000
0100
,
0000
0010
0000
0001
0000
0000
0000
0110
,
0000
0000
0220
0000
,
0330
0000
1000
0100
,
1000
0000
0001
0010
,
0001
0000
0110
0000
;

//---------------dance-single - ----------------
#NOTES:
     dance-single:
     :
     Medium:
     10:
     0.435931,0.528879,0.456586,0.098927,0.019024,401.000000,341.000000,60.000000,13.000000,0.000000,0.000000,0.000000,0.000000,0.000000,0.435931,0.528879,0.456586,0.098927,0.019024,401.000000,341.000000,60.000000,13.000000,0.000000,0.000000,0.000000,0.000000,0.000000:
0000
0000
0000
0000
,
0000
0000
0000
0000
,
0000
0000
0000
0000
,
0000
0000
0000
0000
,
0110
0000
1000
0100
0010
0100
1000
0100
,
0000
0010
0000
0001
0010
0100
1000
0100
,
0010
0000
0000
0001
1000
0001
0000
1000
,
0100
0010
0001
0010
0000
0100
0000
0000
,
0110
0000
0000
0000
1001
0000
0000
0110
0000
0000
0000
0000
0000
0000
0000
0000
,
1100
0000
0000
0000
0110
0000
0000
0011
0000
0000
0000
0000
0000
0000
0000
0000
,
0110
0000
0000
0000
1001
0000
0000
0110
0000
0000
0000
0000
0000
0000
0000
0000
,
0011
0000
0000
0000
0110
0000
0000
1100
0000
0000
0000
0000
0000
0000
0000
0000
,
1000
0100
0010
0100
1000
0100
0000
0000
,
0001
0010
0100
0010
0001
0010
0100
1000
,
0110
0000
0000
1001
0000
0000
0010
0200
,
0000
0000
0000
0300
,
1000
0100
0010
0001
1000
0100
0010
0001
,
1000
0100
0010
0001
1000
0100
0010
0001
,
0010
0100
0010
0100
0010
0100
0010
0100
,
0110
0000
0000
1001
0000
0000
0110
0000
0220
0000
0330
0000
0000
0000
0000
0000
,
1001
0000
0001
0010
0100
1000
0100
0010
,
0001
0000
0000
0100
0010
0100
0010
0100
,
0000
1100
0110
0011
,
0110
0000
1100
0000
0010
0100
0010
0100
,
1001
0000
1000
0100
0010
0001
0010
0100
,
1000
0000
0000
0010
0100
0010
0100
0010
,
0000
0011
0110
1100
,
0110
0000
0011
0000
0100
0010
0100
0010
,
1001
0000
0001
0010
0100
1000
0100
0010
,
0001
0000
0000
0100
0010
0100
0010
0100
,
0000
1100
0110
0011
,
0110
0000
1100
0000
0010
0100
0010
0100
,
1001
0000
1000
0100
0010
0001
0010
0100
,
1000
0000
0000
0010
0100
0010
0100
0010
,
0000
0011
0110
1100
,
0110
0000
0011
0000
0100
0010
0000
1000
,
0000
1000
0100
0010
0100
1000
0100
0000
,
0010
0000
0001
0010
0100
0010
0001
0000
,
0010
0000
1000
0100
1000
0000
0001
0010
,
0100
1000
0100
0000
0010
0000
0001
0010
,
0000
1000
0100
0010
0001
0010
0100
0000
,
1000
0000
0001
0010
0100
1000
0100
0000
,
0010
0000
0100
0010
0100
0000
0001
1000
,
0001
1000
0220
0000
0330
0000
0000
1100
,
0000
0000
0110
0000
0000
0010
0002
0000
,
0000
0000
0000
0003
0000
0110
0000
1001
,
0000
0000
1100
0000
0000
0010
0200
0000
,
0000
0000
0000
0300
0000
0001
1000
0001
,
0000
0100
0010
0000
1000
0100
0010
0001
,
0000
0010
0100
0000
0001
0010
0100
1000
,
0000
0010
0100
0000
0010
0100
0010
0220
,
0000
0000
0330
0000
0000
0000
0000
1000
,
0100
0010
0100
1000
0100
0010
0100
1000
,
0100
0010
0001
0010
0000
0110
0000
1001
,
0000
0001
0010
1000
0100
0001
0010
0000
,
0100
0010
0100
0000
0000
0000
0000
0001
,
0010
0100
0010
0001
0010
0100
0010
0001
,
0010
0100
1000
0100
0000
0010
0100
0110
,
0000
1001
0000
0220
,
0000
0000
0330
0000
0000
0000
0000
1000
,
0100
0010
0100
1000
0100
0010
0100
1000
,
0100
0010
0001
0010
0000
0110
0000
1001
,
0000
0001
0010
1000
0100
0001
0010
0000
,
0100
0010
0100
0000
0000
0000
0000
0001
,
0010
0100
0010
0001
0010
0100
0010
0001
,
0010
0100
1000
0100
0000
0010
0100
0110
,
0000
0100
0010
0000
0220
0000
0000
0000
,
0330
0000
0000
0000
1000
0000
1000
0100
,
0010
0100
1000
0100
0000
0010
0000
0001
,
1000
0001
1000
0000
0110
0000
0000
0000
;

//---------------dance-single - ----------------
#NOTES:
     dance-single:
     :
     Medium:
     9:
     0.435931,0.528879,0.456586,0.098927,0.019024,401.000000,341.000000,60.000000,13.000000,0.000000,0.000000,0.000000,0.000000,0.000000,0.435931,0.528879,0.456586,0.098927,0.019024,401.000000,341.000000,60.000000,13.000000,0.000000,0.000000,0.000000,0.000000,0.000000:
0000
0000
0000
0000
,
0000
0000
0000
0000
,
0000
0000
0000
0000
,
0000
0000
0000
0000
,
0110
0000
1000
0100
0010
0100
1000
0100
,
0000
0010
0000
0001
0010
0100
1000
0100
,
0010
0000
0000
0001
1000
0001
0000
1000
,
0100
0010
0001
0010
0000
0100
0000
0000
,
0110
0000
0000
0000
1001
0000
0000
0110
0000
0000
0000
0000
0000
0000
0000
0000
,
1100
0000
0000
0000
0110
0000
0000
0011
0000
0000
0000
0000
0000
0000
0000
0000
,
0110
0000
0000
0000
1001
0000
0000
0110
0000
0000
0000
0000
0000
0000
0000
0000
,
0011
0000
0000
0000
0110
0000
0000
1100
0000
0000
0000
0000
0000
0000
0000
0000
,
1000
0100
0010
0100
1000
0100
0000
0000
,
0001
0010
0100
0010
0001
0010
0100
1000
,
0110
0000
0000
1001
0000
0000
0010
0200
,
0000
0000
0000
0300
,
1000
0100
0010
0001
1000
0100
0010
0001
,
1000
0100
0010
0001
1000
0100
0010
0001
,
0010
0100
0010
0100
0010
0100
0010
0100
,
0110
0000
0000
1001
0000
0000
0110
0000
0220
0000
0330
0000
0000
0000
0000
0000
,
1001
0000
0001
0010
0100
1000
0100
0010
,
0001
0000
0000
0100
0010
0100
0010
0100
,
0000
1100
0110
0011
,
0110
0000
1100
0000
0010
0100
0010
0100
,
1001
0000
1000
0100
0010
0001
0010
0100
,
1000
0000
0000
0010
0100
0010
0100
0010
,
0000
0011
0110
1100
,
0110
0000
0011
0000
0100
0010
0100
0010
,
1001
0000
0001
0010
0100
1000
0100
0010
,
0001
0000
0000
0100
0010
0100
0010
0100
,
0000
1100
0110
0011
,
0110
0000
1100
0000
0010
0100
0010
0100
,
1001
0000
1000
0100
0010
0001
0010
0100
,
1000
0000
0000
0010
0100
0010
0100
0010
,
0000
0011
0110
1100
,
0110
0000
0011
0000
0100
0010
0000
1000
,
0000
1000
0100
0010
0100
1000
0100
0000
,
0010
0000
0001
0010
0100
0010
0001
0000
,
0010
0000
1000
0100
1000
0000
0001
0010
,
0100
1000
0100
0000
0010
0000
0001
0010
,
0000
1000
0100
0010
0001
0010
0100
0000
,
1000
0000
0001
0010
0100
1000
0100
0000
,
0010
0000
0100
0010
0100
0000
0001
1000
,
0001
1000
0220
0000
0330
0000
0000
1100
,
0000
0000
0110
0000
0000
0010
0002
0000
,
0000
0000
0000
0003
0000
0110
0000
1001
,
0000
0000
1100
0000
0000
0010
0200
0000
,
0000
0000
0000
0300
0000
0001
1000
0001
,
0000
0100
0010
0000
1000
0100
0010
0001
,
0000
0010
0100
0000
0001
0010
0100
1000
,
0000
0010
0100
0000
0010
0100
0010
0220
,
0000
0000
0330
0000
0000
0000
0000
1000
,
0100
0010
0100
1000
0100
0010
0100
1000
,
0100
0010
0001
0010
0000
0110
0000
1001
,
0000
0001
0010
1000
0100
0001
0010
0000
,
0100
0010
0100
0000
0000
0000
0000
0001
,
0010
0100
0010
0001
0010
0100
0010
0001
,
0010
0100
1000
0100
0000
0010
0100
0110
,
0000
1001
0000
0220
,
0000
0000
0330
0000
0000
0000
0000
1000
,
0100
0010
0100
1000
0100
0010
0100
1000
,
0100
0010
0001
0010
0000
0110
0000
1001
,
0000
0001
0010
1000
0100
0001
0010
0000
,
0100
0010
0100
0000
0000
0000
0000
0001
,
0010
0100
0010
0001
0010
0100
0010
0001
,
0010
0100
1000
0100
0000
0010
0100
0110
,
0000
0100
0010
0000
0220
0000
0000
0000
,
0330
0000
0000
0000
1000
0000
1000
0100
,
0010
0100
1000
0100
0000
0010
0000
0001
,
1000
0001
1000
0000
0110
0000
0000
0000
;

//---------------dance-single - ----------------
#NOTES:
     dance-single:
     :
     Beginner:
     2:
     0.078272,0.158664,0.083707,0.068488,0.000000,72.000000,61.000000,11.000000,9.000000,0.000000,0.000000,0.000000,0.000000,0.000000,0.078272,0.158664,0.083707,0.068488,0.000000,72.000000,61.000000,11.000000,9.000000,0.000000,0.000000,0.000000,0.000000,0.000000:
0000
0000
0000
0000
,
0000
0000
0000
0000
,
0000
0000
0000
0000
,
0000
0000
0000
0000
,
1000
0000
0000
0000
,
1000
0000
0000
0000
,
0001
0000
0000
0000
,
0001
0000
0000
0000
,
1001
0000
0000
0000
,
0110
0000
0000
0000
,
1001
0000
0000
0000
,
0110
0000
0000
0000
,
1000
0000
0000
0000
,
1000
0000
0000
0000
,
0002
0000
0000
0000
0000
0000
0000
0003
,
0000
0000
0000
0000
,
0100
0000
0000
0000
,
0100
0000
0000
0000
,
0020
0000
0000
0000
,
0030
0000
0000
0000
,
1000
0000
0000
0000
,
1000
0000
0000
0000
,
0001
0000
0000
0000
,
0001
0000
0000
0000
,
0100
0000
0000
0000
,
0100
0000
0000
0000
,
0010
0000
0000
0000
,
0010
0000
0000
0000
,
1001
0000
0000
0000
,
1000
0000
0000
0000
,
0001
0000
0000
0000
,
0001
0000
0000
0000
,
0100
0000
0000
0000
,
0100
0000
0000
0000
,
0010
0000
0000
0000
,
0010
0000
0000
0000
0000
0000
0000
1000
,
0000
0000
0000
0000
0000
0000
0000
1000
,
0000
0000
0000
0000
0000
0000
0000
0001
,
0000
0000
0000
0000
0000
0000
0000
0001
,
0000
0000
0000
0000
0000
0000
0000
0100
,
0000
0000
0000
0000
0000
0000
0000
0100
,
0000
0000
0000
0000
0000
0000
0000
0010
,
0000
0000
0000
0000
0000
0000
0000
0010
,
0000
0000
0000
0000
0000
0000
0000
0220
,
0000
0000
0000
0330
,
0000
0000
0000
0000
0000
0000
0000
2002
,
0000
0000
0000
3003
,
0000
0000
0000
0000
0000
0000
0000
1000
,
0000
0000
0000
0000
0000
0000
0000
0001
,
0000
0000
0000
0000
0000
0000
0000
0220
,
0000
0000
0000
0000
0000
0000
0000
0330
,
0000
0000
0000
0000
0000
0000
0000
1000
,
0000
0000
0000
0000
0000
0000
0000
1000
,
0000
0000
0000
0000
0000
0000
0000
0001
,
0000
0000
0000
0000
0000
0000
0000
0001
,
0000
0000
0000
0000
0000
0000
0000
0100
,
0000
0000
0000
0000
0000
0000
0000
0100
,
0000
0000
0000
0000
0000
0000
0000
0010
,
0000
0000
0000
0020
,
0000
0000
0030
0000
0000
0000
0000
1000
,
0000
0000
0000
0000
0000
0000
0000
1000
,
0000
0000
0000
0000
0000
0000
0000
0001
,
0000
0000
0000
0000
0000
0000
0000
0001
,
0000
0000
0000
0000
0000
0000
0000
0100
,
0000
0000
0000
0000
0000
0000
0000
0100
,
0000
0000
0000
0000
0000
0000
0000
0010
,
0000
0000
0110
0000
,
0000
0000
1001
0000
,
0000
0000
0000
0000
,
0000
0000
0110
0000
;

//---------------dance-single - ----------------
#NOTES:
     dance-single:
     :
     Easy:
     5:
     0.222858,0.264440,0.289171,0.106537,0.000000,205.000000,167.000000,38.000000,14.000000,0.000000,0.000000,0.000000,0.000000,0.000000,0.222858,0.264440,0.289171,0.106537,0.000000,205.000000,167.000000,38.000000,14.000000,0.000000,0.000000,0.000000,0.000000,0.000000:
0000
0000
0000
0000
,
0000
0000
0000
0000
,
0000
0000
0000
0000
,
0000
0000
0000
0000
,
1000
0100
1000
0000
,
0010
0100
0010
0000
,
0001
0010
0001
0000
,
0100
0010
0100
0000
,
1001
0000
0000
0000
,
0110
0000
0000
0000
,
0011
0000
0000
0000
,
1100
0000
0000
0000
,
1000
0100
1000
0000
,
0010
0100
0010
0000
,
0011
0000
0000
0110
0000
0000
0000
1100
,
0000
0000
0000
0000
,
1000
0100
1000
0100
,
0001
0010
0001
0010
,
0220
0000
0000
0330
,
1000
0001
0110
0000
,
0000
0001
0010
0001
,
0000
0000
0010
0100
,
0010
1000
0001
1000
,
0001
0000
0110
1001
,
0000
1000
0100
1000
,
0000
0000
0010
0100
,
0010
0001
1000
0001
,
1000
0000
0110
1001
,
0000
0001
0010
0001
,
0000
0000
0010
0100
,
0010
1000
0001
1000
,
0001
0000
0110
1001
,
0000
1000
0100
1000
,
0000
0000
0010
0100
,
0010
0001
1000
0001
,
1000
0000
0000
0000
0110
0000
0000
1000
,
0000
0100
0000
1000
0000
0000
0000
0010
,
0000
0100
0000
0010
0000
0000
0000
0001
,
0000
0010
0000
0001
0000
0000
0000
0100
,
0000
0010
0000
0100
0000
0000
0000
1000
,
0000
0100
0000
0010
0000
0000
0000
0001
,
0000
0010
0000
0100
0000
0000
0000
1000
,
0000
0100
0000
0010
0000
0000
0000
0220
,
0000
0000
0330
0000
0000
0000
0000
1001
,
0000
0110
0000
2002
,
0000
0000
0000
3003
0000
0000
0000
1100
,
0000
0011
0000
0220
,
0000
0000
0000
0330
0000
0000
0000
0010
,
0000
0100
0000
0010
0000
0000
0000
0100
,
0000
0010
0000
0100
0000
0000
0000
0220
,
0000
0000
0000
0000
0000
0000
0000
0330
,
0000
0000
0000
0000
0000
0000
0000
1000
,
0000
0100
0000
0010
0000
0001
0000
0010
,
0000
0100
0000
1000
0000
0000
0000
0110
,
0000
0000
0000
1001
0000
0000
0000
0110
,
0000
0000
0000
1001
0000
0000
0000
0001
,
0000
0010
0000
0100
0000
1000
0000
0100
,
0000
0010
0000
0001
0000
0000
0000
0110
,
0000
1001
0000
0220
,
0000
0000
0000
0330
0000
0000
0000
1000
,
0000
0100
0000
0010
0000
0001
0000
0010
,
0000
0100
0000
1000
0000
0000
0000
0110
,
0000
0000
0000
1001
0000
0000
0000
0110
,
0000
0000
0000
1001
0000
0000
0000
0001
,
0000
0010
0000
0100
0000
1000
0000
0100
,
0000
0010
0000
0001
0000
0000
0000
0110
,
0000
0000
0220
0000
,
0330
0000
1000
0100
,
1000
0000
0001
0010
,
0001
0000
0110
0000
;

//---------------dance-single - ----------------
#NOTES:
     dance-single:
     :
     Medium:
     10:
     0.435931,0.528879,0.456586,0.098927,0.019024,401.000000,341.000000,60.000000,13.000000,0.000000,0.000000,0.000000,0.000000,0.000000,0.435931,0.528879,0.456586,0.098927,0.019024,401.000000,341.000000,60.000000,13.000000,0.000000,0.000000,0.000000,0.000000,0.000000:
0000
0000
0000
0000
,
0000
0000
0000
0000
,
0000
0000
0000
0000
,
0000
0000
0000
0000
,
0110
0000
1000
0100
0010
0100
1000
0100
,
0000
0010
0000
0001
0010
0100
1000
0100
,
0010
0000
0000
0001
1000
0001
0000
1000
,
0100
0010
0001
0010
0000
0100
0000
0000
,
0110
0000
0000
0000
1001
0000
0000
0110
0000
0000
0000
0000
0000
0000
0000
0000
,
1100
0000
0000
0000
0110
0000
0000
0011
0000
0000
0000
0000
0000
0000
0000
0000
,
0110
0000
0000
0000
1001
0000
0000
0110
0000
0000
0000
0000
0000
0000
0000
0000
,
0011
0000
0000
0000
0110
0000
0000
1100
0000
0000
0000
0000
0000
0000
0000
0000
,
1000
0100
0010
0100
1000
0100
0000
0000
,
0001
0010
0100
0010
0001
0010
0100
1000
,
0110
0000
0000
1001
0000
0000
0010
0200
,
0000
0000
0000
0300
,
1000
0100
0010
0001
1000
0100
0010
0001
,
1000
0100
0010
0001
1000
0100
0010
0001
,
0010
0100
0010
0100
0010
0100
0010
0100
,
0110
0000
0000
1001
0000
0000
0110
0000
0220
0000
0330
0000
0000
0000
0000
0000
,
1001
0000
0001
0010
0100
1000
0100
0010
,
0001
0000
0000
0100
0010
0100
0010
0100
,
0000
1100
0110
0011
,
0110
0000
1100
0000
0010
0100
0010
0100
,
1001
0000
1000
0100
0010
0001
0010
0100
,
1000
0000
0000
0010
0100
0010
0100
0010
,
0000
0011
0110
1100
,
0110
0000
0011
0000
0100
0010
0100
0010
,
1001
0000
0001
0010
0100
1000
0100
0010
,
0001
0000
0000
0100
0010
0100
0010
0100
,
0000
1100
0110
0011
,
0110
0000
1100
0000
0010
0100
0010
0100
,
1001
0000
1000
0100
0010
0001
0010
0100
,
1000
0000
0000
0010
0100
0010
0100
0010
,
0000
0011
0110
1100
,
0110
0000
0011
0000
0100
0010
0000
1000
,
0000
1000
0100
0010
0100
1000
0100
0000
,
0010
0000
0001
0010
0100
0010
0001
0000
,
0010
0000
1000
0100
1000
0000
0001
0010
,
0100
1000
0100
0000
0010
0000
0001
0010
,
0000
1000
0100
0010
0001
0010
0100
0000
,
1000
0000
0001
0010
0100
1000
0100
0000
,
0010
0000
0100
0010
0100
0000
0001
1000
,
0001
1000
0220
0000
0330
0000
0000
1100
,
0000
0000
0110
0000
0000
0010
0002
0000
,
0000
0000
0000
0003
0000
0110
0000
1001
,
0000
0000
1100
0000
0000
0010
0200
0000
,
0000
0000
0000
0300
0000
0001
1000
0001
,
0000
0100
0010
0000
1000
0100
0010
0001
,
0000
0010
0100
0000
0001
0010
0100
1000
,
0000
0010
0100
0000
0010
0100
0010
0220
,
0000
0000
0330
0000
0000
0000
0000
1000
,
0100
0010
0100
1000
0100
0010
0100
1000
,
0100
0010
0001
0010
0000
0110
0000
1001
,
0000
0001
0010
1000
0100
0001
0010
0000
,
0100
0010
0100
0000
0000
0000
0000
0001
,
0010
0100
0010
0001
0010
0100
0010
0001
,
0010
0100
1000
0100
0000
0010
0100
0110
,
0000
1001
0000
0220
,
0000
0000
0330
0000
0000
0000
0000
1000
,
0100
0010
0100
1000
0100
0010
0100
1000
,
0100
0010
0001
0010
0000
0110
0000
1001
,
0000
0001
0010
1000
0100
0001
0010
0000
,
0100
0010
0100
0000
0000
0000
0000
0001
,
0010
0100
0010
0001
0010
0100
0010
0001
,
0010
0100
1000
0100
0000
0010
0100
0110
,
0000
0100
0010
0000
0220
0000
0000
0000
,
0330
0000
0000
0000
1000
0000
1000
0100
,
0010
0100
1000
0100
0000
0010
0000
0001
,
1000
0001
1000
0000
0110
0000
0000
0000
;

//---------------dance-single - ----------------
#NOTES:
     dance-single:
     :
     Medium:
     9:
     0.435931,0.528879,0.456586,0.098927,0.019024,401.000000,341.000000,60.000000,13.000000,0.000000,0.000000,0.000000,0.000000,0.000000,0.435931,0.528879,0.456586,0.098927,0.019024,401.000000,341.000000,60.000000,13.000000,0.000000,0.000000,0.000000,0.000000,0.000000:
0000
0000
0000
0000
,
0000
0000
0000
0000
,
0000
0000
0000
0000
,
0000
0000
0000
0000
,
0110
0000
1000
0100
0010
0100
1000
0100
,
0000
0010
0000
0001
0010
0100
1000
0100
,
0010
0000
0000
0001
1000
0001
0000
1000
,
0100
0010
0001
0010
0000
0100
0000
0000
,
0110
0000
0000
0000
1001
0000
0000
0110
0000
0000
0000
0000
0000
0000
0000
0000
,
1100
0000
0000
0000
0110
0000
0000
0011
0000
0000
0000
0000
0000
0000
0000
0000
,
0110
0000
0000
0000
1001
0000
0000
0110
0000
0000
0000
0000
0000
0000
0000
0000
,
0011
0000
0000
0000
0110
0000
0000
1100
0000
0000
0000
0000
0000
0000
0000
0000
,
1000
0100
0010
0100
1000
0100
0000
0000
,
0001
0010
0100
0010
0001
0010
0100
1000
,
0110
0000
0000
1001
0000
0000
0010
0200
,
0000
0000
0000
0300
,
1000
0100
0010
0001
1000
0100
0010
0001
,
1000
0100
0010
0001
1000
0100
0010
0001
,
0010
0100
0010
0100
0010
0100
0010
0100
,
0110
0000
0000
1001
0000
0000
0110
0000
0220
0000
0330
0000
0000
0000
0000
0000
,
1001
0000
0001
0010
0100
1000
0100
0010
,
0001
0000
0000
0100
0010
0100
0010
0100
,
0000
1100
0110
0011
,
0110
0000
1100
0000
0010
0100
0010
0100
,
1001
0000
1000
0100
0010
0001
0010
0100
,
1000
0000
0000
0010
0100
0010
0100
0010
,
0000
0011
0110
1100
,
0110
0000
0011
0000
0100
0010
0100
0010
,
1001
0000
0001
0010
0100
1000
0100
0010
,
0001
0000
0000
0100
0010
0100
0010
0100
,
0000
1100
0110
0011
,
0110
0000
1100
0000
0010
0100
0010
0100
,
1001
0000
1000
0100
0010
0001
0010
0100
,
1000
0000
0000
0010
0100
0010
0100
0010
,
0000
0011
0110
1100
,
0110
0000
0011
0000
0100
0010
0000
1000
,
0000
1000
0100
0010
0100
1000
0100
0000
,
0010
0000
0001
0010
0100
0010
0001
0000
,
0010
0000
1000
0100
1000
0000
0001
0010
,
0100
1000
0100
0000
0010
0000
0001
0010
,
0000
1000
0100
0010
0001
0010
0100
0000
,
1000
0000
0001
0010
0100
1000
0100
0000
,
0010
0000
0100
0010
0100
0000
0001
1000
,
0001
1000
0220
0000
0330
0000
0000
1100
,
0000
0000
0110
0000
0000
0010
0002
0000
,
0000
0000
0000
0003
0000
0110
0000
1001
,
0000
0000
1100
0000
0000
0010
0200
0000
,
0000
0000
0000
0300
0000
0001
1000
0001
,
0000
0100
0010
0000
1000
0100
0010
0001
,
0000
0010
0100
0000
0001
0010
0100
1000
,
0000
0010
0100
0000
0010
0100
0010
0220
,
0000
0000
0330
0000
0000
0000
0000
1000
,
0100
0010
0100
1000
0100
0010
0100
1000
,
0100
0010
0001
0010
0000
0110
0000
1001
,
0000
0001
0010
1000
0100
0001
0010
0000
,
0100
0010
0100
0000
0000
0000
0000
0001
,
0010
0100
0010
0001
0010
0100
0010
0001
,
0010
0100
1000
0100
0000
0010
0100
0110
,
0000
1001
0000
0220
,
0000
0000
0330
0000
0000
0000
0000
1000
,
0100
0010
0100
1000
0100
0010
0100
1000
,
0100
0010
0001
0010
0000
0110
0000
1001
,
0000
0001
0010
1000
0100
0001
0010
0000
,
0100
0010
0100
0000
0000
0000
0000
0001
,
0010
0100
0010
0001
0010
0100
0010
0001
,
0010
0100
1000
0100
0000
0010
0100
0110
,
0000
0100
0010
0000
0220
0000
0000
0000
,
0330
0000
0000
0000
1000
0000
1000
0100
,
0010
0100
1000
0100
0000
0010
0000
0001
,
1000
0001
1000
0000
0110
0000
0000
0000
;

//---------------dance-single - ----------------
#NOTES:
     dance-single:
     :
     Hard:
     14:
     0.592475,0.849250,0.639221,0.357659,0.331025,545.000000,461.000000,84.000000,47.000000,0.000000,0.000000,0.000000,0.000000,0.000000,0.592475,0.849250,0.639221,0.357659,0.331025,545.000000,461.000000,84.000000,47.000000,0.000000,0.000000,0.000000,0.000000,0.000000:
// measure 0
0000
0000
0000
0000
,  // measure 1
0000
0000
0000
0000
,  // measure 2
0000
0000
0000
0000
,  // measure 3
0000
0000
0000
0000
0000
0000
0000
0000
0000
0000
0000
0000
0000
0000
1000
0100
,  // measure 4
0010
0000
0001
0010
0100
0010
0001
0020
,  // measure 5
0030
0000
0000
0000
0000
0000
0010
0000
0000
0000
0000
0000
0000
0000
0000
0000
0000
0000
1000
0000
0000
0001
0000
0000
1000
0000
0000
0000
0000
0000
0010
0000
0100
0000
0010
0000
0100
0000
0000
0000
0000
0000
0001
0000
0000
1000
0000
0000
,  // measure 6
0000
0000
0110
0000
0000
0000
1001
0000
0110
0000
1001
0000
0000
0000
1000
0100
,  // measure 7
0010
0000
0001
0000
0010
0000
0100
0000
0000
0000
0010
0100
0010
0000
0000
0000
,  // measure 8
1001
0000
1000
0000
0110
0000
0010
1001
0000
0000
0001
1000
0001
0000
1000
0000
,  // measure 9
1100
0000
0100
0000
0011
0000
0010
1100
0000
0000
0010
0100
0010
0100
0010
0000
,  // measure 10
0110
0000
0100
0000
1001
0000
0001
0110
0000
0000
0100
0000
0010
0100
0010
0100
,  // measure 11
0011
0000
0010
0000
1100
0000
0100
0011
0000
0000
0100
0010
0110
0000
0000
0000
,  // measure 12
1000
0000
0100
0000
0010
0000
0001
0010
0000
0000
0100
0000
0110
0000
1001
0000
,  // measure 13
0001
0000
0010
0000
0100
0000
1000
0100
0000
0000
0110
0000
1001
0000
0110
0000
,  // measure 14
1001
0000
0000
0011
0000
0000
1100
2200
,  // measure 15
0000
0000
0000
0000
0000
0000
0000
0000
3300
0000
0010
0100
0110
0000
0000
0000
,  // measure 16
1000
0100
0010
0001
0010
0100
1000
0000
0001
0010
0100
1000
0100
0010
0001
0000
,  // measure 17
1000
0100
0010
0001
0010
0100
1000
0000
0001
0010
0100
1000
0100
0010
0001
0000
,  // measure 18
0100
0010
0100
0010
0100
0010
0100
0010
0100
0010
0100
0010
0100
0010
0100
0010
,  // measure 19
0110
0000
0000
1001
0000
0000
1100
0000
0011
0000
0000
0000
0110
0000
0000
0000
,  // measure 20
0220
0330
1000
0100
0010
0001
0010
0200
,  // measure 21
0000
0000
0300
0010
0001
0010
0100
2000
,  // measure 22
0000
3000
1100
0000
0110
0000
0011
0000
,  // measure 23
0110
0000
0000
0000
1100
0000
0000
0000
0010
0000
0100
0000
0010
0000
0100
0010
,  // measure 24
2002
3003
0010
0100
1000
0100
0010
0002
,  // measure 25
0000
0000
0003
0001
0010
0100
1000
0200
,  // measure 26
0000
0300
0110
0000
1001
0000
0110
0000
,  // measure 27
1001
0000
0000
0000
0110
0000
1000
0000
0001
0000
1000
0000
0001
0000
1000
0001
,  // measure 28
0220
0330
1000
0100
0010
0001
0010
0200
,  // measure 29
0000
0000
0300
0010
0001
0010
0100
2000
,  // measure 30
0000
3000
1100
0000
0110
0000
0011
0000
,  // measure 31
0110
0000
0000
0000
1100
0000
0000
0000
0010
0000
0100
0000
0010
0000
0100
0010
,  // measure 32
2002
3003
0010
0100
1000
0100
0010
0002
,  // measure 33
0000
0000
0003
0001
0010
0100
1000
0200
,  // measure 34
0000
0300
0110
0000
1001
0000
0110
0000
,  // measure 35
1001
0000
0110
1000
0001
1000
0000
1000
,  // measure 36
0000
0100
0010
0001
0010
0100
1000
0000
,  // measure 37
0100
0000
0000
0000
0000
0000
0000
0000
0000
0000
0000
0000
0010
0000
0000
0100
0000
0000
0010
0000
0000
0000
0000
0000
1000
0000
0001
0000
1000
0000
0001
0000
0000
0000
0000
0000
0100
0000
0000
0010
0000
0000
0000
0000
0000
0000
0000
0000
,  // measure 38
0110
0000
0000
0000
0001
0000
0010
0000
0100
0000
0000
0000
1000
0100
0010
0000
,  // measure 39
0001
0000
0010
0000
0100
2000
0000
0000
3100
0000
0000
0000
0001
0010
0100
0000
,  // measure 40
0000
1000
0100
0010
0001
0010
0100
0000
,  // measure 41
1000
0000
0000
0000
0000
0000
0000
0000
0000
0000
0000
0000
1000
0000
0000
0001
0000
0000
1000
0000
0000
0000
0000
0000
0010
0000
0100
0000
0010
0000
0100
0000
0000
0000
0000
0000
0001
0000
0000
1000
0000
0000
0000
0000
0000
0000
0000
0000
,  // measure 42
0110
0000
1000
0100
0010
0000
0001
0010
,  // measure 43
0100
1000
0200
0000
0310
0000
0000
2002
,  // measure 44
0000
3003
0220
0000
0330
1100
0011
0000
,  // measure 45
0100
0010
0100
0010
0100
0010
0100
0000
0000
0000
1001
0000
0110
0000
2200
0000
,  // measure 46
0000
3300
0220
0000
0330
0011
1100
0000
,  // measure 47
1000
0001
1000
0001
1000
0001
1000
0000
0000
0000
1000
0000
0100
0000
0010
0000
,  // measure 48
0000
0001
1000
0000
0001
0010
0100
1000
,  // measure 49
0000
0001
1000
0000
1000
0100
0010
0001
,  // measure 50
0000
1000
0001
0000
1000
0001
1000
0110
,  // measure 51
0000
0100
0020
0000
0000
0030
0110
1000
,  // measure 52
0100
0000
0010
0000
0100
1000
0100
0000
0100
0010
0100
0000
0010
0000
0001
0000
,  // measure 53
0010
0000
0100
0000
1000
0200
0000
0000
0000
0000
0300
0010
0100
0010
0220
0000
,  // measure 54
0330
1000
0100
0010
0100
1000
0200
0300
,  // measure 55
0010
0000
0001
0000
0010
0200
0000
0000
0000
0000
0300
0000
0001
0000
0010
0000
,  // measure 56
0100
0000
0010
0000
0001
0010
0001
0000
0010
0100
0010
0000
0100
0000
1000
0000
,  // measure 57
0100
0000
0010
0000
0001
0020
0000
0000
0000
0000
0030
0100
0010
0100
0110
0000
,  // measure 58
0000
1001
0110
0000
1001
1100
0011
0000
,  // measure 59
0000
0100
0020
0000
0000
0030
0110
1000
,  // measure 60
0100
0000
0010
0000
0100
1000
0100
0000
0100
0010
0100
0000
0010
0000
0001
0000
,  // measure 61
0010
0000
0100
0000
1000
0200
0000
0000
0000
0000
0300
0010
0100
0010
0220
0000
,  // measure 62
0330
1000
0100
0010
0100
1000
0200
0300
,  // measure 63
0010
0000
0001
0000
0010
0200
0000
0000
0000
0000
0300
0000
0001
0000
0010
0000
,  // measure 64
0100
0000
0010
0000
0001
0010
0001
0000
0010
0100
0010
0000
0100
0000
1000
0000
,  // measure 65
0100
0000
0010
0000
0001
0020
0000
0000
0000
0000
0030
0100
0010
0100
0110
0000
,  // measure 66
0000
1001
0110
0000
0220
0000
0000
0000
,  // measure 67
0330
0000
0000
0000
1000
0000
0100
0010
,  // measure 68
0001
0000
0010
0000
0100
0000
0010
0000
0000
0000
0001
0000
0000
0000
0100
0010
,  // measure 69
0100
0000
0001
1000
0100
0010
0100
0010
0220
0000
0000
0000
0330
0000
0000
0000
;
