#TITLE:HOT SHOT;
#SUBTITLE:;
#ARTIST:Tokyo Machine;
#TITLETRANSLIT:;
#SUBTITLETRANSLIT:;
#ARTISTTRANSLIT:;
#GENRE:;
#CREDIT:;
#BANNER:;
#BACKGROUND:;
#LYRICSPATH:;
#CDTITLE:;
#MUSIC:HOT SHOT.ogg;
#OFFSET:-0.280000;
#SAMPLESTART:37.787945;
#SAMPLELENGTH:14.999981;
#SELECTABLE:YES;
#BPMS:0.000000=128.000259
,28.000000=64.000061
,30.000000=128.000168
,136.500000=63.999947
,138.000000=128.000061
,227.500000=63.999897
,229.500000=128.000031
;
#STOPS:74.000000=0.234375,
74.500000=0.234375,
75.000000=0.234375,
136.500000=0.468750,
166.000000=0.117188,
166.250000=0.117188,
166.500000=0.117188,
166.750000=0.117188,
197.000000=0.234375,
197.500000=0.234375,
198.000000=0.234375
;
#BGCHANGES:;
#KEYSOUNDS:;
#ATTACKS:;

//---------------dance-single - ----------------
#NOTES:
     dance-single:
     :
     Beginner:
     2:
     0.088852,0.161719,0.134287,0.000000,0.000000,88.000000,69.000000,19.000000,0.000000,0.000000,0.000000,0.000000,0.000000,0.000000,0.088852,0.161719,0.134287,0.000000,0.000000,88.000000,69.000000,19.000000,0.000000,0.000000,0.000000,0.000000,0.000000,0.000000:
// measure 0
0000
0000
0000
0000
,  // measure 1
0000
0000
0000
0000
,  // measure 2
0000
0000
0000
0000
,  // measure 3
0000
0000
0000
0000
,  // measure 4
1000
0000
0000
0000
,  // measure 5
0000
0000
0000
0000
,  // measure 6
0001
0000
0000
0000
,  // measure 7
0000
0000
0110
0000
,  // measure 8
0000
0000
0000
0000
,  // measure 9
0000
0000
0000
0000
,  // measure 10
0000
0000
0000
0000
,  // measure 11
0000
0000
1000
0000
,  // measure 12
0000
0000
1000
0000
,  // measure 13
0000
0000
0001
0000
,  // measure 14
0000
0000
0001
0000
,  // measure 15
0000
0000
0110
0000
,  // measure 16
0000
0000
1001
0000
,  // measure 17
0000
0000
0110
0000
,  // measure 18
0000
0000
0000
0000
,  // measure 19
0000
1000
0000
0000
0000
1000
0000
0000
,  // measure 20
0000
1000
0000
0000
0000
0000
0000
0000
,  // measure 21
0000
0001
0000
0000
0000
0001
0000
0000
,  // measure 22
0000
0001
0000
0000
0000
0000
0000
0000
,  // measure 23
0000
0000
0000
0000
0000
0100
0000
0000
,  // measure 24
0000
0000
0000
0000
0000
0100
0000
0000
,  // measure 25
0000
0010
0000
0000
0000
0010
0000
0000
,  // measure 26
0000
0110
0000
0000
0000
0000
0000
0000
,  // measure 27
0000
1000
0000
0000
0000
1000
0000
0000
,  // measure 28
0000
1000
0000
0000
0000
0000
0000
0000
,  // measure 29
0000
0001
0000
0000
0000
0001
0000
0000
,  // measure 30
0000
0001
0000
0000
0000
0000
0000
0000
,  // measure 31
0000
0000
0000
0000
0000
0100
0000
0000
,  // measure 32
0000
0000
0000
0000
0000
0100
0000
0000
,  // measure 33
0000
0010
0000
0000
0000
0010
0000
0000
,  // measure 34
0000
0110
0000
0000
1000
0000
0000
0000
,  // measure 35
0000
0000
1000
0000
,  // measure 36
0000
0000
0001
0000
,  // measure 37
0000
0000
0001
0000
,  // measure 38
0000
0000
0100
0000
,  // measure 39
0000
0000
0100
0000
,  // measure 40
0000
0000
0010
0000
,  // measure 41
0000
0000
0000
0000
,  // measure 42
0000
0110
0000
0000
,  // measure 43
0000
1001
0000
0000
,  // measure 44
0000
0110
0000
0000
,  // measure 45
0000
1001
0000
0000
,  // measure 46
0000
0110
0000
0000
,  // measure 47
0000
1001
0000
0000
,  // measure 48
0000
0110
0000
0000
,  // measure 49
0000
0000
0000
0000
0000
0000
0000
1000
,  // measure 50
0000
0000
0000
1000
0000
0000
0000
1000
,  // measure 51
0000
0000
0000
0000
0000
0000
0000
0001
,  // measure 52
0000
0000
0000
0001
0000
0000
0000
0001
,  // measure 53
0000
0000
0000
0000
,  // measure 54
0000
0000
0000
0100
0000
0000
0000
0000
,  // measure 55
0000
0000
0000
0100
0000
0000
0000
0010
,  // measure 56
0000
0000
0000
0010
0000
0000
0000
0110
,  // measure 57
0000
0000
0000
1000
0000
0000
0000
0110
,  // measure 58
0000
0000
0000
0000
0000
0000
0000
0110
,  // measure 59
0000
0000
0000
0001
0000
0000
0000
0110
,  // measure 60
0000
0000
0000
0000
0000
0000
0000
0110
,  // measure 61
0000
0000
0000
0000
0000
0000
0000
0100
,  // measure 62
0000
0000
0000
0000
0000
0000
0000
0100
,  // measure 63
0000
0000
0000
0010
0000
0000
0000
0010
,  // measure 64
0000
0000
0000
0000
0000
0000
0000
0010
,  // measure 65
0000
0000
0000
0110
0000
0000
0000
0000
;

//---------------dance-single - ----------------
#NOTES:
     dance-single:
     :
     Easy:
     6:
     0.220110,0.277232,0.106016,0.028271,0.000000,218.000000,203.000000,15.000000,4.000000,0.000000,0.000000,0.000000,0.000000,0.000000,0.220110,0.277232,0.106016,0.028271,0.000000,218.000000,203.000000,15.000000,4.000000,0.000000,0.000000,0.000000,0.000000,0.000000:
0000
0000
0000
0000
,
0000
0000
0000
0000
,
0000
0000
0000
0000
,
0000
0000
0000
0000
,
1000
0000
0000
0001
0000
0000
0000
0000
,
0100
0010
0100
0000
,
0001
0000
0000
1000
0000
0000
0000
0000
,
0110
0000
1000
0000
,
0001
0000
0100
0000
,
0010
0000
1000
0000
,
0001
0000
0100
0000
,
0010
0000
1000
1000
,
1000
1000
0001
0001
,
0001
0001
0100
0100
,
0100
0100
0010
0010
,
0010
0000
0100
0010
,
0100
0000
0001
1000
,
0001
0000
0100
0010
,
0100
0000
0010
0000
0110
1001
0110
0000
,
0000
1000
0000
0100
0000
0010
0000
0000
,
0000
0001
0000
0010
0000
0100
0000
0000
,
0000
1000
0000
0100
0000
0010
0000
0000
,
0000
0001
0000
0010
0000
0100
0000
1000
,
0000
0110
0000
0001
0000
0010
0000
0100
,
0000
0010
0000
0001
0000
0010
0000
0100
,
0000
1000
0000
0100
0000
0010
0000
0100
,
0000
1000
0000
0001
0000
1000
0000
0001
,
0000
0100
0000
0010
0000
0100
0000
0000
,
0000
0010
0000
0100
0000
0010
0000
0000
,
0000
1000
0000
0001
0000
1000
0000
0000
,
0000
0001
0000
1000
0000
0001
0000
0000
,
0000
0110
0000
1000
0000
0100
0000
0010
,
0000
0100
0000
1000
0000
0100
0000
0010
,
0000
0001
0000
0010
0000
0100
0000
0010
,
0000
0110
0000
0000
1000
0000
1000
0000
,
1000
1000
0001
0001
,
0001
0001
0100
0100
,
0100
0100
0010
0010
,
0010
0010
1000
0001
,
1000
0001
0100
0010
,
0100
0010
1000
0100
,
0010
0001
0110
0000
,
0000
1000
0100
1000
,
0000
0001
0010
0001
,
0000
0100
0010
0100
,
0000
0010
0100
0010
,
0000
1000
0001
1000
,
0000
0001
1000
0001
,
0000
0100
0010
0100
,
0010
0000
0110
1001
0110
0000
0000
1000
,
0000
0100
0000
0010
0000
0000
0000
0001
,
0000
0010
0000
0100
0000
0000
0000
1000
,
0000
0100
0000
0010
0000
0000
0000
0001
,
0000
0010
0000
0100
0000
1000
0000
0110
,
0000
0001
0000
0010
0000
0100
0000
0010
,
0000
0001
0000
0010
0000
0100
0000
1000
,
0000
0100
0000
0010
0000
0100
0000
0110
,
0000
0000
0000
2000
0000
0000
0000
3100
,
0000
0000
0000
0002
0000
0000
0000
0013
,
0000
0000
0000
0200
0000
0000
0000
0310
,
0000
0000
0000
0020
0000
0000
0000
0130
,
0000
0000
0000
0110
0000
1000
0000
0100
,
0000
0010
0000
0100
0000
1000
0000
0100
,
0000
0010
0000
0001
0000
0010
0000
0100
,
0000
0010
0000
0001
0000
0010
0000
0100
,
0000
1000
0000
0110
0000
0000
0000
0000
;

//---------------dance-single - ----------------
#NOTES:
     dance-single:
     :
     Medium:
     11:
     0.402861,0.508259,0.197897,0.091881,0.007068,399.000000,371.000000,28.000000,13.000000,0.000000,0.000000,0.000000,0.000000,0.000000,0.402861,0.508259,0.197897,0.091881,0.007068,399.000000,371.000000,28.000000,13.000000,0.000000,0.000000,0.000000,0.000000,0.000000:
0000
0000
0000
0000
,
0000
0000
0000
0000
,
0000
0000
0000
0000
,
0000
0000
0000
0000
,
1000
0100
1000
0100
0000
0001
0010
0100
,
0000
1000
0001
1000
0110
0000
0000
0000
,
0001
0010
0001
0010
0000
1000
0100
0010
,
0110
0000
1000
0001
1000
0000
1000
0000
,
1000
1000
0001
0001
,
0001
0001
0100
0100
,
0100
0100
0010
0010
,
0010
0010
1000
0001
,
1000
0010
0100
0010
,
0100
0000
0010
0000
1000
0001
1000
0001
,
1000
0001
1000
0001
0100
0010
0100
0010
,
0100
0010
0000
0000
1000
0100
0010
0100
,
1000
0000
0000
0000
0001
0010
0100
0010
,
0001
0000
0000
0000
1000
0100
0001
0010
,
1000
0100
0001
0010
1100
0110
0011
0110
,
0000
1000
0100
0010
0100
1000
0010
0100
,
0010
0001
0010
0100
0010
0001
0100
0010
,
0100
1000
0100
0010
0100
1000
0010
0100
,
0010
0001
0010
0100
1000
0110
0000
1001
,
0000
0110
0000
0002
0003
0010
0100
1000
,
0100
0010
0000
2000
3000
0100
0010
0001
,
0010
0100
0000
0002
0003
0010
0100
1000
,
0100
0110
0000
0010
0100
0010
0100
0010
,
0000
1001
0110
0001
0010
0100
1000
0100
,
1000
0110
1001
1000
0100
0010
0001
0010
,
0100
0110
1001
0001
0010
0100
1000
0100
,
1000
0110
0000
1001
0010
0100
1000
0100
,
0010
0001
0000
0002
0003
0010
0100
1000
,
0100
0010
0000
2000
3000
0100
0010
0001
,
0010
0100
0000
0002
0003
0010
0100
1000
,
0100
0110
1000
0001
1000
0000
1000
0000
,
1000
1000
0001
0001
,
0001
0001
0100
0100
,
0100
0100
0010
0010
,
0010
0000
0010
0000
1000
0001
1000
0001
,
1000
0001
1000
0001
0100
0010
0100
0010
,
0100
0010
0100
0010
1000
0100
0001
0010
,
1000
0000
0100
0000
0001
0000
0010
0000
0100
0010
0100
0010
0100
0000
0000
0000
,
0000
0000
1000
0100
0010
0100
1000
0000
,
0000
0000
0001
0010
0100
0010
0001
0000
,
0000
0000
0100
1000
0100
0010
0100
0000
,
0000
0000
0010
0100
0010
0001
0010
0000
,
0000
0000
1000
0001
1000
0001
1000
0000
,
0000
0000
0010
0100
0010
0100
0010
0000
,
0000
0000
1000
0100
0001
0010
1000
0100
,
0001
0010
1100
0110
0011
0110
0000
1000
,
0100
0010
0100
1000
0010
0100
0010
0001
,
0010
0100
0010
0001
0100
0010
0100
1000
,
0100
0010
0100
1000
0010
0100
0010
0001
,
0010
0100
1000
0110
0000
1001
0000
0110
,
0000
0002
0003
0010
0100
1000
0100
0010
,
0000
2000
3000
0100
0010
0001
0010
0100
,
0000
0002
0003
0010
0100
1000
0100
0110
,
0010
0100
0010
1000
0000
0100
0000
0010
,
0001
0010
0000
0001
0000
0010
0000
0100
,
1000
0100
0000
0010
0000
0100
0000
0010
,
0100
0010
0000
0100
0000
0010
0000
1000
,
0100
0010
0001
0000
0000
0002
0003
0010
,
0100
1000
0100
0010
0000
2000
3000
0100
,
0010
0001
0010
0100
0000
0002
0003
0010
,
0100
1000
0100
0010
0000
2000
3000
0100
,
0010
0100
0010
1001
0000
0000
0000
0000
;

//---------------dance-single - ----------------
#NOTES:
     dance-single:
     :
     Hard:
     16:
     0.741103,0.808593,1.194448,0.473538,0.434666,734.000000,565.000000,169.000000,67.000000,0.000000,0.000000,0.000000,0.000000,0.000000,0.741103,0.808593,1.194448,0.473538,0.434666,734.000000,565.000000,169.000000,67.000000,0.000000,0.000000,0.000000,0.000000,0.000000:
0000
0000
0000
0000
,
0000
0000
0000
0000
,
0000
0000
0000
0000
,
0000
0000
0000
0000
,
0100
0010
0100
0010
1000
0001
1000
0000
0000
0000
0100
0000
0010
0000
0001
0000
,
0110
0000
1001
0000
0010
0100
0010
0100
0010
1000
0100
0010
0001
0000
0110
0000
,
0010
0100
0010
0100
0001
1000
0001
0000
0000
0000
0011
0000
0110
0000
1100
0000
,
0110
0000
0000
0000
0000
0000
1000
0000
0001
1000
0000
0000
1000
0000
0000
0100
0000
0000
0010
0000
0000
0100
0000
0000
,
1000
0100
1000
0100
0010
0001
0010
0100
,
0010
0001
0010
0001
0010
0100
1000
0100
,
0010
0100
1000
0100
0010
0001
0010
0100
,
0010
0001
0010
0001
1000
0100
0010
0100
,
1000
0100
0010
0100
0001
0010
0100
0010
,
0001
0010
0100
0010
1000
0001
1000
0001
,
1000
0000
0001
0000
1000
0000
0001
0000
0100
0010
0100
0010
0100
0010
0100
0010
,
0001
1000
0001
1000
0000
0000
0000
0000
1000
0100
0010
0100
1000
0100
0010
0100
,
1000
0000
0110
0000
1001
0000
0110
0000
0001
0010
0100
0010
0001
0010
0100
0010
,
0001
0000
0110
0000
1001
0000
0110
0000
1000
0100
0010
0100
0001
0010
0100
0010
,
1000
0100
0010
0100
0001
0010
0100
0010
1100
0000
0110
0000
0011
0000
0110
0000
,
1001
0000
1000
0100
0010
0100
0001
0010
0100
0010
0110
0000
1100
0000
0110
0000
,
0011
0000
1000
0100
0010
0100
0001
0010
0100
0010
0110
0000
1000
0001
0100
0010
,
0100
0000
1000
0100
0010
0100
0001
0010
0100
0010
0110
0000
0011
0000
0110
0000
,
1100
0000
0010
0100
0010
0100
0001
1000
0001
1000
0110
0000
1100
0000
0110
0000
,
0011
0000
0000
0110
0000
0000
0100
0010
0100
1001
0000
0000
0000
0000
0000
0011
0000
0000
1100
0000
0000
0110
0000
0000
,
1001
0100
0010
0100
0000
1100
0011
0110
,
1001
0000
0000
0110
0000
0000
0010
0100
0010
1001
0000
0000
0000
0000
0000
0011
0000
0000
1100
0000
0000
0110
0000
0000
,
1001
0110
0000
0001
0010
0100
1000
0100
,
0010
0000
0002
0000
0023
0000
0031
0010
0100
1000
0100
0000
1100
0000
0110
0000
,
0011
0000
2000
0000
3200
0000
1300
0100
0010
0001
0010
0000
0100
0010
1000
0001
,
1000
0000
0002
0000
0023
0000
0031
0010
0100
1000
0100
0000
0011
0000
0110
0000
,
1100
0000
0010
0100
0010
0100
0001
1000
0001
1000
0110
0000
1100
0000
0110
0000
,
0011
0000
0000
0110
0000
0000
0100
0010
0100
1001
0000
0000
0000
0000
0000
0011
0000
0000
1100
0000
0000
0110
0000
0000
,
1001
0100
0010
0100
0000
1100
0011
0110
,
1001
0000
0000
0110
0000
0000
0010
0100
0010
1001
0000
0000
0000
0000
0000
0011
0000
0000
1100
0000
0000
0110
0000
0000
,
1001
0000
0000
0110
0000
0000
0100
0000
0010
0100
0000
0000
1000
0000
0000
0100
0000
0000
0010
0000
0000
0100
0000
0000
,
1000
0100
1000
0100
0010
0001
0010
0100
,
0010
0001
0010
0001
0010
0100
1000
0100
,
0010
0100
1000
0100
0010
0001
0010
0100
,
0010
0001
0010
0001
1000
0100
0010
0100
,
1000
0100
0010
0100
0001
0010
0100
0010
,
0001
0010
0100
0010
1000
0001
1000
0001
,
1000
0000
0001
0000
1000
0000
0001
0000
0110
1001
0110
1001
0110
0000
0000
0000
,
0000
0000
2000
3200
0320
0230
1300
0011
,
0110
1100
0002
0023
0230
0320
0031
1100
,
0110
0011
2000
3200
0320
0230
1300
0011
,
0110
1100
0002
0023
0230
0320
0031
0220
,
0000
0330
2000
3200
0320
0230
1300
0011
,
0110
1100
0002
0023
0230
0320
0031
1100
,
0110
0011
1000
0001
1000
0001
0100
0010
,
0100
0000
0000
0000
0010
0000
0000
0000
1100
0000
0000
0000
0110
0000
0000
0000
0011
0000
0000
0000
0110
0000
0000
0000
1001
0000
0000
0000
2200
3300
0000
0000
,
2020
3030
0000
0000
2200
3300
0000
0000
2020
3030
0000
0000
2200
3300
0000
0000
0100
0000
0000
0000
0010
0000
0000
0000
0100
0000
0000
0000
0022
0033
0000
0000
,
0202
0303
0000
0000
0022
0033
0000
0000
0202
0303
0000
0000
0022
0033
0000
0000
0010
0000
0100
0000
1000
0000
0001
0000
1000
0000
0000
0000
2200
3300
0000
0000
,
2020
3030
0000
0000
2200
3300
0000
0000
2020
3030
0000
0000
2200
3300
0000
0000
0100
0000
0000
0000
0010
0000
0000
0000
0100
0000
0000
0000
0022
0033
0000
0000
,
0001
0000
0010
0000
0022
0033
0000
0000
0202
0000
0000
0000
0110
0000
0000
0000
1100
0000
0000
0000
0110
0000
0000
0000
0011
0000
0000
0000
0110
0000
0000
0000
,
0100
0010
0100
1001
0000
0000
0000
0000
0000
0011
0000
0000
1100
0000
0000
0110
0000
0000
1001
0000
0000
0100
0000
0000
,
0010
0100
0000
1100
0011
0110
1001
0110
,
0010
0100
0010
1001
0000
0000
0000
0000
0000
0011
0000
0000
1100
0000
0000
0110
0000
0000
1001
0000
0000
0110
0000
0000
,
0010
0100
0001
1000
0002
1003
0100
0010
0000
1000
0001
1000
0000
0010
0100
0000
,
0011
0000
0110
0000
1100
0000
0010
0100
0000
0001
1000
0001
0000
0100
0010
0000
,
1000
0100
0010
0001
0010
0000
0100
0010
0000
1000
0001
1000
0000
0010
0100
0000
,
0011
0000
0110
0000
1100
0000
0010
0100
0000
0001
1000
0001
0000
0100
0010
0000
,
1100
0000
0000
0110
0000
0000
0011
0000
0000
0110
0000
0000
0100
0010
0100
1001
0000
0000
0000
0000
0000
0011
0000
0000
,
1100
0110
1001
0100
0010
0100
0000
1100
,
0011
0000
0000
0110
0000
0000
1001
0000
0000
0110
0000
0000
0010
0100
0010
1001
0000
0000
0000
0000
0000
0011
0000
0000
,
1100
0110
1001
0100
0010
0100
0000
0110
,
1001
1100
0011
0110
0000
0000
0000
0000
;
