#TITLE:Dirt Heater Tea;
#SUBTITLE:;
#ARTIST:Herobust;
#TITLETRANSLIT:;
#SUBTITLETRANSLIT:;
#ARTISTTRANSLIT:;
#GENRE:;
#CREDIT:;
#BANNER:;
#BACKGROUND:;
#LYRICSPATH:;
#CDTITLE:;
#MUSIC:Dirt Heater Tea.ogg;
#OFFSET:-0.480000;
#SAMPLESTART:26.087961;
#SAMPLELENGTH:12.799990;
#SELECTABLE:YES;
#BPMS:0.000000=150.000259
,56.000000=74.999977
,58.000000=150.000107
,238.000000=74.999832
,240.000000=149.999924
,242.000000=599.995361
,244.000000=599.994873
,246.000000=149.999039
,264.500000=599.994568
,268.000000=149.998734
;
#STOPS:58.000000=0.200001,
58.500000=0.199999,
59.000000=0.199999,
59.500000=0.199999,
120.000000=0.200001,
120.500000=0.200001,
121.000000=0.200001,
121.500000=0.200001,
178.000000=1.599998,
240.000000=0.199997,
240.500000=0.200005,
241.000000=0.200005,
241.500000=0.200005,
248.000000=0.200005,
248.500000=0.199997,
249.000000=0.199997,
249.500000=0.199997,
250.000000=0.199997,
250.500000=0.199997,
251.000000=0.099998,
251.250000=0.100006,
251.500000=0.200005,
252.000000=0.199997,
252.500000=0.199997,
253.000000=0.199997,
253.500000=0.199997,
258.000000=0.200005,
258.500000=0.199997,
259.000000=0.199997,
259.500000=0.199997,
260.000000=0.199997,
260.500000=0.199997,
261.000000=0.099998,
261.250000=0.100006,
261.500000=0.200005,
262.000000=0.199997,
262.500000=0.199997,
263.000000=0.199997,
263.500000=0.199997,
264.000000=0.199997,
270.000000=0.200005,
270.500000=0.199997,
271.000000=0.199997,
271.500000=0.199997,
272.000000=0.199997,
272.500000=0.199997,
273.000000=0.099998,
273.250000=0.100006,
273.500000=0.200005,
274.000000=0.199997,
274.500000=0.199997,
275.000000=0.199997,
275.500000=0.199997,
280.000000=0.199997,
280.500000=0.199997,
281.000000=0.199997,
281.500000=0.199997,
282.000000=0.199997,
282.500000=0.199997,
283.000000=0.099998,
283.250000=0.100006,
283.500000=0.200005,
284.000000=0.199997,
284.500000=0.199997,
285.000000=0.199997,
285.500000=0.199997,
286.000000=2.400024
;
#BGCHANGES:;
#KEYSOUNDS:;
#ATTACKS:;

//---------------dance-single - ----------------
#NOTES:
     dance-single:
     :
     Beginner:
     3:
     0.099365,0.165774,0.193210,0.061827,0.000000,90.000000,65.000000,25.000000,8.000000,0.000000,0.000000,0.000000,0.000000,0.000000,0.099365,0.165774,0.193210,0.061827,0.000000,90.000000,65.000000,25.000000,8.000000,0.000000,0.000000,0.000000,0.000000,0.000000:
0000
0000
0000
0000
,
0000
0000
0000
0000
,
0000
0000
0000
0000
,
0000
0000
0000
0000
,
0000
0000
0000
0000
,
0000
0000
0000
0000
,
0000
0000
0000
0000
,
0000
0000
0000
0000
,
1001
0000
0000
0000
,
0000
0000
0000
0000
,
0110
0000
0000
0000
,
0000
0000
0000
0000
,
1001
0000
0000
0000
,
0000
0000
0000
0000
,
0110
0000
0000
0000
,
0110
0000
0000
0200
,
0000
0320
0000
0000
,
0130
0000
1000
0000
,
0001
0000
1000
0000
,
0110
0000
0000
0020
,
0000
0230
0000
0000
,
0310
0000
0001
0000
,
1000
0000
0001
0000
,
0110
0000
0000
0200
,
0000
0320
0000
0000
,
0130
0000
1000
0000
,
0001
0000
1000
0000
,
0110
0000
0000
0020
,
0000
0230
0000
0000
,
0310
0000
0000
0000
,
0000
0000
0110
0000
,
0000
0000
0100
0000
,
0000
0000
0010
0000
,
0000
0000
0100
0000
,
0000
0000
1001
0000
,
0000
0000
0010
0000
,
0000
0000
0100
0000
,
0000
0000
0010
0000
,
0000
0000
0110
0000
,
0000
0000
0100
0000
,
0000
0000
0010
0000
,
0000
0000
0100
0000
,
0000
0000
1001
0000
,
0000
0000
0010
0000
,
0000
0000
0100
0000
,
0000
0000
0110
0000
,
0000
0000
0000
0000
,
0000
0000
1001
0000
,
0000
0000
0000
0000
,
0000
0000
0110
0000
,
0000
0000
0000
0000
,
0000
0000
1001
0000
,
0000
0000
0000
0000
,
0000
0000
1100
0000
,
0000
0000
0000
0000
,
0000
0000
0110
0000
,
0000
0000
0000
0000
,
0000
0000
0011
0000
,
0000
0000
0000
0000
,
0000
0000
1001
0000
,
0000
0000
0110
0000
,
0000
0000
0000
0000
,
1000
0000
0000
0000
0000
0001
0000
0000
,
0000
0000
0000
1001
,
0000
0000
0010
0000
,
0000
0100
0000
0000
0000
0000
0000
0000
,
0000
0110
0000
0000
0000
0000
0000
0000
,
0000
0000
1000
0000
,
0000
0001
0000
0000
0000
0000
0000
0000
,
0000
1001
0000
0000
,
0010
0000
0000
0000
0000
0100
0000
0000
,
0000
0000
0110
0000
;

//---------------dance-single - ----------------
#NOTES:
     dance-single:
     :
     Easy:
     7:
     0.313552,0.414435,0.409605,0.046370,0.000000,284.000000,231.000000,53.000000,6.000000,0.000000,0.000000,0.000000,0.000000,0.000000,0.313552,0.414435,0.409605,0.046370,0.000000,284.000000,231.000000,53.000000,6.000000,0.000000,0.000000,0.000000,0.000000,0.000000:
0000
0000
0000
0000
,
0000
0000
0000
0000
,
0000
0000
0000
0000
,
0000
0000
0000
0000
,
0000
0000
0000
0000
,
0000
0000
0000
0000
,
0000
0000
0000
0000
,
0000
0000
0000
0000
,
1000
0100
0010
0001
,
0110
1001
0110
0000
,
0001
0010
0100
1000
,
0110
1001
0110
0000
,
1000
0100
0001
0010
,
0110
1001
0110
0000
,
1001
0000
0000
0000
1000
0100
0010
0001
,
0110
1000
0001
0110
,
0000
1000
0100
0010
,
0001
0010
0100
0010
,
1000
0001
1000
0000
0110
0000
1001
0000
,
0110
1000
0001
0110
,
0000
0001
0010
0100
,
1000
0100
0010
0100
,
0001
0010
0100
1000
,
0110
1000
0001
0110
,
0000
1000
0100
0010
,
0001
0010
0100
0010
,
1000
0001
1000
0000
0110
0000
1001
0000
,
0110
1000
0001
0110
,
0000
0001
0010
0100
,
1000
0000
0000
0000
,
1000
0100
0010
0001
0110
0000
0000
0000
,
0000
1000
0001
0100
,
0010
0100
0000
0000
,
0000
0001
1000
0010
,
0100
0000
0110
0000
,
0000
1000
0001
0100
,
0010
0100
0000
0000
,
0000
0001
1000
0010
,
0100
0000
0220
0330
,
0000
0000
0100
0010
,
0100
0010
0000
0000
,
0000
0001
1000
0010
,
0100
0000
0110
0000
,
0000
1000
0001
0100
,
0010
0100
0110
0000
,
0000
0000
1000
0100
,
0010
0001
0110
1001
,
0110
0000
0001
0010
,
0100
1000
0110
1001
,
0110
0000
1000
0100
,
0001
0010
0110
1001
,
0110
0000
0001
0010
,
1000
0100
0110
1001
,
0110
0000
1000
0100
,
0010
0001
0110
1001
,
0110
0000
0001
0010
,
0100
1000
0110
1001
,
0110
0000
1000
0100
,
0001
0010
0110
1001
,
0110
0000
1001
0000
,
1000
0100
0010
0001
0220
0000
0000
0000
,
0000
0000
0330
0000
,
1000
1000
1000
1000
1000
1000
0100
0001
,
0001
0001
0001
0001
0001
0000
0110
0000
,
0000
0000
0000
0000
0010
0010
0010
0010
,
0010
0010
0001
0100
0100
1000
0100
0010
,
0001
0220
0000
0000
0000
0000
0000
0000
,
0330
0000
0000
0000
0001
0001
0001
0001
,
0001
0001
0010
1000
1000
1000
1000
1000
,
1000
0110
0000
0000
,
0100
0100
0100
0100
0100
0100
1000
0010
,
0010
1000
0100
0010
0001
0000
0000
0000
;

//---------------dance-single - ----------------
#NOTES:
     dance-single:
     :
     Medium:
     11:
     0.430582,0.884128,0.950592,0.108198,0.019321,390.000000,267.000000,123.000000,14.000000,0.000000,0.000000,0.000000,0.000000,0.000000,0.430582,0.884128,0.950592,0.108198,0.019321,390.000000,267.000000,123.000000,14.000000,0.000000,0.000000,0.000000,0.000000,0.000000:
0000
0000
0000
0000
,
0000
0000
0000
0000
,
0000
0000
0000
0000
,
0000
0000
0000
0000
,
0000
0000
0000
0000
,
0000
0000
0000
0000
,
0000
0000
0000
0000
,
0000
0000
0000
0000
,
1000
0100
0010
0001
,
0010
0100
1000
0110
,
0001
0010
0100
1000
,
0100
0010
0001
0110
,
1001
1100
0110
0011
,
0110
1001
0110
1001
,
0110
0000
0000
0000
0110
1001
0110
1001
,
0110
0000
1000
0100
0010
0000
0220
0000
,
0330
0001
0010
0100
,
1000
0000
0001
0010
0001
0000
0110
0000
,
1000
0100
1000
0000
0110
0000
1001
0000
,
0110
0000
0001
0010
0100
0000
0220
0000
,
0330
1000
0100
0010
,
0001
0000
1000
0100
1000
0000
0110
0000
,
0011
0110
1100
0110
,
1001
0000
1000
0100
0010
0000
0220
0000
,
0330
1000
0100
0010
,
0001
0000
1000
0100
1000
0000
0110
0000
,
0001
0010
0001
0000
0110
0000
1001
0000
,
0110
0000
0001
0010
0100
0000
0220
0000
,
0330
0001
0010
0100
,
1000
0000
0000
0000
,
1100
0110
0011
0110
1001
0000
0000
0000
,
0000
0001
0010
1000
,
0100
0110
1001
0000
,
0000
1000
0100
0001
,
0010
0000
0110
0000
,
0000
0001
0010
1000
,
0100
0110
1001
0000
,
0000
1000
0100
0001
,
0010
0000
0000
0000
0220
0000
0000
0330
,
0000
0000
0001
0010
,
0100
1000
0110
0000
,
0000
1000
0100
0010
,
0001
0000
0110
0000
,
0000
0001
0010
1000
,
0100
0000
0000
0000
0000
0000
0000
0000
0000
0000
0000
0000
0000
0000
0000
0000
0000
0000
0000
0000
0000
0000
0000
0000
0000
0000
0000
0000
0000
0000
0000
0000
0000
0000
0000
0000
0000
0000
0000
0000
0000
0000
0000
0000
0000
0000
0000
0000
0110
0000
0000
0000
0000
0000
0000
0000
0000
0000
0000
0000
0000
0000
0000
0000
0000
0000
0000
0000
0000
0000
0000
0000
0000
0000
0000
0000
0000
0000
0000
0000
0000
0000
0000
0000
0000
0000
0000
0000
0000
0000
0000
0000
0000
0000
0000
0000
1001
0100
0000
0000
0000
0000
0000
0000
0000
0000
0000
0000
0000
0000
0000
0000
0000
0000
0000
0000
0000
0000
0000
0000
0000
0000
0000
0000
0000
0000
0000
0000
0000
0000
0000
0000
0000
0000
0000
0000
0000
0000
0000
0000
0000
0000
0000
0000
0010
0000
0000
0000
0000
0000
0000
0000
0000
0000
0000
0000
0000
0000
0000
0000
0000
0000
0000
0000
0000
0000
0000
0000
0000
0000
0000
0000
0000
0000
0000
0000
0000
0000
0000
0000
0000
0000
0000
0000
0000
0000
0000
0000
0000
0000
0000
0000
,
0100
0110
0001
0010
,
0100
1000
0100
0010
,
0001
0110
1000
0100
,
0010
0001
0010
0100
,
1000
0110
0001
0010
,
0100
1000
0100
0010
,
0001
0110
1000
0100
,
0010
0001
0010
0100
,
1000
0110
0001
0010
,
0001
0010
1000
0100
,
1000
0100
0001
0010
,
0100
1000
0001
0010
,
0100
1000
0010
0100
,
0010
0000
0100
0000
1000
0001
1000
0001
,
1000
0001
1000
0001
0110
0000
0000
0000
,
0110
1001
0110
1001
0220
0000
0000
0000
,
0000
0000
0330
1001
,
1100
0000
1100
0000
1100
0000
1100
0000
1100
0000
1100
0000
0110
0110
0011
0000
,
0011
0011
0011
0011
0110
0000
1001
0000
,
0000
0000
0110
0000
0011
0011
0011
0011
,
0011
0000
0011
0000
0110
0110
1100
0000
1100
0000
0110
0000
1001
0000
0110
0000
,
1001
0220
0000
0000
0000
0000
0000
0000
,
0330
0000
1001
0000
1100
1100
1100
1100
,
1100
0000
1100
0000
0110
0110
0011
0000
0011
0000
0011
0000
0011
0000
0011
0000
,
0110
1001
0000
0110
,
0011
0000
0011
0000
0011
0000
0011
0000
0011
0000
0011
0000
0110
0110
1100
0000
,
1100
0110
1001
0110
1001
0000
0000
0000
;

//---------------dance-single - ----------------
#NOTES:
     dance-single:
     :
     Medium:
     12:
     0.430582,0.884128,0.950592,0.108198,0.019321,390.000000,267.000000,123.000000,14.000000,0.000000,0.000000,0.000000,0.000000,0.000000,0.430582,0.884128,0.950592,0.108198,0.019321,390.000000,267.000000,123.000000,14.000000,0.000000,0.000000,0.000000,0.000000,0.000000:
0000
0000
0000
0000
,
0000
0000
0000
0000
,
0000
0000
0000
0000
,
0000
0000
0000
0000
,
0000
0000
0000
0000
,
0000
0000
0000
0000
,
0000
0000
0000
0000
,
0000
0000
0000
0000
,
1000
0100
0010
0001
,
0010
0100
1000
0110
,
0001
0010
0100
1000
,
0100
0010
0001
0110
,
1001
1100
0110
0011
,
0110
1001
0110
1001
,
0110
0000
0000
0000
0110
1001
0110
1001
,
0110
0000
1000
0100
0010
0000
0220
0000
,
0330
0001
0010
0100
,
1000
0000
0001
0010
0001
0000
0110
0000
,
1000
0100
1000
0000
0110
0000
1001
0000
,
0110
0000
0001
0010
0100
0000
0220
0000
,
0330
1000
0100
0010
,
0001
0000
1000
0100
1000
0000
0110
0000
,
0011
0110
1100
0110
,
1001
0000
1000
0100
0010
0000
0220
0000
,
0330
1000
0100
0010
,
0001
0000
1000
0100
1000
0000
0110
0000
,
0001
0010
0001
0000
0110
0000
1001
0000
,
0110
0000
0001
0010
0100
0000
0220
0000
,
0330
0001
0010
0100
,
1000
0000
0000
0000
,
1100
0110
0011
0110
1001
0000
0000
0000
,
0000
0001
0010
1000
,
0100
0110
1001
0000
,
0000
1000
0100
0001
,
0010
0000
0110
0000
,
0000
0001
0010
1000
,
0100
0110
1001
0000
,
0000
1000
0100
0001
,
0010
0000
0000
0000
0220
0000
0000
0330
,
0000
0000
0001
0010
,
0100
1000
0110
0000
,
0000
1000
0100
0010
,
0001
0000
0110
0000
,
0000
0001
0010
1000
,
0100
0000
0000
0000
0000
0000
0000
0000
0000
0000
0000
0000
0000
0000
0000
0000
0000
0000
0000
0000
0000
0000
0000
0000
0000
0000
0000
0000
0000
0000
0000
0000
0000
0000
0000
0000
0000
0000
0000
0000
0000
0000
0000
0000
0000
0000
0000
0000
0110
0000
0000
0000
0000
0000
0000
0000
0000
0000
0000
0000
0000
0000
0000
0000
0000
0000
0000
0000
0000
0000
0000
0000
0000
0000
0000
0000
0000
0000
0000
0000
0000
0000
0000
0000
0000
0000
0000
0000
0000
0000
0000
0000
0000
0000
0000
0000
1001
0100
0000
0000
0000
0000
0000
0000
0000
0000
0000
0000
0000
0000
0000
0000
0000
0000
0000
0000
0000
0000
0000
0000
0000
0000
0000
0000
0000
0000
0000
0000
0000
0000
0000
0000
0000
0000
0000
0000
0000
0000
0000
0000
0000
0000
0000
0000
0010
0000
0000
0000
0000
0000
0000
0000
0000
0000
0000
0000
0000
0000
0000
0000
0000
0000
0000
0000
0000
0000
0000
0000
0000
0000
0000
0000
0000
0000
0000
0000
0000
0000
0000
0000
0000
0000
0000
0000
0000
0000
0000
0000
0000
0000
0000
0000
,
0100
0110
0001
0010
,
0100
1000
0100
0010
,
0001
0110
1000
0100
,
0010
0001
0010
0100
,
1000
0110
0001
0010
,
0100
1000
0100
0010
,
0001
0110
1000
0100
,
0010
0001
0010
0100
,
1000
0110
0001
0010
,
0001
0010
1000
0100
,
1000
0100
0001
0010
,
0100
1000
0001
0010
,
0100
1000
0010
0100
,
0010
0000
0100
0000
1000
0001
1000
0001
,
1000
0001
1000
0001
0110
0000
0000
0000
,
0110
1001
0110
1001
0220
0000
0000
0000
,
0000
0000
0330
1001
,
1100
0000
1100
0000
1100
0000
1100
0000
1100
0000
1100
0000
0110
0110
0011
0000
,
0011
0011
0011
0011
0110
0000
1001
0000
,
0000
0000
0110
0000
0011
0011
0011
0011
,
0011
0000
0011
0000
0110
0110
1100
0000
1100
0000
0110
0000
1001
0000
0110
0000
,
1001
0220
0000
0000
0000
0000
0000
0000
,
0330
0000
1001
0000
1100
1100
1100
1100
,
1100
0000
1100
0000
0110
0110
0011
0000
0011
0000
0011
0000
0011
0000
0011
0000
,
0110
1001
0000
0110
,
0011
0000
0011
0000
0011
0000
0011
0000
0011
0000
0011
0000
0110
0110
1100
0000
,
1100
0110
1001
0110
1001
0000
0000
0000
;

//---------------dance-single - ----------------
#NOTES:
     dance-single:
     :
     Beginner:
     3:
     0.099365,0.165774,0.193210,0.061827,0.000000,90.000000,65.000000,25.000000,8.000000,0.000000,0.000000,0.000000,0.000000,0.000000,0.099365,0.165774,0.193210,0.061827,0.000000,90.000000,65.000000,25.000000,8.000000,0.000000,0.000000,0.000000,0.000000,0.000000:
0000
0000
0000
0000
,
0000
0000
0000
0000
,
0000
0000
0000
0000
,
0000
0000
0000
0000
,
0000
0000
0000
0000
,
0000
0000
0000
0000
,
0000
0000
0000
0000
,
0000
0000
0000
0000
,
1001
0000
0000
0000
,
0000
0000
0000
0000
,
0110
0000
0000
0000
,
0000
0000
0000
0000
,
1001
0000
0000
0000
,
0000
0000
0000
0000
,
0110
0000
0000
0000
,
0110
0000
0000
0200
,
0000
0320
0000
0000
,
0130
0000
1000
0000
,
0001
0000
1000
0000
,
0110
0000
0000
0020
,
0000
0230
0000
0000
,
0310
0000
0001
0000
,
1000
0000
0001
0000
,
0110
0000
0000
0200
,
0000
0320
0000
0000
,
0130
0000
1000
0000
,
0001
0000
1000
0000
,
0110
0000
0000
0020
,
0000
0230
0000
0000
,
0310
0000
0000
0000
,
0000
0000
0110
0000
,
0000
0000
0100
0000
,
0000
0000
0010
0000
,
0000
0000
0100
0000
,
0000
0000
1001
0000
,
0000
0000
0010
0000
,
0000
0000
0100
0000
,
0000
0000
0010
0000
,
0000
0000
0110
0000
,
0000
0000
0100
0000
,
0000
0000
0010
0000
,
0000
0000
0100
0000
,
0000
0000
1001
0000
,
0000
0000
0010
0000
,
0000
0000
0100
0000
,
0000
0000
0110
0000
,
0000
0000
0000
0000
,
0000
0000
1001
0000
,
0000
0000
0000
0000
,
0000
0000
0110
0000
,
0000
0000
0000
0000
,
0000
0000
1001
0000
,
0000
0000
0000
0000
,
0000
0000
1100
0000
,
0000
0000
0000
0000
,
0000
0000
0110
0000
,
0000
0000
0000
0000
,
0000
0000
0011
0000
,
0000
0000
0000
0000
,
0000
0000
1001
0000
,
0000
0000
0110
0000
,
0000
0000
0000
0000
,
1000
0000
0000
0000
0000
0001
0000
0000
,
0000
0000
0000
1001
,
0000
0000
0010
0000
,
0000
0100
0000
0000
0000
0000
0000
0000
,
0000
0110
0000
0000
0000
0000
0000
0000
,
0000
0000
1000
0000
,
0000
0001
0000
0000
0000
0000
0000
0000
,
0000
1001
0000
0000
,
0010
0000
0000
0000
0000
0100
0000
0000
,
0000
0000
0110
0000
;

//---------------dance-single - ----------------
#NOTES:
     dance-single:
     :
     Easy:
     7:
     0.313552,0.414435,0.409605,0.046370,0.000000,284.000000,231.000000,53.000000,6.000000,0.000000,0.000000,0.000000,0.000000,0.000000,0.313552,0.414435,0.409605,0.046370,0.000000,284.000000,231.000000,53.000000,6.000000,0.000000,0.000000,0.000000,0.000000,0.000000:
0000
0000
0000
0000
,
0000
0000
0000
0000
,
0000
0000
0000
0000
,
0000
0000
0000
0000
,
0000
0000
0000
0000
,
0000
0000
0000
0000
,
0000
0000
0000
0000
,
0000
0000
0000
0000
,
1000
0100
0010
0001
,
0110
1001
0110
0000
,
0001
0010
0100
1000
,
0110
1001
0110
0000
,
1000
0100
0001
0010
,
0110
1001
0110
0000
,
1001
0000
0000
0000
1000
0100
0010
0001
,
0110
1000
0001
0110
,
0000
1000
0100
0010
,
0001
0010
0100
0010
,
1000
0001
1000
0000
0110
0000
1001
0000
,
0110
1000
0001
0110
,
0000
0001
0010
0100
,
1000
0100
0010
0100
,
0001
0010
0100
1000
,
0110
1000
0001
0110
,
0000
1000
0100
0010
,
0001
0010
0100
0010
,
1000
0001
1000
0000
0110
0000
1001
0000
,
0110
1000
0001
0110
,
0000
0001
0010
0100
,
1000
0000
0000
0000
,
1000
0100
0010
0001
0110
0000
0000
0000
,
0000
1000
0001
0100
,
0010
0100
0000
0000
,
0000
0001
1000
0010
,
0100
0000
0110
0000
,
0000
1000
0001
0100
,
0010
0100
0000
0000
,
0000
0001
1000
0010
,
0100
0000
0220
0330
,
0000
0000
0100
0010
,
0100
0010
0000
0000
,
0000
0001
1000
0010
,
0100
0000
0110
0000
,
0000
1000
0001
0100
,
0010
0100
0110
0000
,
0000
0000
1000
0100
,
0010
0001
0110
1001
,
0110
0000
0001
0010
,
0100
1000
0110
1001
,
0110
0000
1000
0100
,
0001
0010
0110
1001
,
0110
0000
0001
0010
,
1000
0100
0110
1001
,
0110
0000
1000
0100
,
0010
0001
0110
1001
,
0110
0000
0001
0010
,
0100
1000
0110
1001
,
0110
0000
1000
0100
,
0001
0010
0110
1001
,
0110
0000
1001
0000
,
1000
0100
0010
0001
0220
0000
0000
0000
,
0000
0000
0330
0000
,
1000
1000
1000
1000
1000
1000
0100
0001
,
0001
0001
0001
0001
0001
0000
0110
0000
,
0000
0000
0000
0000
0010
0010
0010
0010
,
0010
0010
0001
0100
0100
1000
0100
0010
,
0001
0220
0000
0000
0000
0000
0000
0000
,
0330
0000
0000
0000
0001
0001
0001
0001
,
0001
0001
0010
1000
1000
1000
1000
1000
,
1000
0110
0000
0000
,
0100
0100
0100
0100
0100
0100
1000
0010
,
0010
1000
0100
0010
0001
0000
0000
0000
;

//---------------dance-single - ----------------
#NOTES:
     dance-single:
     :
     Medium:
     11:
     0.430582,0.884128,0.950592,0.108198,0.019321,390.000000,267.000000,123.000000,14.000000,0.000000,0.000000,0.000000,0.000000,0.000000,0.430582,0.884128,0.950592,0.108198,0.019321,390.000000,267.000000,123.000000,14.000000,0.000000,0.000000,0.000000,0.000000,0.000000:
0000
0000
0000
0000
,
0000
0000
0000
0000
,
0000
0000
0000
0000
,
0000
0000
0000
0000
,
0000
0000
0000
0000
,
0000
0000
0000
0000
,
0000
0000
0000
0000
,
0000
0000
0000
0000
,
1000
0100
0010
0001
,
0010
0100
1000
0110
,
0001
0010
0100
1000
,
0100
0010
0001
0110
,
1001
1100
0110
0011
,
0110
1001
0110
1001
,
0110
0000
0000
0000
0110
1001
0110
1001
,
0110
0000
1000
0100
0010
0000
0220
0000
,
0330
0001
0010
0100
,
1000
0000
0001
0010
0001
0000
0110
0000
,
1000
0100
1000
0000
0110
0000
1001
0000
,
0110
0000
0001
0010
0100
0000
0220
0000
,
0330
1000
0100
0010
,
0001
0000
1000
0100
1000
0000
0110
0000
,
0011
0110
1100
0110
,
1001
0000
1000
0100
0010
0000
0220
0000
,
0330
1000
0100
0010
,
0001
0000
1000
0100
1000
0000
0110
0000
,
0001
0010
0001
0000
0110
0000
1001
0000
,
0110
0000
0001
0010
0100
0000
0220
0000
,
0330
0001
0010
0100
,
1000
0000
0000
0000
,
1100
0110
0011
0110
1001
0000
0000
0000
,
0000
0001
0010
1000
,
0100
0110
1001
0000
,
0000
1000
0100
0001
,
0010
0000
0110
0000
,
0000
0001
0010
1000
,
0100
0110
1001
0000
,
0000
1000
0100
0001
,
0010
0000
0000
0000
0220
0000
0000
0330
,
0000
0000
0001
0010
,
0100
1000
0110
0000
,
0000
1000
0100
0010
,
0001
0000
0110
0000
,
0000
0001
0010
1000
,
0100
0000
0000
0000
0000
0000
0000
0000
0000
0000
0000
0000
0000
0000
0000
0000
0000
0000
0000
0000
0000
0000
0000
0000
0000
0000
0000
0000
0000
0000
0000
0000
0000
0000
0000
0000
0000
0000
0000
0000
0000
0000
0000
0000
0000
0000
0000
0000
0110
0000
0000
0000
0000
0000
0000
0000
0000
0000
0000
0000
0000
0000
0000
0000
0000
0000
0000
0000
0000
0000
0000
0000
0000
0000
0000
0000
0000
0000
0000
0000
0000
0000
0000
0000
0000
0000
0000
0000
0000
0000
0000
0000
0000
0000
0000
0000
1001
0100
0000
0000
0000
0000
0000
0000
0000
0000
0000
0000
0000
0000
0000
0000
0000
0000
0000
0000
0000
0000
0000
0000
0000
0000
0000
0000
0000
0000
0000
0000
0000
0000
0000
0000
0000
0000
0000
0000
0000
0000
0000
0000
0000
0000
0000
0000
0010
0000
0000
0000
0000
0000
0000
0000
0000
0000
0000
0000
0000
0000
0000
0000
0000
0000
0000
0000
0000
0000
0000
0000
0000
0000
0000
0000
0000
0000
0000
0000
0000
0000
0000
0000
0000
0000
0000
0000
0000
0000
0000
0000
0000
0000
0000
0000
,
0100
0110
0001
0010
,
0100
1000
0100
0010
,
0001
0110
1000
0100
,
0010
0001
0010
0100
,
1000
0110
0001
0010
,
0100
1000
0100
0010
,
0001
0110
1000
0100
,
0010
0001
0010
0100
,
1000
0110
0001
0010
,
0001
0010
1000
0100
,
1000
0100
0001
0010
,
0100
1000
0001
0010
,
0100
1000
0010
0100
,
0010
0000
0100
0000
1000
0001
1000
0001
,
1000
0001
1000
0001
0110
0000
0000
0000
,
0110
1001
0110
1001
0220
0000
0000
0000
,
0000
0000
0330
1001
,
1100
0000
1100
0000
1100
0000
1100
0000
1100
0000
1100
0000
0110
0110
0011
0000
,
0011
0011
0011
0011
0110
0000
1001
0000
,
0000
0000
0110
0000
0011
0011
0011
0011
,
0011
0000
0011
0000
0110
0110
1100
0000
1100
0000
0110
0000
1001
0000
0110
0000
,
1001
0220
0000
0000
0000
0000
0000
0000
,
0330
0000
1001
0000
1100
1100
1100
1100
,
1100
0000
1100
0000
0110
0110
0011
0000
0011
0000
0011
0000
0011
0000
0011
0000
,
0110
1001
0000
0110
,
0011
0000
0011
0000
0011
0000
0011
0000
0011
0000
0011
0000
0110
0110
1100
0000
,
1100
0110
1001
0110
1001
0000
0000
0000
;

//---------------dance-single - ----------------
#NOTES:
     dance-single:
     :
     Medium:
     12:
     0.430582,0.884128,0.950592,0.108198,0.019321,390.000000,267.000000,123.000000,14.000000,0.000000,0.000000,0.000000,0.000000,0.000000,0.430582,0.884128,0.950592,0.108198,0.019321,390.000000,267.000000,123.000000,14.000000,0.000000,0.000000,0.000000,0.000000,0.000000:
0000
0000
0000
0000
,
0000
0000
0000
0000
,
0000
0000
0000
0000
,
0000
0000
0000
0000
,
0000
0000
0000
0000
,
0000
0000
0000
0000
,
0000
0000
0000
0000
,
0000
0000
0000
0000
,
1000
0100
0010
0001
,
0010
0100
1000
0110
,
0001
0010
0100
1000
,
0100
0010
0001
0110
,
1001
1100
0110
0011
,
0110
1001
0110
1001
,
0110
0000
0000
0000
0110
1001
0110
1001
,
0110
0000
1000
0100
0010
0000
0220
0000
,
0330
0001
0010
0100
,
1000
0000
0001
0010
0001
0000
0110
0000
,
1000
0100
1000
0000
0110
0000
1001
0000
,
0110
0000
0001
0010
0100
0000
0220
0000
,
0330
1000
0100
0010
,
0001
0000
1000
0100
1000
0000
0110
0000
,
0011
0110
1100
0110
,
1001
0000
1000
0100
0010
0000
0220
0000
,
0330
1000
0100
0010
,
0001
0000
1000
0100
1000
0000
0110
0000
,
0001
0010
0001
0000
0110
0000
1001
0000
,
0110
0000
0001
0010
0100
0000
0220
0000
,
0330
0001
0010
0100
,
1000
0000
0000
0000
,
1100
0110
0011
0110
1001
0000
0000
0000
,
0000
0001
0010
1000
,
0100
0110
1001
0000
,
0000
1000
0100
0001
,
0010
0000
0110
0000
,
0000
0001
0010
1000
,
0100
0110
1001
0000
,
0000
1000
0100
0001
,
0010
0000
0000
0000
0220
0000
0000
0330
,
0000
0000
0001
0010
,
0100
1000
0110
0000
,
0000
1000
0100
0010
,
0001
0000
0110
0000
,
0000
0001
0010
1000
,
0100
0000
0000
0000
0000
0000
0000
0000
0000
0000
0000
0000
0000
0000
0000
0000
0000
0000
0000
0000
0000
0000
0000
0000
0000
0000
0000
0000
0000
0000
0000
0000
0000
0000
0000
0000
0000
0000
0000
0000
0000
0000
0000
0000
0000
0000
0000
0000
0110
0000
0000
0000
0000
0000
0000
0000
0000
0000
0000
0000
0000
0000
0000
0000
0000
0000
0000
0000
0000
0000
0000
0000
0000
0000
0000
0000
0000
0000
0000
0000
0000
0000
0000
0000
0000
0000
0000
0000
0000
0000
0000
0000
0000
0000
0000
0000
1001
0100
0000
0000
0000
0000
0000
0000
0000
0000
0000
0000
0000
0000
0000
0000
0000
0000
0000
0000
0000
0000
0000
0000
0000
0000
0000
0000
0000
0000
0000
0000
0000
0000
0000
0000
0000
0000
0000
0000
0000
0000
0000
0000
0000
0000
0000
0000
0010
0000
0000
0000
0000
0000
0000
0000
0000
0000
0000
0000
0000
0000
0000
0000
0000
0000
0000
0000
0000
0000
0000
0000
0000
0000
0000
0000
0000
0000
0000
0000
0000
0000
0000
0000
0000
0000
0000
0000
0000
0000
0000
0000
0000
0000
0000
0000
,
0100
0110
0001
0010
,
0100
1000
0100
0010
,
0001
0110
1000
0100
,
0010
0001
0010
0100
,
1000
0110
0001
0010
,
0100
1000
0100
0010
,
0001
0110
1000
0100
,
0010
0001
0010
0100
,
1000
0110
0001
0010
,
0001
0010
1000
0100
,
1000
0100
0001
0010
,
0100
1000
0001
0010
,
0100
1000
0010
0100
,
0010
0000
0100
0000
1000
0001
1000
0001
,
1000
0001
1000
0001
0110
0000
0000
0000
,
0110
1001
0110
1001
0220
0000
0000
0000
,
0000
0000
0330
1001
,
1100
0000
1100
0000
1100
0000
1100
0000
1100
0000
1100
0000
0110
0110
0011
0000
,
0011
0011
0011
0011
0110
0000
1001
0000
,
0000
0000
0110
0000
0011
0011
0011
0011
,
0011
0000
0011
0000
0110
0110
1100
0000
1100
0000
0110
0000
1001
0000
0110
0000
,
1001
0220
0000
0000
0000
0000
0000
0000
,
0330
0000
1001
0000
1100
1100
1100
1100
,
1100
0000
1100
0000
0110
0110
0011
0000
0011
0000
0011
0000
0011
0000
0011
0000
,
0110
1001
0000
0110
,
0011
0000
0011
0000
0011
0000
0011
0000
0011
0000
0011
0000
0110
0110
1100
0000
,
1100
0110
1001
0110
1001
0000
0000
0000
;

//---------------dance-single - ----------------
#NOTES:
     dance-single:
     :
     Hard:
     15:
     0.581838,0.884128,1.252000,0.788296,0.301407,527.000000,365.000000,162.000000,102.000000,0.000000,0.000000,0.000000,0.000000,0.000000,0.581838,0.884128,1.252000,0.788296,0.301407,527.000000,365.000000,162.000000,102.000000,0.000000,0.000000,0.000000,0.000000,0.000000:
// measure 0
0000
0000
0000
0000
,  // measure 1
0000
0000
0000
0000
,  // measure 2
0000
0000
0000
0000
,  // measure 3
0000
0000
0000
0000
,  // measure 4
0000
0000
0000
0000
,  // measure 5
0000
0000
0000
0000
,  // measure 6
0000
0000
0000
0000
,  // measure 7
0000
0000
0000
0000
,  // measure 8
1000
0000
0010
0100
0010
0000
0110
0000
,  // measure 9
0001
1000
0001
0000
1100
0000
0011
0000
,  // measure 10
0110
0000
1000
0001
1000
0000
0110
0000
,  // measure 11
0001
1000
0001
0000
0110
0000
1001
0000
,  // measure 12
1000
0100
0010
0001
1000
0100
0010
0001
,  // measure 13
0100
0010
0100
0010
0100
0010
0100
0010
1000
0001
1000
0001
1000
0001
1000
0001
,  // measure 14
0110
0000
0000
0000
1100
0110
0011
0110
,  // measure 15
1001
0000
0100
0010
0100
0000
2002
0000
,  // measure 16
0000
3003
1100
0000
0110
0000
0011
0000
,  // measure 17
0110
0000
1000
0001
1000
0000
0110
0000
,  // measure 18
0001
1000
0001
0000
0110
0000
1001
0000
,  // measure 19
0110
0000
0010
0100
0010
0000
2002
0000
,  // measure 20
0000
3003
0011
0010
0110
0100
1100
0100
,  // measure 21
0110
0000
0001
1000
0001
0000
0110
0000
,  // measure 22
1100
0110
0011
0110
,  // measure 23
1001
0000
0100
0010
0100
0000
2002
0000
,  // measure 24
0000
3003
1100
0000
0110
0000
0011
0000
,  // measure 25
0110
0000
1000
0001
1000
0000
0110
0000
,  // measure 26
0001
1000
0001
0000
0110
0000
1001
0000
,  // measure 27
0110
0000
0010
0100
0010
0000
2002
0000
,  // measure 28
0000
3003
0011
0010
0110
0100
1100
0100
,  // measure 29
0110
0000
0000
0000
0000
0001
0010
0100
,  // measure 30
1100
0110
0011
0110
1001
0000
0000
0000
,  // measure 31
0000
0000
0000
0000
1000
0100
0000
0000
0110
0000
0000
0000
0001
0010
0000
0000
,  // measure 32
0110
0000
1001
0000
0100
0010
0100
0000
,  // measure 33
1001
0000
0000
0000
0001
0010
0000
0000
0010
0100
0000
0000
0100
1000
0000
0000
,  // measure 34
0110
0000
1001
0000
0110
0000
0010
0100
,  // measure 35
0010
0000
0000
0000
1000
0000
0000
0000
0100
0000
0000
0000
0001
0010
0000
0000
,  // measure 36
0110
0000
0000
0000
1000
0100
0000
0000
0110
0000
0000
0000
0010
0000
0100
0000
,  // measure 37
0010
0000
0000
0000
1000
0100
0000
0000
0110
0000
0000
0000
0001
0010
0000
0000
,  // measure 38
0110
0000
1001
0000
0110
0000
0010
0100
,  // measure 39
0010
0000
0110
0001
0010
1000
0100
0010
,  // measure 40
0011
0000
0000
0000
1000
0100
0000
0000
0110
0000
0000
0000
0010
0000
0100
0000
,  // measure 41
0010
0000
0001
0000
0010
0000
0100
0000
1000
0100
0000
0000
0110
0000
0000
0000
,  // measure 42
1001
0000
0110
0000
1001
0000
1000
0001
,  // measure 43
1000
0000
0100
0010
0100
0000
0010
0100
,  // measure 44
0010
0000
0000
0000
0000
0000
0000
0000
0000
0000
0000
0000
0000
0000
0000
0000
0000
0000
0000
0000
0000
0000
0000
0000
0000
0000
0000
0000
0000
0000
0000
0000
0000
0000
0000
0000
0000
0000
0000
0000
0000
0000
0000
0000
0000
0000
0000
0000
1000
0000
0000
0000
0000
0000
0000
0000
0000
0000
0000
0000
0001
0000
0000
0000
0000
0000
0000
0000
0000
0000
0000
0000
0000
0000
0000
0000
0000
0000
0000
0000
0000
0000
0000
0000
0000
0000
0000
0000
0000
0000
0000
0000
0000
0000
0000
0000
0110
1000
0000
0000
0000
0000
0000
0000
0000
0000
0000
0000
0000
0000
0000
0000
0000
0000
0000
0000
0000
0000
0000
0000
0000
0000
0000
0000
0000
0000
0000
0000
0000
0000
0000
0000
0000
0000
0000
0000
0000
0000
0000
0000
0000
0000
0000
0000
0100
0000
0000
0000
0000
0000
0000
0000
0000
0000
0000
0000
0000
0000
0000
0000
0000
0000
0000
0000
0000
0000
0000
0000
0000
0000
0000
0000
0000
0000
0000
0000
0000
0000
0000
0000
0000
0000
0000
0000
0000
0000
0000
0000
0000
0000
0000
0000
,  // measure 45
0010
0000
0001
0000
0110
0000
1000
0001
,  // measure 46
1000
0000
0110
0000
0001
1000
0001
0000
,  // measure 47
0110
0000
1100
0000
0011
0000
1000
0001
,  // measure 48
1000
0000
0110
0000
0001
1000
0001
0000
,  // measure 49
1100
0000
0011
0000
0110
0000
1000
0001
,  // measure 50
1000
0000
0110
0000
0001
1000
0001
0000
,  // measure 51
1100
0000
0011
0000
0110
0000
1000
0001
,  // measure 52
1000
0000
0110
0000
0001
1000
0001
0000
,  // measure 53
0110
0000
1001
0000
0110
0000
0001
1000
,  // measure 54
0001
0000
0110
0000
1000
0001
1000
0000
,  // measure 55
0011
0000
1100
0000
0110
0000
0001
1000
,  // measure 56
0001
0000
0110
0000
1000
0001
1000
0000
,  // measure 57
0110
0000
1001
0000
0010
0100
0010
0100
,  // measure 58
0010
0000
0100
0000
0010
0000
0100
0000
0001
1000
0001
1000
0001
1000
0001
1000
,  // measure 59
0010
0100
0010
0100
0010
0100
0010
0100
1001
0000
0000
0000
0000
0000
0000
0000
,  // measure 60
1100
0110
0011
0110
2002
0000
0000
0000
,  // measure 61
0000
0000
0000
0000
3003
0010
0100
0000
,  // measure 62
2200
3300
0000
0000
0000
0000
0000
0000
0000
0000
0000
0000
0000
0000
0000
0000
0000
0000
0000
0000
0000
0000
0000
0000
2020
3030
0000
0000
0000
0000
0000
0000
0000
0000
0000
0000
0000
0000
0000
0000
0000
0000
0000
0000
0000
0000
0000
0000
2200
3300
0000
0000
0000
0000
0000
0000
0000
0000
0000
0000
0000
0000
0000
0000
0000
0000
0000
0000
0000
0000
0000
0000
2020
3030
0000
0000
0000
0000
0000
0000
0000
0000
0000
0000
0000
0000
0000
0000
0000
0000
0000
0000
0000
0000
0000
0000
2200
3300
0000
0000
0000
0000
0000
0000
0000
0000
0000
0000
0000
0000
0000
0000
0000
0000
0000
0000
0000
0000
0000
0000
2020
3030
0000
0000
0000
0000
0000
0000
0000
0000
0000
0000
0000
0000
0000
0000
0000
0000
0000
0000
0000
0000
0000
0000
0110
0000
0000
0000
0000
0000
0000
0000
0000
0000
0000
0000
0110
0000
0000
0000
0000
0000
0000
0000
0000
0000
0000
0000
0022
0033
0000
0000
0000
0000
0000
0000
0000
0000
0000
0000
0000
0000
0000
0000
0000
0000
0000
0000
0000
0000
0000
0000
,  // measure 63
0202
0303
0000
0000
0000
0000
0000
0000
0000
0000
0000
0000
0000
0000
0000
0000
0000
0000
0000
0000
0000
0000
0000
0000
0022
0033
0000
0000
0000
0000
0000
0000
0000
0000
0000
0000
0000
0000
0000
0000
0000
0000
0000
0000
0000
0000
0000
0000
0202
0303
0000
0000
0000
0000
0000
0000
0000
0000
0000
0000
0000
0000
0000
0000
0000
0000
0000
0000
0000
0000
0000
0000
0022
0033
0000
0000
0000
0000
0000
0000
0000
0000
0000
0000
0000
0000
0000
0000
0000
0000
0000
0000
0000
0000
0000
0000
0110
0000
0000
0000
0000
0000
0000
0000
0000
0000
0000
0000
0000
0000
0000
0000
0000
0000
0000
0000
0000
0000
0000
0000
0000
0000
0000
0000
0000
0000
0000
0000
0000
0000
0000
0000
0000
0000
0000
0000
0000
0000
0000
0000
0000
0000
0000
0000
1001
0000
0000
0000
0000
0000
0000
0000
0000
0000
0000
0000
0000
0000
0000
0000
0000
0000
0000
0000
0000
0000
0000
0000
0000
0000
0000
0000
0000
0000
0000
0000
0000
0000
0000
0000
0000
0000
0000
0000
0000
0000
0000
0000
0000
0000
0000
0000
,  // measure 64
0000
0000
0000
0000
0000
0000
0000
0000
0000
0000
0000
0000
0000
0000
0000
0000
0000
0000
0000
0000
0000
0000
0000
0000
0010
0000
0000
0000
0000
0000
0000
0000
0000
0000
0000
0000
0000
0000
0000
0000
0000
0000
0000
0000
0000
0000
0000
0000
0100
0000
0000
0000
0000
0000
0000
0000
0000
0000
0000
0000
0000
0000
0000
0000
0000
0000
0000
0000
0000
0000
0000
0000
0000
0000
0000
0000
0000
0000
0000
0000
0000
0000
0000
0000
0000
0000
0000
0000
0000
0000
0000
0000
0000
0000
0000
0000
0022
0033
0000
0000
0000
0000
0000
0000
0000
0000
0000
0000
0000
0000
0000
0000
0000
0000
0000
0000
0000
0000
0000
0000
0202
0303
0000
0000
0000
0000
0000
0000
0000
0000
0000
0000
0000
0000
0000
0000
0000
0000
0000
0000
0000
0000
0000
0000
0022
0033
0000
0000
0000
0000
0000
0000
0000
0000
0000
0000
0000
0000
0000
0000
0000
0000
0000
0000
0000
0000
0000
0000
0202
0303
0000
0000
0000
0000
0000
0000
0000
0000
0000
0000
0000
0000
0000
0000
0000
0000
0000
0000
0000
0000
0000
0000
,  // measure 65
0022
0033
0000
0000
0000
0000
0000
0000
0000
0000
0000
0000
0000
0000
0000
0000
0000
0000
0000
0000
0000
0000
0000
0000
0202
0303
0000
0000
0000
0000
0000
0000
0000
0000
0000
0000
0000
0000
0000
0000
0000
0000
0000
0000
0000
0000
0000
0000
0110
0000
0000
0000
0000
0000
0000
0000
0000
0000
0000
0000
0110
0000
0000
0000
0000
0000
0000
0000
0000
0000
0000
0000
2200
3300
0000
0000
0000
0000
0000
0000
0000
0000
0000
0000
0000
0000
0000
0000
0000
0000
0000
0000
0000
0000
0000
0000
2020
3030
0000
0000
0000
0000
0000
0000
0000
0000
0000
0000
0000
0000
0000
0000
0000
0000
0000
0000
0000
0000
0000
0000
2200
3300
0000
0000
0000
0000
0000
0000
0000
0000
0000
0000
0000
0000
0000
0000
0000
0000
0000
0000
0000
0000
0000
0000
0220
0330
0000
0000
0000
0000
0000
0000
0000
0000
0000
0000
0000
0000
0000
0000
0000
0000
0000
0000
0000
0000
0000
0000
0022
0033
0000
0000
0000
0000
0000
0000
0000
0000
0000
0000
0000
0000
0000
0000
0000
0000
0000
0000
0000
0000
0000
0000
,  // measure 66
0220
0330
0000
0000
0000
0000
0000
0000
0000
0000
0000
0000
0000
0000
0000
0000
0000
0000
0000
0000
0000
0000
0000
0000
2002
0000
0000
0000
0000
0000
0000
0000
0000
0000
0000
0000
0000
0000
0000
0000
0000
0000
0000
0000
0000
0000
0000
0000
0000
0000
0000
0000
0000
0000
0000
0000
0000
0000
0000
0000
0000
0000
0000
0000
0000
0000
0000
0000
0000
0000
0000
0000
0000
0000
0000
0000
0000
0000
0000
0000
0000
0000
0000
0000
0000
0000
0000
0000
0000
0000
0000
0000
0000
0000
0000
0000
0000
0000
0000
0000
0000
0000
0000
0000
0000
0000
0000
0000
0000
0000
0000
0000
0000
0000
0000
0000
0000
0000
0000
0000
0000
0000
0000
0000
0000
0000
0000
0000
0000
0000
0000
0000
0000
0000
0000
0000
0000
0000
0000
0000
0000
0000
0000
0000
0000
0000
0000
0000
0000
0000
0000
0000
0000
0000
0000
0000
0000
0000
0000
0000
0000
0000
0000
0000
0000
0000
0000
0000
0000
0000
0000
0000
0000
0000
0000
0000
0000
0000
0000
0000
0000
0000
0000
0000
0000
0000
0000
0000
0000
0000
0000
0000
,  // measure 67
3003
0000
0000
0000
0000
0000
0000
0000
0000
0000
0000
0000
0000
0000
0000
0000
0000
0000
0000
0000
0000
0000
0000
0000
0100
0000
0000
0000
0000
0000
0000
0000
0000
0000
0000
0000
0000
0000
0000
0000
0000
0000
0000
0000
0000
0000
0000
0000
0010
0000
0000
0000
0000
0000
0000
0000
0000
0000
0000
0000
0000
0000
0000
0000
0000
0000
0000
0000
0000
0000
0000
0000
0000
0000
0000
0000
0000
0000
0000
0000
0000
0000
0000
0000
0000
0000
0000
0000
0000
0000
0000
0000
0000
0000
0000
0000
2200
3300
0000
0000
0000
0000
0000
0000
0000
0000
0000
0000
0000
0000
0000
0000
0000
0000
0000
0000
0000
0000
0000
0000
2020
3030
0000
0000
0000
0000
0000
0000
0000
0000
0000
0000
0000
0000
0000
0000
0000
0000
0000
0000
0000
0000
0000
0000
2200
3300
0000
0000
0000
0000
0000
0000
0000
0000
0000
0000
0000
0000
0000
0000
0000
0000
0000
0000
0000
0000
0000
0000
2020
3030
0000
0000
0000
0000
0000
0000
0000
0000
0000
0000
0000
0000
0000
0000
0000
0000
0000
0000
0000
0000
0000
0000
,  // measure 68
2200
3300
0000
0000
0000
0000
0000
0000
0000
0000
0000
0000
0000
0000
0000
0000
0000
0000
0000
0000
0000
0000
0000
0000
2020
3030
0000
0000
0000
0000
0000
0000
0000
0000
0000
0000
0000
0000
0000
0000
0000
0000
0000
0000
0000
0000
0000
0000
0110
0000
0000
0000
0000
0000
0000
0000
0000
0000
0000
0000
0110
0000
0000
0000
0000
0000
0000
0000
0000
0000
0000
0000
0022
0033
0000
0000
0000
0000
0000
0000
0000
0000
0000
0000
0000
0000
0000
0000
0000
0000
0000
0000
0000
0000
0000
0000
0202
0303
0000
0000
0000
0000
0000
0000
0000
0000
0000
0000
0000
0000
0000
0000
0000
0000
0000
0000
0000
0000
0000
0000
0022
0033
0000
0000
0000
0000
0000
0000
0000
0000
0000
0000
0000
0000
0000
0000
0000
0000
0000
0000
0000
0000
0000
0000
0202
0303
0000
0000
0000
0000
0000
0000
0000
0000
0000
0000
0000
0000
0000
0000
0000
0000
0000
0000
0000
0000
0000
0000
0022
0033
0000
0000
0000
0000
0000
0000
0000
0000
0000
0000
0000
0000
0000
0000
0000
0000
0000
0000
0000
0000
0000
0000
,  // measure 69
0110
0000
1001
0000
0000
0010
0100
0000
,  // measure 70
0022
0033
0000
0000
0000
0000
0000
0000
0000
0000
0000
0000
0000
0000
0000
0000
0000
0000
0000
0000
0000
0000
0000
0000
0202
0303
0000
0000
0000
0000
0000
0000
0000
0000
0000
0000
0000
0000
0000
0000
0000
0000
0000
0000
0000
0000
0000
0000
0022
0033
0000
0000
0000
0000
0000
0000
0000
0000
0000
0000
0000
0000
0000
0000
0000
0000
0000
0000
0000
0000
0000
0000
0202
0303
0000
0000
0000
0000
0000
0000
0000
0000
0000
0000
0000
0000
0000
0000
0000
0000
0000
0000
0000
0000
0000
0000
0022
0033
0000
0000
0000
0000
0000
0000
0000
0000
0000
0000
0000
0000
0000
0000
0000
0000
0000
0000
0000
0000
0000
0000
0202
0303
0000
0000
0000
0000
0000
0000
0000
0000
0000
0000
0000
0000
0000
0000
0000
0000
0000
0000
0000
0000
0000
0000
0110
0000
0000
0000
0000
0000
0000
0000
0000
0000
0000
0000
0110
0000
0000
0000
0000
0000
0000
0000
0000
0000
0000
0000
2200
3300
0000
0000
0000
0000
0000
0000
0000
0000
0000
0000
0000
0000
0000
0000
0000
0000
0000
0000
0000
0000
0000
0000
,  // measure 71
2020
3030
0000
0000
0000
0000
0000
0000
0000
0000
0000
0000
0000
0000
0000
0000
0000
0000
0000
0000
0000
0000
0000
0000
2200
3300
0000
0000
0000
0000
0000
0000
0000
0000
0000
0000
0000
0000
0000
0000
0000
0000
0000
0000
0000
0000
0000
0000
0220
0330
0000
0000
0000
0000
0000
0000
0000
0000
0000
0000
0000
0000
0000
0000
0000
0000
0000
0000
0000
0000
0000
0000
0022
0033
0000
0000
0000
0000
0000
0000
0000
0000
0000
0000
0000
0000
0000
0000
0000
0000
0000
0000
0000
0000
0000
0000
0110
0000
0000
0000
0000
0000
0000
0000
0000
0000
0000
0000
0000
0000
0000
0000
0000
0000
0000
0000
0000
0000
0000
0000
0000
0000
0000
0000
0000
0000
0000
0000
0000
0000
0000
0000
0000
0000
0000
0000
0000
0000
0000
0000
0000
0000
0000
0000
0000
0000
0000
0000
0000
0000
0000
0000
0000
0000
0000
0000
0000
0000
0000
0000
0000
0000
0000
0000
0000
0000
0000
0000
0000
0000
0000
0000
0000
0000
0000
0000
0000
0000
0000
0000
0000
0000
0000
0000
0000
0000
0000
0000
0000
0000
0000
0000
;
