#TITLE:DABADABADABADABA;
#SUBTITLE:;
#ARTIST:Excision & Dion Timmer;
#TITLETRANSLIT:;
#SUBTITLETRANSLIT:;
#ARTISTTRANSLIT:;
#GENRE:;
#CREDIT:;
#BANNER:;
#BACKGROUND:;
#LYRICSPATH:;
#CDTITLE:;
#MUSIC:DABADABADABADABA.ogg;
#OFFSET:-0.300000;
#SAMPLESTART:96.300003;
#SAMPLELENGTH:13.700000;
#SELECTABLE:YES;
#BPMS:0.000000=140.000214
;
#STOPS:
;
#BGCHANGES:;
#KEYSOUNDS:;
#ATTACKS:;

//---------------dance-single - ----------------
#NOTES:
     dance-single:
     :
     Beginner:
     4:
     0.100468,0.168787,0.091426,0.000000,0.000000,100.000000,87.000000,13.000000,0.000000,0.000000,0.000000,0.000000,0.000000,0.000000,0.100468,0.168787,0.091426,0.000000,0.000000,100.000000,87.000000,13.000000,0.000000,0.000000,0.000000,0.000000,0.000000,0.000000:
0000
0000
0000
0000
,
0000
0000
0000
0000
,
0000
0000
0000
0000
,
0000
0000
0000
0000
,
0000
0000
0000
0000
,
0000
0000
0000
0000
,
0000
0000
0000
0000
,
0000
0000
0000
0000
,
1000
0000
0000
0000
,
1000
0000
0000
0000
,
0001
0000
0000
0000
,
0001
0000
0000
0000
,
0100
0000
0000
0000
,
0100
0000
0000
0000
,
0010
0000
0000
0000
,
0010
0000
0000
0000
,
1000
0000
1000
0000
,
1000
0000
0000
0000
,
0001
0000
0001
0000
,
0001
0000
0000
0000
,
0100
0000
0100
0000
,
0100
0000
0000
0000
,
0010
0000
0010
0000
,
0010
0000
0000
0000
,
0110
0000
0000
0000
,
0000
0000
0000
0000
,
1001
0000
0000
0000
,
0000
0000
0000
0000
,
0110
0000
0000
0000
,
1001
0000
0000
0000
,
0110
0000
0000
0000
,
0000
0000
0000
0000
,
1000
0000
0001
0000
,
0000
0000
0001
0000
,
1000
0000
0001
0000
,
0000
0000
0001
0000
,
0100
0000
0010
0000
,
0000
0000
0010
0000
,
0100
0000
0010
0000
,
0000
0000
0010
0000
,
1000
0000
0001
0000
,
0000
0000
0001
0000
,
1000
0000
0001
0000
,
0000
0000
0001
0000
,
0100
0000
0010
0000
,
0000
0000
0010
0000
,
0100
0000
0010
0000
,
0000
0000
0010
0000
,
0110
0000
0000
0000
,
0000
0000
0000
0000
,
1001
0000
0000
0000
,
0000
0000
0000
0000
,
0110
0000
0000
0000
,
1001
0000
0000
0000
,
0110
0000
0000
0000
,
0000
0000
0000
0000
,
1000
0000
0100
0000
,
1000
0000
0100
0000
,
0001
0000
0010
0000
,
0001
0000
0010
0000
,
1000
0000
0100
0000
,
1000
0000
0100
0000
,
0001
0000
0010
0000
,
0001
0000
0010
0000
,
1000
0000
0001
0000
,
0000
0000
0001
0000
,
1000
0000
0001
0000
,
0000
0000
0001
0000
,
0100
0000
0010
0000
,
0000
0000
0010
0000
,
0100
0000
0010
0000
,
0000
0000
0010
0000
,
0110
0000
0000
0000
,
0000
0000
0000
0000
,
0000
0000
0000
0000
,
0000
0000
0000
0000
,
1001
0000
0000
0000
,
0000
0000
0000
0000
,
0000
0000
0000
0000
,
0100
0000
0010
0000
,
0110
0000
0000
0000
;

//---------------dance-single - ----------------
#NOTES:
     dance-single:
     :
     Easy:
     8:
     0.287340,0.393836,0.112525,0.028131,0.000000,286.000000,270.000000,16.000000,4.000000,0.000000,0.000000,0.000000,0.000000,0.000000,0.287340,0.393836,0.112525,0.028131,0.000000,286.000000,270.000000,16.000000,4.000000,0.000000,0.000000,0.000000,0.000000,0.000000:
0000
0000
0000
0000
,
0000
0000
0000
0000
,
0000
0000
0000
0000
,
0000
0000
0000
0000
,
0000
0000
0000
0000
,
0000
0000
0000
0000
,
0000
0000
0000
0000
,
0000
0000
0000
0000
,
1000
0000
0100
0000
,
1000
0000
0100
0000
,
0001
0000
0010
0000
,
0001
0000
0010
0000
,
1000
0000
0100
0000
,
1000
0000
0100
0000
,
0001
0000
0010
0000
,
0001
0000
0010
0000
,
1000
0100
0010
0001
,
1000
0100
0010
0001
,
0001
0010
0100
1000
,
0001
0010
0100
1000
,
1000
0100
0010
0001
,
1000
0100
0010
0001
,
0001
0010
0100
1000
,
0110
0000
0000
0000
,
1000
1000
0001
0001
,
1000
1000
0001
0001
,
0100
0100
0010
0010
,
0100
0100
0010
0010
,
1000
0001
1000
0001
,
0100
0010
0100
0010
,
0110
0110
1001
1001
,
0110
0000
0000
0000
,
1000
0000
0100
0000
0010
0001
0010
0000
,
0001
0000
0010
0000
0100
1000
0100
0000
,
1000
0000
0100
0000
0010
0001
0010
0000
,
0001
0000
0010
0000
0100
1000
0200
0000
,
1300
0000
0100
0000
0010
0001
0010
0000
,
0001
0000
0010
0000
0100
1000
0100
0000
,
1000
0000
0100
0000
0010
0001
0010
0000
,
0001
0010
0100
0110
,
1000
0000
0100
0000
0010
0001
0010
0000
,
0001
0000
0010
0000
0100
1000
0100
0000
,
1000
0000
0100
0000
0010
0001
0010
0000
,
0001
0000
0010
0000
0100
1000
0200
0000
,
1300
0000
0100
0000
0010
0001
0010
0000
,
0001
0000
0010
0000
0100
1000
0100
0000
,
1000
0000
0100
0000
0010
0001
0010
0000
,
0001
0001
0010
0100
,
1000
1000
0001
0001
,
1000
1000
0001
0001
,
0100
0100
0010
0010
,
0100
0100
0010
0010
,
1000
0001
1000
0001
,
0100
0010
0100
0010
,
0110
0110
1001
1001
,
0110
0000
0000
0000
,
1000
0000
0100
0000
0010
0001
0010
0000
,
0001
0000
0010
0000
0100
1000
0100
0000
,
1000
0000
0100
0000
0010
0001
0010
0000
,
0001
0000
0010
0000
0100
1000
0200
0000
,
1300
0000
0100
0000
0010
0001
0010
0000
,
0001
0000
0010
0000
0100
1000
0100
0000
,
1000
0000
0100
0000
0010
0001
0010
0000
,
0001
0010
0100
0110
,
1000
0000
0100
0000
0010
0001
0010
0000
,
0001
0000
0010
0000
0100
1000
0100
0000
,
1000
0000
0100
0000
0010
0001
0010
0000
,
0001
0000
0010
0000
0100
1000
0200
0000
,
1300
0000
0100
0000
0010
0001
0010
0000
,
0001
0000
0010
0000
0100
1000
0100
0000
,
1000
0000
0100
0000
0010
0001
0010
0000
,
0001
0010
0100
1000
,
0110
0000
0000
0000
,
0000
0000
0000
0000
,
0000
0000
0000
0000
,
0000
0000
0000
0000
,
1001
0000
0000
0000
,
0000
0000
0000
0000
,
0000
0000
0000
0000
,
0100
0010
0100
0010
0100
0010
0100
0010
,
0110
0000
0000
0000
;

//---------------dance-single - ----------------
#NOTES:
     dance-single:
     :
     Medium:
     12:
     0.510380,0.562624,0.344607,0.182853,0.063295,508.000000,459.000000,49.000000,26.000000,0.000000,0.000000,0.000000,0.000000,0.000000,0.510380,0.562624,0.344607,0.182853,0.063295,508.000000,459.000000,49.000000,26.000000,0.000000,0.000000,0.000000,0.000000,0.000000:
0000
0000
0000
0000
,
0000
0000
0000
0000
,
0000
0000
0000
0000
,
0000
0000
0000
0000
,
0000
0000
0000
0000
,
0000
0000
0000
0000
,
0000
0000
0000
0000
,
0000
0000
0000
0000
,
1000
0000
0000
0000
0100
0000
0000
0000
0000
0010
0000
0000
0001
0000
0000
0010
0000
0000
0001
0000
0000
0010
0000
0000
,
0001
0000
0000
0000
0010
0000
0000
0000
0000
0100
0000
0000
1000
0000
0000
0100
0000
0000
1000
0000
0000
0100
0000
0000
,
1000
0000
0000
0000
0100
0000
0000
0000
0000
0010
0000
0000
0001
0000
0000
0010
0000
0000
0001
0000
0000
0010
0000
0000
,
0011
0000
0000
0000
0110
0000
0000
0000
0000
1100
0000
0000
0000
0000
0110
0000
0000
0000
0011
0000
0000
0110
0000
0000
,
1000
0000
0000
0000
0100
0000
0000
0000
0000
0010
0000
0000
0001
0000
0000
0010
0000
0000
0001
0000
0000
0010
0000
0000
,
0001
0000
0000
0000
0010
0000
0000
0000
0000
0100
0000
0000
1000
0000
0000
0100
0000
0000
1000
0000
0000
0100
0000
0000
,
1000
0000
0000
0000
0100
0000
0000
0000
0000
0010
0000
0000
0001
0000
0000
0010
0000
0000
0001
0000
0000
0010
0000
0000
,
0001
0000
0000
0000
0010
0000
0000
0000
0000
0100
0000
0000
1000
0000
0000
0100
0000
0000
1000
0000
0000
0100
0000
0000
,
1000
0000
0000
0000
0100
0000
0000
0000
0000
0010
0000
0000
0001
0000
0000
0010
0000
0000
0001
0000
0000
0010
0000
0000
,
0001
0000
0000
0000
0010
0000
0000
0000
0000
0100
0000
0000
1000
0000
0000
0100
0000
0000
1000
0000
0000
0100
0000
0000
,
1000
0000
0000
0000
0100
0000
0000
0000
0000
0010
0000
0000
0001
0000
0000
0010
0000
0000
0001
0000
0000
0010
0000
0000
,
0011
0000
0000
0000
0110
0000
0000
0000
0000
1100
0000
0000
0000
0000
0110
0000
0000
0000
0011
0000
0000
0110
0000
0000
,
1000
0000
0000
0000
0100
0000
0000
0000
0000
0010
0000
0000
0001
0000
0000
0010
0000
0000
0001
0000
0000
0010
0000
0000
,
0001
0000
0000
0000
0010
0000
0000
0000
0000
0100
0000
0000
1000
0000
0000
0100
0000
0000
1000
0000
0000
0100
0000
0000
,
1000
0000
0000
0000
0100
0000
0000
0000
0000
0010
0000
0000
0001
0000
0000
0010
0000
0000
0001
0000
0000
0010
0000
0000
,
0001
1000
0100
0000
0010
0001
0010
0100
,
1100
0110
1001
0110
,
0000
0001
0010
0000
0100
1000
0100
0010
,
0001
0110
1001
0110
,
0000
1000
0100
0000
0001
0010
0100
1000
,
0100
0110
1001
0110
,
1100
0110
0011
0110
,
0100
0010
0100
0010
0100
0010
0100
0010
,
0110
0000
1100
0011
0100
0010
0100
0010
,
1000
0100
1000
0100
1000
0100
1000
0100
,
0001
0010
0001
0010
0001
0010
0002
0000
,
1003
0100
1000
0100
1000
0100
1000
0100
,
0001
0010
0001
0010
0001
0010
0002
0000
,
0103
0010
0100
0010
0100
0010
0100
0010
,
1000
0001
1000
0001
1000
0001
2000
0000
,
3100
0010
0100
0010
0100
0010
0100
0010
,
1000
0000
0000
0000
0000
0000
0000
0000
0000
0000
0000
0000
0000
0000
0000
0000
0000
0000
0000
0000
0000
0000
0000
0000
0001
0000
0000
0000
0000
0000
0000
0000
0000
0000
0000
0000
0000
0000
0000
0000
0000
0000
0000
0000
0000
0000
0000
0000
1000
0000
0000
0000
0000
0000
0000
0000
0000
0000
0000
0000
0000
0000
0000
0000
0000
0000
0000
0000
0000
0000
0000
0000
0001
0000
0000
0000
0000
0000
0000
0000
0000
0000
0000
0000
0000
0000
0000
0000
0000
0000
0000
0000
0000
0000
0000
0000
1000
0000
0000
0000
0000
0000
0000
0000
0000
0000
0000
0000
0000
0000
0000
0000
0000
0000
0000
0000
0000
0000
0000
0000
0001
0000
0000
0000
0000
0000
0000
0000
0000
0000
0000
0000
0000
0000
0000
0000
0000
0000
0000
0000
0000
0000
0000
0000
2002
3003
0000
0000
0000
0000
0000
0000
0000
0000
0000
0000
0000
0000
0000
0000
0000
0000
0000
0000
0000
0000
0000
0000
0000
0000
0000
0000
0000
0000
0000
0000
0000
0000
0000
0000
0000
0000
0000
0000
0000
0000
0000
0000
0000
0000
0000
0000
,
1000
0100
1000
0100
1000
0100
1000
0100
,
0001
0010
0001
0010
0001
0010
0002
0000
,
1003
0100
1000
0100
1000
0100
1000
0100
,
0001
0010
0001
0010
0001
0010
0002
0000
,
0103
0010
0100
0010
0100
0010
0100
0010
,
1000
0001
1000
0001
1000
0001
2000
0000
,
3100
0010
0100
0010
0100
0010
0100
0010
,
0100
0001
0010
0000
0100
1000
0100
0010
,
0001
0110
1001
0110
,
0000
1000
0100
0000
0010
0001
0010
0100
,
1000
0110
1001
0110
,
0000
0001
0010
0000
0100
1000
0100
0010
,
0001
0110
1001
0110
,
0011
0110
1100
0110
,
0100
0010
0100
0010
0100
0010
0100
0010
,
0110
0000
1100
0011
0100
0010
0100
0010
,
1000
0100
0010
0100
1000
0100
0010
0100
,
1000
0100
0010
0100
1000
0100
0020
0000
,
0031
0010
0100
0010
0001
0010
0100
0010
,
0001
0010
0100
0010
0001
0010
0200
0000
,
1300
0100
0010
0100
1000
0100
0010
0100
,
1000
0100
0010
0100
1000
0100
0020
0000
,
0031
0010
0100
0010
0001
0010
0100
0010
,
0001
0010
0100
0010
0001
0010
0200
0000
,
1300
0100
1000
0100
1000
0100
1000
0100
,
0001
0010
0001
0010
0001
0010
0002
0000
,
1003
0100
1000
0100
1000
0100
1000
0100
,
0010
0001
0010
0001
0010
0001
0020
0000
,
0130
0010
0100
0010
0100
0010
0100
0010
,
1000
0001
1000
0001
1000
0001
2000
0000
,
3100
0010
0100
0010
0100
0010
0100
0010
,
0001
1000
0001
1000
0001
1000
0001
1000
,
0110
0000
0000
0000
,
0000
0000
0000
0000
,
2000
3200
0320
0032
,
0023
0230
2300
3000
,
1001
0000
0000
0000
,
0000
0000
0000
0000
,
0002
0023
0230
2300
,
3100
0010
0100
0010
0100
0010
0100
0010
,
0110
0000
0000
0000
;

//---------------dance-single - ----------------
#NOTES:
     dance-single:
     :
     Hard:
     17:
     0.870057,0.956460,0.421968,0.168787,1.177993,866.000000,806.000000,60.000000,24.000000,0.000000,0.000000,0.000000,0.000000,0.000000,0.870057,0.956460,0.421968,0.168787,1.177993,866.000000,806.000000,60.000000,24.000000,0.000000,0.000000,0.000000,0.000000,0.000000:
// measure 0
0000
0000
0000
0000
,  // measure 1
0000
0000
0000
0000
,  // measure 2
0000
0000
0000
0000
,  // measure 3
0000
0000
0000
0000
,  // measure 4
0000
0000
0000
0000
,  // measure 5
0000
0000
0000
0000
,  // measure 6
0000
0000
0000
0000
,  // measure 7
0000
0000
0000
0000
,  // measure 8
1000
0000
0000
0000
0000
0000
0100
0000
0010
0000
0000
0000
0000
0000
0000
0010
0000
0000
0100
0000
0000
0000
0000
0000
1000
0000
0000
0001
0000
0000
1000
0000
0000
0001
0000
0000
1000
0000
0000
0001
0000
0000
1000
0000
0000
0001
0000
0000
,  // measure 9
1000
0000
0000
0001
0000
0000
0100
0000
0010
0000
0000
0000
0000
0000
0000
0010
0000
0000
0100
0000
0000
0000
0000
0000
0010
0000
0000
0100
0000
0000
0010
0000
0000
0100
0000
0000
0010
0000
0000
0100
0000
0000
0010
0000
0000
0100
0000
0000
,  // measure 10
0010
0000
0000
0100
0000
0000
0001
0000
1000
0000
0000
0000
0000
0000
0000
1000
0000
0000
0001
0000
0000
0000
0000
0000
1000
0000
0000
0001
0000
0000
1000
0000
0000
0001
0000
0000
1000
0000
0000
0001
0000
0000
1000
0000
0000
0001
0000
0000
,  // measure 11
1100
0000
0000
0000
0110
0000
0000
0000
0000
0011
0000
0000
0000
0000
0110
0000
0000
0000
1001
0000
0000
0110
0000
0000
,  // measure 12
0001
0000
0000
0000
0000
0000
0010
0000
0100
0000
0000
0000
0000
0000
0000
0100
0000
0000
0010
0000
0000
0000
0000
0000
1000
0000
0000
0001
0000
0000
1000
0000
0000
0001
0000
0000
1000
0000
0000
0001
0000
0000
1000
0000
0000
0001
0000
0000
,  // measure 13
1000
0000
0000
0001
0000
0000
0010
0000
0100
0000
0000
0000
0000
0000
0000
0100
0000
0000
0010
0000
0000
0000
0000
0000
0100
0000
0000
0010
0000
0000
0100
0000
0000
0010
0000
0000
0100
0000
0000
0010
0000
0000
0100
0000
0000
0010
0000
0000
,  // measure 14
0100
0000
0000
0010
0000
0000
0100
0000
0010
0000
0000
0000
0000
0000
0000
0010
0000
0000
0100
0000
0000
0000
0000
0000
1000
0000
0000
0001
0000
0000
1000
0000
0000
0001
0000
0000
1000
0000
0000
0001
0000
0000
1000
0000
0000
0001
0000
0000
,  // measure 15
1100
0000
0000
0000
0000
0000
0000
0000
0110
0000
0000
0000
0000
0000
0000
0000
0000
0000
0011
0000
0000
0000
0000
0000
0100
0000
0000
0010
0000
0000
0100
0000
0000
0010
0000
0000
0100
0000
0000
0010
0000
0000
0100
0000
0000
0010
0000
0000
,  // measure 16
0110
0000
0000
0000
0000
0000
0100
0000
0010
0000
0000
0000
0000
0000
0000
0010
0000
0000
0100
0000
0000
0000
0000
0000
1000
0000
0000
0001
0000
0000
1000
0000
0000
0001
0000
0000
1000
0000
0000
0001
0000
0000
1000
0000
0000
0001
0000
0000
,  // measure 17
1000
0000
0000
0001
0000
0000
0100
0000
0010
0000
0000
0000
0000
0000
0000
0010
0000
0000
0100
0000
0000
0000
0000
0000
0010
0000
0000
0100
0000
0000
0010
0000
0000
0100
0000
0000
0010
0000
0000
0100
0000
0000
0010
0000
0000
0100
0000
0000
,  // measure 18
0010
0000
0000
0100
0000
0000
0001
0000
1000
0000
0000
0000
0000
0000
0000
1000
0000
0000
0001
0000
0000
0000
0000
0000
1000
0000
0000
0001
0000
0000
1000
0000
0000
0001
0000
0000
1000
0000
0000
0001
0000
0000
1000
0000
0000
0001
0000
0000
,  // measure 19
1100
0000
0000
0000
0110
0000
0000
0000
0000
0011
0000
0000
0000
0000
0110
0000
0000
0000
1001
0000
0000
0110
0000
0000
,  // measure 20
0001
0000
0000
0000
0000
0000
0010
0000
0100
0000
0000
0000
0000
0000
0000
0100
0000
0000
0010
0000
0000
0000
0000
0000
1000
0000
0000
0001
0000
0000
1000
0000
0000
0001
0000
0000
1000
0000
0000
0001
0000
0000
1000
0000
0000
0001
0000
0000
,  // measure 21
1000
0000
0000
0001
0000
0000
0010
0000
0100
0000
0000
0000
0000
0000
0000
0100
0000
0000
0010
0000
0000
0000
0000
0000
0100
0000
0000
0010
0000
0000
0100
0000
0000
0010
0000
0000
0100
0000
0000
0010
0000
0000
0100
0000
0000
0010
0000
0000
,  // measure 22
0100
0000
0000
0010
0000
0000
0100
0000
0010
0000
0000
0000
0000
0000
0000
0010
0000
0000
0100
0000
0000
0000
0000
0000
1000
0000
0000
0001
0000
0000
1000
0000
0000
0001
0000
0000
1000
0000
0000
0001
0000
0000
1000
0000
0000
0001
0000
0000
,  // measure 23
0110
0100
0010
0000
1000
0100
0010
0001
,  // measure 24
0110
0000
1001
0110
1001
0000
1001
0000
,  // measure 25
0110
0010
0100
0000
0001
0010
0100
1000
,  // measure 26
0110
0000
1001
0110
1001
0000
1001
0000
,  // measure 27
0110
0100
0010
0000
1000
0100
0010
0001
,  // measure 28
1000
0100
1000
0100
0010
0001
0010
0001
,  // measure 29
1000
0100
1000
0100
0001
0010
0001
0010
,  // measure 30
1100
0100
0011
0010
1100
0100
0011
0010
,  // measure 31
0110
0000
0000
0000
1001
0000
0110
0000
0100
0010
0100
0010
0100
0010
0100
0010
,  // measure 32
1000
0100
0010
0100
1000
0100
0010
0100
1000
0100
0010
0100
1000
0100
0010
0100
,  // measure 33
1000
0000
0000
0000
0000
0000
0000
0000
0000
0000
0000
0000
0100
0000
0000
0000
0000
0000
0000
0000
0000
0000
0000
0000
0010
0000
0000
0000
0000
0000
0000
0000
0000
0000
0000
0000
0100
0000
0000
0000
0000
0000
0000
0000
0000
0000
0000
0000
1000
0000
0000
0000
0000
0000
0000
0000
0000
0000
0000
0000
0100
0000
0000
0000
0000
0000
0000
0000
0000
0000
0000
0000
0010
0000
0000
0000
0000
0000
0000
0000
0000
0000
0000
0000
0100
0000
0000
0000
0000
0000
0000
0000
0000
0000
0000
0000
1000
0000
0000
0000
0000
0000
0000
0000
0000
0000
0000
0000
0100
0000
0000
0000
0000
0000
0000
0000
0000
0000
0000
0000
0010
0000
0000
0000
0000
0000
0000
0000
0000
0000
0000
0000
0100
0000
0000
0000
0000
0000
0000
0000
0000
0000
0000
0000
2000
3000
0000
0000
0000
0000
0000
0000
0000
0000
0000
0000
0000
0000
0000
0000
0000
0000
0000
0000
0000
0000
0000
0000
0000
0000
0000
0000
0000
0000
0000
0000
0000
0000
0000
0000
0000
0000
0000
0000
0000
0000
0000
0000
0000
0000
0000
0000
,  // measure 34
0001
0010
0100
0010
0001
0010
0100
0010
0001
0010
0100
0010
0001
0010
0100
0010
,  // measure 35
0001
0010
0100
0010
0001
0010
0100
0010
0001
0010
0100
0010
0002
0000
0003
0000
,  // measure 36
1000
0100
0010
0100
1000
0100
0010
0100
1000
0100
0010
0100
1000
0100
0010
0100
,  // measure 37
1000
0000
0000
0000
0000
0000
0000
0000
0000
0000
0000
0000
0100
0000
0000
0000
0000
0000
0000
0000
0000
0000
0000
0000
0010
0000
0000
0000
0000
0000
0000
0000
0000
0000
0000
0000
0100
0000
0000
0000
0000
0000
0000
0000
0000
0000
0000
0000
1000
0000
0000
0000
0000
0000
0000
0000
0000
0000
0000
0000
0100
0000
0000
0000
0000
0000
0000
0000
0000
0000
0000
0000
0010
0000
0000
0000
0000
0000
0000
0000
0000
0000
0000
0000
0100
0000
0000
0000
0000
0000
0000
0000
0000
0000
0000
0000
1000
0000
0000
0000
0000
0000
0000
0000
0000
0000
0000
0000
0100
0000
0000
0000
0000
0000
0000
0000
0000
0000
0000
0000
0010
0000
0000
0000
0000
0000
0000
0000
0000
0000
0000
0000
0100
0000
0000
0000
0000
0000
0000
0000
0000
0000
0000
0000
2000
3000
0000
0000
0000
0000
0000
0000
0000
0000
0000
0000
0000
0000
0000
0000
0000
0000
0000
0000
0000
0000
0000
0000
0000
0000
0000
0000
0000
0000
0000
0000
0000
0000
0000
0000
0000
0000
0000
0000
0000
0000
0000
0000
0000
0000
0000
0000
,  // measure 38
0001
0010
0100
0010
0001
0010
0100
0010
0001
0010
0100
0010
0001
0010
0100
0010
,  // measure 39
0001
0010
0100
0010
0001
0010
0100
0010
0001
0010
0100
0010
0002
0000
0003
0000
,  // measure 40
1000
0100
0010
0100
1000
0100
0010
0100
1000
0100
0010
0100
1000
0100
0010
0100
,  // measure 41
1000
0000
0000
0000
0000
0000
0000
0000
0000
0000
0000
0000
0100
0000
0000
0000
0000
0000
0000
0000
0000
0000
0000
0000
0010
0000
0000
0000
0000
0000
0000
0000
0000
0000
0000
0000
0100
0000
0000
0000
0000
0000
0000
0000
0000
0000
0000
0000
1000
0000
0000
0000
0000
0000
0000
0000
0000
0000
0000
0000
0100
0000
0000
0000
0000
0000
0000
0000
0000
0000
0000
0000
0010
0000
0000
0000
0000
0000
0000
0000
0000
0000
0000
0000
0100
0000
0000
0000
0000
0000
0000
0000
0000
0000
0000
0000
1000
0000
0000
0000
0000
0000
0000
0000
0000
0000
0000
0000
0100
0000
0000
0000
0000
0000
0000
0000
0000
0000
0000
0000
0010
0000
0000
0000
0000
0000
0000
0000
0000
0000
0000
0000
0100
0000
0000
0000
0000
0000
0000
0000
0000
0000
0000
0000
2000
3000
0000
0000
0000
0000
0000
0000
0000
0000
0000
0000
0000
0000
0000
0000
0000
0000
0000
0000
0000
0000
0000
0000
0000
0000
0000
0000
0000
0000
0000
0000
0000
0000
0000
0000
0000
0000
0000
0000
0000
0000
0000
0000
0000
0000
0000
0000
,  // measure 42
0001
0010
0100
0010
0001
0010
0100
0010
0001
0010
0100
0010
0001
0010
0100
0010
,  // measure 43
0001
0010
0100
0010
0001
0010
0100
0010
0001
0010
0100
0010
0002
0000
0003
0000
,  // measure 44
1000
0100
0010
0100
1000
0100
0010
0100
1000
0100
0010
0100
1000
0100
0010
0100
,  // measure 45
1000
0000
0000
0000
0000
0000
0000
0000
0000
0000
0000
0000
0100
0000
0000
0000
0000
0000
0000
0000
0000
0000
0000
0000
0010
0000
0000
0000
0000
0000
0000
0000
0000
0000
0000
0000
0100
0000
0000
0000
0000
0000
0000
0000
0000
0000
0000
0000
1000
0000
0000
0000
0000
0000
0000
0000
0000
0000
0000
0000
0100
0000
0000
0000
0000
0000
0000
0000
0000
0000
0000
0000
0010
0000
0000
0000
0000
0000
0000
0000
0000
0000
0000
0000
0100
0000
0000
0000
0000
0000
0000
0000
0000
0000
0000
0000
1000
0000
0000
0000
0000
0000
0000
0000
0000
0000
0000
0000
0100
0000
0000
0000
0000
0000
0000
0000
0000
0000
0000
0000
0010
0000
0000
0000
0000
0000
0000
0000
0000
0000
0000
0000
0100
0000
0000
0000
0000
0000
0000
0000
0000
0000
0000
0000
2000
3000
0000
0000
0000
0000
0000
0000
0000
0000
0000
0000
0000
0000
0000
0000
0000
0000
0000
0000
0000
0000
0000
0000
0000
0000
0000
0000
0000
0000
0000
0000
0000
0000
0000
0000
0000
0000
0000
0000
0000
0000
0000
0000
0000
0000
0000
0000
,  // measure 46
0001
0010
0100
0010
0001
0010
0100
0010
0001
0010
0100
0010
0001
0010
0100
0010
,  // measure 47
0001
0010
0100
0010
0001
0010
0100
0010
0001
0000
0010
0000
0100
0000
1000
0000
,  // measure 48
0110
0000
1001
0110
1001
0000
1001
0000
,  // measure 49
0110
0100
0010
0000
1000
0100
0010
0001
,  // measure 50
0110
0000
1001
0110
1001
0000
1001
0000
,  // measure 51
0110
0010
0100
0000
0001
0010
0100
1000
,  // measure 52
0001
0010
0001
0010
1000
0100
1000
0100
,  // measure 53
0001
0010
0001
0010
1000
0100
1000
0100
,  // measure 54
0011
0010
1100
0100
0011
0010
1100
0100
,  // measure 55
0110
0000
0000
0000
1001
0000
0110
0000
0010
0100
0010
0100
0010
0100
0010
0100
,  // measure 56
1000
0100
0010
0100
1000
0100
0010
0100
1000
0100
0010
0100
1000
0100
0010
0100
,  // measure 57
1000
0000
0000
0000
0000
0000
0000
0000
0000
0000
0000
0000
0100
0000
0000
0000
0000
0000
0000
0000
0000
0000
0000
0000
0010
0000
0000
0000
0000
0000
0000
0000
0000
0000
0000
0000
0100
0000
0000
0000
0000
0000
0000
0000
0000
0000
0000
0000
1000
0000
0000
0000
0000
0000
0000
0000
0000
0000
0000
0000
0100
0000
0000
0000
0000
0000
0000
0000
0000
0000
0000
0000
0010
0000
0000
0000
0000
0000
0000
0000
0000
0000
0000
0000
0100
0000
0000
0000
0000
0000
0000
0000
0000
0000
0000
0000
1000
0000
0000
0000
0000
0000
0000
0000
0000
0000
0000
0000
0100
0000
0000
0000
0000
0000
0000
0000
0000
0000
0000
0000
0010
0000
0000
0000
0000
0000
0000
0000
0000
0000
0000
0000
0100
0000
0000
0000
0000
0000
0000
0000
0000
0000
0000
0000
2000
3000
0000
0000
0000
0000
0000
0000
0000
0000
0000
0000
0000
0000
0000
0000
0000
0000
0000
0000
0000
0000
0000
0000
0000
0000
0000
0000
0000
0000
0000
0000
0000
0000
0000
0000
0000
0000
0000
0000
0000
0000
0000
0000
0000
0000
0000
0000
,  // measure 58
0001
0010
0100
0010
0001
0010
0100
0010
0001
0010
0100
0010
0001
0010
0100
0010
,  // measure 59
0001
0010
0100
0010
0001
0010
0100
0010
0001
0010
0100
0010
0002
0000
0003
0000
,  // measure 60
1000
0100
0010
0100
1000
0100
0010
0100
1000
0100
0010
0100
1000
0100
0010
0100
,  // measure 61
1000
0000
0000
0000
0000
0000
0000
0000
0000
0000
0000
0000
0100
0000
0000
0000
0000
0000
0000
0000
0000
0000
0000
0000
0010
0000
0000
0000
0000
0000
0000
0000
0000
0000
0000
0000
0100
0000
0000
0000
0000
0000
0000
0000
0000
0000
0000
0000
1000
0000
0000
0000
0000
0000
0000
0000
0000
0000
0000
0000
0100
0000
0000
0000
0000
0000
0000
0000
0000
0000
0000
0000
0010
0000
0000
0000
0000
0000
0000
0000
0000
0000
0000
0000
0100
0000
0000
0000
0000
0000
0000
0000
0000
0000
0000
0000
1000
0000
0000
0000
0000
0000
0000
0000
0000
0000
0000
0000
0100
0000
0000
0000
0000
0000
0000
0000
0000
0000
0000
0000
0010
0000
0000
0000
0000
0000
0000
0000
0000
0000
0000
0000
0100
0000
0000
0000
0000
0000
0000
0000
0000
0000
0000
0000
2000
3000
0000
0000
0000
0000
0000
0000
0000
0000
0000
0000
0000
0000
0000
0000
0000
0000
0000
0000
0000
0000
0000
0000
0000
0000
0000
0000
0000
0000
0000
0000
0000
0000
0000
0000
0000
0000
0000
0000
0000
0000
0000
0000
0000
0000
0000
0000
,  // measure 62
0001
0010
0100
0010
0001
0010
0100
0010
0001
0010
0100
0010
0001
0010
0100
0010
,  // measure 63
0001
0010
0100
0010
0001
0010
0100
0010
0001
0010
0100
0010
0002
0000
0003
0000
,  // measure 64
1000
0100
0010
0100
1000
0100
0010
0100
1000
0100
0010
0100
1000
0100
0010
0100
,  // measure 65
1000
0000
0000
0000
0000
0000
0000
0000
0000
0000
0000
0000
0100
0000
0000
0000
0000
0000
0000
0000
0000
0000
0000
0000
0010
0000
0000
0000
0000
0000
0000
0000
0000
0000
0000
0000
0100
0000
0000
0000
0000
0000
0000
0000
0000
0000
0000
0000
1000
0000
0000
0000
0000
0000
0000
0000
0000
0000
0000
0000
0100
0000
0000
0000
0000
0000
0000
0000
0000
0000
0000
0000
0010
0000
0000
0000
0000
0000
0000
0000
0000
0000
0000
0000
0100
0000
0000
0000
0000
0000
0000
0000
0000
0000
0000
0000
1000
0000
0000
0000
0000
0000
0000
0000
0000
0000
0000
0000
0100
0000
0000
0000
0000
0000
0000
0000
0000
0000
0000
0000
0010
0000
0000
0000
0000
0000
0000
0000
0000
0000
0000
0000
0100
0000
0000
0000
0000
0000
0000
0000
0000
0000
0000
0000
2000
3000
0000
0000
0000
0000
0000
0000
0000
0000
0000
0000
0000
0000
0000
0000
0000
0000
0000
0000
0000
0000
0000
0000
0000
0000
0000
0000
0000
0000
0000
0000
0000
0000
0000
0000
0000
0000
0000
0000
0000
0000
0000
0000
0000
0000
0000
0000
,  // measure 66
0001
0010
0100
0010
0001
0010
0100
0010
0001
0010
0100
0010
0001
0010
0100
0010
,  // measure 67
0001
0010
0100
0010
0001
0010
0100
0010
0001
0010
0100
0010
0002
0000
0003
0000
,  // measure 68
1000
0100
0010
0100
1000
0100
0010
0100
1000
0100
0010
0100
1000
0100
0010
0100
,  // measure 69
1000
0000
0000
0000
0000
0000
0000
0000
0000
0000
0000
0000
0100
0000
0000
0000
0000
0000
0000
0000
0000
0000
0000
0000
0010
0000
0000
0000
0000
0000
0000
0000
0000
0000
0000
0000
0100
0000
0000
0000
0000
0000
0000
0000
0000
0000
0000
0000
1000
0000
0000
0000
0000
0000
0000
0000
0000
0000
0000
0000
0100
0000
0000
0000
0000
0000
0000
0000
0000
0000
0000
0000
0010
0000
0000
0000
0000
0000
0000
0000
0000
0000
0000
0000
0100
0000
0000
0000
0000
0000
0000
0000
0000
0000
0000
0000
1000
0000
0000
0000
0000
0000
0000
0000
0000
0000
0000
0000
0100
0000
0000
0000
0000
0000
0000
0000
0000
0000
0000
0000
0010
0000
0000
0000
0000
0000
0000
0000
0000
0000
0000
0000
0100
0000
0000
0000
0000
0000
0000
0000
0000
0000
0000
0000
2000
3000
0000
0000
0000
0000
0000
0000
0000
0000
0000
0000
0000
0000
0000
0000
0000
0000
0000
0000
0000
0000
0000
0000
0000
0000
0000
0000
0000
0000
0000
0000
0000
0000
0000
0000
0000
0000
0000
0000
0000
0000
0000
0000
0000
0000
0000
0000
,  // measure 70
0001
0010
0100
0010
0001
0010
0100
0010
0001
0010
0100
0010
0001
0010
0100
0010
,  // measure 71
0001
0010
0100
0010
0110
0000
1001
0000
0100
0010
0100
0010
0100
0010
0100
0010
,  // measure 72
0110
0000
0000
0000
,  // measure 73
0000
0000
0000
0000
,  // measure 74
2000
3002
0203
0320
,  // measure 75
2030
3002
0203
0300
,  // measure 76
1001
0000
0000
0000
,  // measure 77
0000
0000
0000
0000
,  // measure 78
0002
2003
3020
0130
,  // measure 79
0100
0010
0100
0010
0100
0010
0100
0010
1000
0001
1000
0001
1000
0001
1000
0001
,  // measure 80
0110
0000
0000
0000
;

//---------------dance-single - ----------------
#NOTES:
     dance-single:
     :
     Beginner:
     4:
     0.100468,0.168787,0.091426,0.000000,0.000000,100.000000,87.000000,13.000000,0.000000,0.000000,0.000000,0.000000,0.000000,0.000000,0.100468,0.168787,0.091426,0.000000,0.000000,100.000000,87.000000,13.000000,0.000000,0.000000,0.000000,0.000000,0.000000,0.000000:
0000
0000
0000
0000
,
0000
0000
0000
0000
,
0000
0000
0000
0000
,
0000
0000
0000
0000
,
0000
0000
0000
0000
,
0000
0000
0000
0000
,
0000
0000
0000
0000
,
0000
0000
0000
0000
,
1000
0000
0000
0000
,
1000
0000
0000
0000
,
0001
0000
0000
0000
,
0001
0000
0000
0000
,
0100
0000
0000
0000
,
0100
0000
0000
0000
,
0010
0000
0000
0000
,
0010
0000
0000
0000
,
1000
0000
1000
0000
,
1000
0000
0000
0000
,
0001
0000
0001
0000
,
0001
0000
0000
0000
,
0100
0000
0100
0000
,
0100
0000
0000
0000
,
0010
0000
0010
0000
,
0010
0000
0000
0000
,
0110
0000
0000
0000
,
0000
0000
0000
0000
,
1001
0000
0000
0000
,
0000
0000
0000
0000
,
0110
0000
0000
0000
,
1001
0000
0000
0000
,
0110
0000
0000
0000
,
0000
0000
0000
0000
,
1000
0000
0001
0000
,
0000
0000
0001
0000
,
1000
0000
0001
0000
,
0000
0000
0001
0000
,
0100
0000
0010
0000
,
0000
0000
0010
0000
,
0100
0000
0010
0000
,
0000
0000
0010
0000
,
1000
0000
0001
0000
,
0000
0000
0001
0000
,
1000
0000
0001
0000
,
0000
0000
0001
0000
,
0100
0000
0010
0000
,
0000
0000
0010
0000
,
0100
0000
0010
0000
,
0000
0000
0010
0000
,
0110
0000
0000
0000
,
0000
0000
0000
0000
,
1001
0000
0000
0000
,
0000
0000
0000
0000
,
0110
0000
0000
0000
,
1001
0000
0000
0000
,
0110
0000
0000
0000
,
0000
0000
0000
0000
,
1000
0000
0100
0000
,
1000
0000
0100
0000
,
0001
0000
0010
0000
,
0001
0000
0010
0000
,
1000
0000
0100
0000
,
1000
0000
0100
0000
,
0001
0000
0010
0000
,
0001
0000
0010
0000
,
1000
0000
0001
0000
,
0000
0000
0001
0000
,
1000
0000
0001
0000
,
0000
0000
0001
0000
,
0100
0000
0010
0000
,
0000
0000
0010
0000
,
0100
0000
0010
0000
,
0000
0000
0010
0000
,
0110
0000
0000
0000
,
0000
0000
0000
0000
,
0000
0000
0000
0000
,
0000
0000
0000
0000
,
1001
0000
0000
0000
,
0000
0000
0000
0000
,
0000
0000
0000
0000
,
0100
0000
0010
0000
,
0110
0000
0000
0000
;

//---------------dance-single - ----------------
#NOTES:
     dance-single:
     :
     Easy:
     8:
     0.287340,0.393836,0.112525,0.028131,0.000000,286.000000,270.000000,16.000000,4.000000,0.000000,0.000000,0.000000,0.000000,0.000000,0.287340,0.393836,0.112525,0.028131,0.000000,286.000000,270.000000,16.000000,4.000000,0.000000,0.000000,0.000000,0.000000,0.000000:
0000
0000
0000
0000
,
0000
0000
0000
0000
,
0000
0000
0000
0000
,
0000
0000
0000
0000
,
0000
0000
0000
0000
,
0000
0000
0000
0000
,
0000
0000
0000
0000
,
0000
0000
0000
0000
,
1000
0000
0100
0000
,
1000
0000
0100
0000
,
0001
0000
0010
0000
,
0001
0000
0010
0000
,
1000
0000
0100
0000
,
1000
0000
0100
0000
,
0001
0000
0010
0000
,
0001
0000
0010
0000
,
1000
0100
0010
0001
,
1000
0100
0010
0001
,
0001
0010
0100
1000
,
0001
0010
0100
1000
,
1000
0100
0010
0001
,
1000
0100
0010
0001
,
0001
0010
0100
1000
,
0110
0000
0000
0000
,
1000
1000
0001
0001
,
1000
1000
0001
0001
,
0100
0100
0010
0010
,
0100
0100
0010
0010
,
1000
0001
1000
0001
,
0100
0010
0100
0010
,
0110
0110
1001
1001
,
0110
0000
0000
0000
,
1000
0000
0100
0000
0010
0001
0010
0000
,
0001
0000
0010
0000
0100
1000
0100
0000
,
1000
0000
0100
0000
0010
0001
0010
0000
,
0001
0000
0010
0000
0100
1000
0200
0000
,
1300
0000
0100
0000
0010
0001
0010
0000
,
0001
0000
0010
0000
0100
1000
0100
0000
,
1000
0000
0100
0000
0010
0001
0010
0000
,
0001
0010
0100
0110
,
1000
0000
0100
0000
0010
0001
0010
0000
,
0001
0000
0010
0000
0100
1000
0100
0000
,
1000
0000
0100
0000
0010
0001
0010
0000
,
0001
0000
0010
0000
0100
1000
0200
0000
,
1300
0000
0100
0000
0010
0001
0010
0000
,
0001
0000
0010
0000
0100
1000
0100
0000
,
1000
0000
0100
0000
0010
0001
0010
0000
,
0001
0001
0010
0100
,
1000
1000
0001
0001
,
1000
1000
0001
0001
,
0100
0100
0010
0010
,
0100
0100
0010
0010
,
1000
0001
1000
0001
,
0100
0010
0100
0010
,
0110
0110
1001
1001
,
0110
0000
0000
0000
,
1000
0000
0100
0000
0010
0001
0010
0000
,
0001
0000
0010
0000
0100
1000
0100
0000
,
1000
0000
0100
0000
0010
0001
0010
0000
,
0001
0000
0010
0000
0100
1000
0200
0000
,
1300
0000
0100
0000
0010
0001
0010
0000
,
0001
0000
0010
0000
0100
1000
0100
0000
,
1000
0000
0100
0000
0010
0001
0010
0000
,
0001
0010
0100
0110
,
1000
0000
0100
0000
0010
0001
0010
0000
,
0001
0000
0010
0000
0100
1000
0100
0000
,
1000
0000
0100
0000
0010
0001
0010
0000
,
0001
0000
0010
0000
0100
1000
0200
0000
,
1300
0000
0100
0000
0010
0001
0010
0000
,
0001
0000
0010
0000
0100
1000
0100
0000
,
1000
0000
0100
0000
0010
0001
0010
0000
,
0001
0010
0100
1000
,
0110
0000
0000
0000
,
0000
0000
0000
0000
,
0000
0000
0000
0000
,
0000
0000
0000
0000
,
1001
0000
0000
0000
,
0000
0000
0000
0000
,
0000
0000
0000
0000
,
0100
0010
0100
0010
0100
0010
0100
0010
,
0110
0000
0000
0000
;

//---------------dance-single - ----------------
#NOTES:
     dance-single:
     :
     Medium:
     12:
     0.510380,0.562624,0.344607,0.182853,0.063295,508.000000,459.000000,49.000000,26.000000,0.000000,0.000000,0.000000,0.000000,0.000000,0.510380,0.562624,0.344607,0.182853,0.063295,508.000000,459.000000,49.000000,26.000000,0.000000,0.000000,0.000000,0.000000,0.000000:
0000
0000
0000
0000
,
0000
0000
0000
0000
,
0000
0000
0000
0000
,
0000
0000
0000
0000
,
0000
0000
0000
0000
,
0000
0000
0000
0000
,
0000
0000
0000
0000
,
0000
0000
0000
0000
,
1000
0000
0000
0000
0100
0000
0000
0000
0000
0010
0000
0000
0001
0000
0000
0010
0000
0000
0001
0000
0000
0010
0000
0000
,
0001
0000
0000
0000
0010
0000
0000
0000
0000
0100
0000
0000
1000
0000
0000
0100
0000
0000
1000
0000
0000
0100
0000
0000
,
1000
0000
0000
0000
0100
0000
0000
0000
0000
0010
0000
0000
0001
0000
0000
0010
0000
0000
0001
0000
0000
0010
0000
0000
,
0011
0000
0000
0000
0110
0000
0000
0000
0000
1100
0000
0000
0000
0000
0110
0000
0000
0000
0011
0000
0000
0110
0000
0000
,
1000
0000
0000
0000
0100
0000
0000
0000
0000
0010
0000
0000
0001
0000
0000
0010
0000
0000
0001
0000
0000
0010
0000
0000
,
0001
0000
0000
0000
0010
0000
0000
0000
0000
0100
0000
0000
1000
0000
0000
0100
0000
0000
1000
0000
0000
0100
0000
0000
,
1000
0000
0000
0000
0100
0000
0000
0000
0000
0010
0000
0000
0001
0000
0000
0010
0000
0000
0001
0000
0000
0010
0000
0000
,
0001
0000
0000
0000
0010
0000
0000
0000
0000
0100
0000
0000
1000
0000
0000
0100
0000
0000
1000
0000
0000
0100
0000
0000
,
1000
0000
0000
0000
0100
0000
0000
0000
0000
0010
0000
0000
0001
0000
0000
0010
0000
0000
0001
0000
0000
0010
0000
0000
,
0001
0000
0000
0000
0010
0000
0000
0000
0000
0100
0000
0000
1000
0000
0000
0100
0000
0000
1000
0000
0000
0100
0000
0000
,
1000
0000
0000
0000
0100
0000
0000
0000
0000
0010
0000
0000
0001
0000
0000
0010
0000
0000
0001
0000
0000
0010
0000
0000
,
0011
0000
0000
0000
0110
0000
0000
0000
0000
1100
0000
0000
0000
0000
0110
0000
0000
0000
0011
0000
0000
0110
0000
0000
,
1000
0000
0000
0000
0100
0000
0000
0000
0000
0010
0000
0000
0001
0000
0000
0010
0000
0000
0001
0000
0000
0010
0000
0000
,
0001
0000
0000
0000
0010
0000
0000
0000
0000
0100
0000
0000
1000
0000
0000
0100
0000
0000
1000
0000
0000
0100
0000
0000
,
1000
0000
0000
0000
0100
0000
0000
0000
0000
0010
0000
0000
0001
0000
0000
0010
0000
0000
0001
0000
0000
0010
0000
0000
,
0001
1000
0100
0000
0010
0001
0010
0100
,
1100
0110
1001
0110
,
0000
0001
0010
0000
0100
1000
0100
0010
,
0001
0110
1001
0110
,
0000
1000
0100
0000
0001
0010
0100
1000
,
0100
0110
1001
0110
,
1100
0110
0011
0110
,
0100
0010
0100
0010
0100
0010
0100
0010
,
0110
0000
1100
0011
0100
0010
0100
0010
,
1000
0100
1000
0100
1000
0100
1000
0100
,
0001
0010
0001
0010
0001
0010
0002
0000
,
1003
0100
1000
0100
1000
0100
1000
0100
,
0001
0010
0001
0010
0001
0010
0002
0000
,
0103
0010
0100
0010
0100
0010
0100
0010
,
1000
0001
1000
0001
1000
0001
2000
0000
,
3100
0010
0100
0010
0100
0010
0100
0010
,
1000
0000
0000
0000
0000
0000
0000
0000
0000
0000
0000
0000
0000
0000
0000
0000
0000
0000
0000
0000
0000
0000
0000
0000
0001
0000
0000
0000
0000
0000
0000
0000
0000
0000
0000
0000
0000
0000
0000
0000
0000
0000
0000
0000
0000
0000
0000
0000
1000
0000
0000
0000
0000
0000
0000
0000
0000
0000
0000
0000
0000
0000
0000
0000
0000
0000
0000
0000
0000
0000
0000
0000
0001
0000
0000
0000
0000
0000
0000
0000
0000
0000
0000
0000
0000
0000
0000
0000
0000
0000
0000
0000
0000
0000
0000
0000
1000
0000
0000
0000
0000
0000
0000
0000
0000
0000
0000
0000
0000
0000
0000
0000
0000
0000
0000
0000
0000
0000
0000
0000
0001
0000
0000
0000
0000
0000
0000
0000
0000
0000
0000
0000
0000
0000
0000
0000
0000
0000
0000
0000
0000
0000
0000
0000
2002
3003
0000
0000
0000
0000
0000
0000
0000
0000
0000
0000
0000
0000
0000
0000
0000
0000
0000
0000
0000
0000
0000
0000
0000
0000
0000
0000
0000
0000
0000
0000
0000
0000
0000
0000
0000
0000
0000
0000
0000
0000
0000
0000
0000
0000
0000
0000
,
1000
0100
1000
0100
1000
0100
1000
0100
,
0001
0010
0001
0010
0001
0010
0002
0000
,
1003
0100
1000
0100
1000
0100
1000
0100
,
0001
0010
0001
0010
0001
0010
0002
0000
,
0103
0010
0100
0010
0100
0010
0100
0010
,
1000
0001
1000
0001
1000
0001
2000
0000
,
3100
0010
0100
0010
0100
0010
0100
0010
,
0100
0001
0010
0000
0100
1000
0100
0010
,
0001
0110
1001
0110
,
0000
1000
0100
0000
0010
0001
0010
0100
,
1000
0110
1001
0110
,
0000
0001
0010
0000
0100
1000
0100
0010
,
0001
0110
1001
0110
,
0011
0110
1100
0110
,
0100
0010
0100
0010
0100
0010
0100
0010
,
0110
0000
1100
0011
0100
0010
0100
0010
,
1000
0100
0010
0100
1000
0100
0010
0100
,
1000
0100
0010
0100
1000
0100
0020
0000
,
0031
0010
0100
0010
0001
0010
0100
0010
,
0001
0010
0100
0010
0001
0010
0200
0000
,
1300
0100
0010
0100
1000
0100
0010
0100
,
1000
0100
0010
0100
1000
0100
0020
0000
,
0031
0010
0100
0010
0001
0010
0100
0010
,
0001
0010
0100
0010
0001
0010
0200
0000
,
1300
0100
1000
0100
1000
0100
1000
0100
,
0001
0010
0001
0010
0001
0010
0002
0000
,
1003
0100
1000
0100
1000
0100
1000
0100
,
0010
0001
0010
0001
0010
0001
0020
0000
,
0130
0010
0100
0010
0100
0010
0100
0010
,
1000
0001
1000
0001
1000
0001
2000
0000
,
3100
0010
0100
0010
0100
0010
0100
0010
,
0001
1000
0001
1000
0001
1000
0001
1000
,
0110
0000
0000
0000
,
0000
0000
0000
0000
,
2000
3200
0320
0032
,
0023
0230
2300
3000
,
1001
0000
0000
0000
,
0000
0000
0000
0000
,
0002
0023
0230
2300
,
3100
0010
0100
0010
0100
0010
0100
0010
,
0110
0000
0000
0000
;

//---------------dance-single - ----------------
#NOTES:
     dance-single:
     :
     Hard:
     1:
     0.870057,0.956460,0.421968,0.168787,1.177993,866.000000,806.000000,60.000000,24.000000,0.000000,0.000000,0.000000,0.000000,0.000000,0.870057,0.956460,0.421968,0.168787,1.177993,866.000000,806.000000,60.000000,24.000000,0.000000,0.000000,0.000000,0.000000,0.000000:
0000
0000
0000
0000
,
0000
0000
0000
0000
,
0000
0000
0000
0000
,
0000
0000
0000
0000
,
0000
0000
0000
0000
,
0000
0000
0000
0000
,
0000
0000
0000
0000
,
0000
0000
0000
0000
,
1000
0000
0000
0000
0000
0000
0100
0000
0010
0000
0000
0000
0000
0000
0000
0010
0000
0000
0100
0000
0000
0000
0000
0000
1000
0000
0000
0001
0000
0000
1000
0000
0000
0001
0000
0000
1000
0000
0000
0001
0000
0000
1000
0000
0000
0001
0000
0000
,
1000
0000
0000
0001
0000
0000
0100
0000
0010
0000
0000
0000
0000
0000
0000
0010
0000
0000
0100
0000
0000
0000
0000
0000
0010
0000
0000
0100
0000
0000
0010
0000
0000
0100
0000
0000
0010
0000
0000
0100
0000
0000
0010
0000
0000
0100
0000
0000
,
0010
0000
0000
0100
0000
0000
0001
0000
1000
0000
0000
0000
0000
0000
0000
1000
0000
0000
0001
0000
0000
0000
0000
0000
1000
0000
0000
0001
0000
0000
1000
0000
0000
0001
0000
0000
1000
0000
0000
0001
0000
0000
1000
0000
0000
0001
0000
0000
,
1100
0000
0000
0000
0110
0000
0000
0000
0000
0011
0000
0000
0000
0000
0110
0000
0000
0000
1001
0000
0000
0110
0000
0000
,
0001
0000
0000
0000
0000
0000
0010
0000
0100
0000
0000
0000
0000
0000
0000
0100
0000
0000
0010
0000
0000
0000
0000
0000
1000
0000
0000
0001
0000
0000
1000
0000
0000
0001
0000
0000
1000
0000
0000
0001
0000
0000
1000
0000
0000
0001
0000
0000
,
1000
0000
0000
0001
0000
0000
0010
0000
0100
0000
0000
0000
0000
0000
0000
0100
0000
0000
0010
0000
0000
0000
0000
0000
0100
0000
0000
0010
0000
0000
0100
0000
0000
0010
0000
0000
0100
0000
0000
0010
0000
0000
0100
0000
0000
0010
0000
0000
,
0100
0000
0000
0010
0000
0000
0100
0000
0010
0000
0000
0000
0000
0000
0000
0010
0000
0000
0100
0000
0000
0000
0000
0000
1000
0000
0000
0001
0000
0000
1000
0000
0000
0001
0000
0000
1000
0000
0000
0001
0000
0000
1000
0000
0000
0001
0000
0000
,
1100
0000
0000
0000
0000
0000
0000
0000
0110
0000
0000
0000
0000
0000
0000
0000
0000
0000
0011
0000
0000
0000
0000
0000
0100
0000
0000
0010
0000
0000
0100
0000
0000
0010
0000
0000
0100
0000
0000
0010
0000
0000
0100
0000
0000
0010
0000
0000
,
0110
0000
0000
0000
0000
0000
0100
0000
0010
0000
0000
0000
0000
0000
0000
0010
0000
0000
0100
0000
0000
0000
0000
0000
1000
0000
0000
0001
0000
0000
1000
0000
0000
0001
0000
0000
1000
0000
0000
0001
0000
0000
1000
0000
0000
0001
0000
0000
,
1000
0000
0000
0001
0000
0000
0100
0000
0010
0000
0000
0000
0000
0000
0000
0010
0000
0000
0100
0000
0000
0000
0000
0000
0010
0000
0000
0100
0000
0000
0010
0000
0000
0100
0000
0000
0010
0000
0000
0100
0000
0000
0010
0000
0000
0100
0000
0000
,
0010
0000
0000
0100
0000
0000
0001
0000
1000
0000
0000
0000
0000
0000
0000
1000
0000
0000
0001
0000
0000
0000
0000
0000
1000
0000
0000
0001
0000
0000
1000
0000
0000
0001
0000
0000
1000
0000
0000
0001
0000
0000
1000
0000
0000
0001
0000
0000
,
1100
0000
0000
0000
0110
0000
0000
0000
0000
0011
0000
0000
0000
0000
0110
0000
0000
0000
1001
0000
0000
0110
0000
0000
,
0001
0000
0000
0000
0000
0000
0010
0000
0100
0000
0000
0000
0000
0000
0000
0100
0000
0000
0010
0000
0000
0000
0000
0000
1000
0000
0000
0001
0000
0000
1000
0000
0000
0001
0000
0000
1000
0000
0000
0001
0000
0000
1000
0000
0000
0001
0000
0000
,
1000
0000
0000
0001
0000
0000
0010
0000
0100
0000
0000
0000
0000
0000
0000
0100
0000
0000
0010
0000
0000
0000
0000
0000
0100
0000
0000
0010
0000
0000
0100
0000
0000
0010
0000
0000
0100
0000
0000
0010
0000
0000
0100
0000
0000
0010
0000
0000
,
0100
0000
0000
0010
0000
0000
0100
0000
0010
0000
0000
0000
0000
0000
0000
0010
0000
0000
0100
0000
0000
0000
0000
0000
1000
0000
0000
0001
0000
0000
1000
0000
0000
0001
0000
0000
1000
0000
0000
0001
0000
0000
1000
0000
0000
0001
0000
0000
,
0110
0100
0010
0000
1000
0100
0010
0001
,
0110
0000
1001
0110
1001
0000
1001
0000
,
0110
0010
0100
0000
0001
0010
0100
1000
,
0110
0000
1001
0110
1001
0000
1001
0000
,
0110
0100
0010
0000
1000
0100
0010
0001
,
1000
0100
1000
0100
0010
0001
0010
0001
,
1000
0100
1000
0100
0001
0010
0001
0010
,
1100
0100
0011
0010
1100
0100
0011
0010
,
0110
0000
0000
0000
1001
0000
0110
0000
0100
0010
0100
0010
0100
0010
0100
0010
,
1000
0100
0010
0100
1000
0100
0010
0100
1000
0100
0010
0100
1000
0100
0010
0100
,
1000
0000
0000
0000
0000
0000
0000
0000
0000
0000
0000
0000
0100
0000
0000
0000
0000
0000
0000
0000
0000
0000
0000
0000
0010
0000
0000
0000
0000
0000
0000
0000
0000
0000
0000
0000
0100
0000
0000
0000
0000
0000
0000
0000
0000
0000
0000
0000
1000
0000
0000
0000
0000
0000
0000
0000
0000
0000
0000
0000
0100
0000
0000
0000
0000
0000
0000
0000
0000
0000
0000
0000
0010
0000
0000
0000
0000
0000
0000
0000
0000
0000
0000
0000
0100
0000
0000
0000
0000
0000
0000
0000
0000
0000
0000
0000
1000
0000
0000
0000
0000
0000
0000
0000
0000
0000
0000
0000
0100
0000
0000
0000
0000
0000
0000
0000
0000
0000
0000
0000
0010
0000
0000
0000
0000
0000
0000
0000
0000
0000
0000
0000
0100
0000
0000
0000
0000
0000
0000
0000
0000
0000
0000
0000
2000
3000
0000
0000
0000
0000
0000
0000
0000
0000
0000
0000
0000
0000
0000
0000
0000
0000
0000
0000
0000
0000
0000
0000
0000
0000
0000
0000
0000
0000
0000
0000
0000
0000
0000
0000
0000
0000
0000
0000
0000
0000
0000
0000
0000
0000
0000
0000
,
0001
0010
0100
0010
0001
0010
0100
0010
0001
0010
0100
0010
0001
0010
0100
0010
,
0001
0010
0100
0010
0001
0010
0100
0010
0001
0010
0100
0010
0002
0000
0003
0000
,
1000
0100
0010
0100
1000
0100
0010
0100
1000
0100
0010
0100
1000
0100
0010
0100
,
1000
0000
0000
0000
0000
0000
0000
0000
0000
0000
0000
0000
0100
0000
0000
0000
0000
0000
0000
0000
0000
0000
0000
0000
0010
0000
0000
0000
0000
0000
0000
0000
0000
0000
0000
0000
0100
0000
0000
0000
0000
0000
0000
0000
0000
0000
0000
0000
1000
0000
0000
0000
0000
0000
0000
0000
0000
0000
0000
0000
0100
0000
0000
0000
0000
0000
0000
0000
0000
0000
0000
0000
0010
0000
0000
0000
0000
0000
0000
0000
0000
0000
0000
0000
0100
0000
0000
0000
0000
0000
0000
0000
0000
0000
0000
0000
1000
0000
0000
0000
0000
0000
0000
0000
0000
0000
0000
0000
0100
0000
0000
0000
0000
0000
0000
0000
0000
0000
0000
0000
0010
0000
0000
0000
0000
0000
0000
0000
0000
0000
0000
0000
0100
0000
0000
0000
0000
0000
0000
0000
0000
0000
0000
0000
2000
3000
0000
0000
0000
0000
0000
0000
0000
0000
0000
0000
0000
0000
0000
0000
0000
0000
0000
0000
0000
0000
0000
0000
0000
0000
0000
0000
0000
0000
0000
0000
0000
0000
0000
0000
0000
0000
0000
0000
0000
0000
0000
0000
0000
0000
0000
0000
,
0001
0010
0100
0010
0001
0010
0100
0010
0001
0010
0100
0010
0001
0010
0100
0010
,
0001
0010
0100
0010
0001
0010
0100
0010
0001
0010
0100
0010
0002
0000
0003
0000
,
1000
0100
0010
0100
1000
0100
0010
0100
1000
0100
0010
0100
1000
0100
0010
0100
,
1000
0000
0000
0000
0000
0000
0000
0000
0000
0000
0000
0000
0100
0000
0000
0000
0000
0000
0000
0000
0000
0000
0000
0000
0010
0000
0000
0000
0000
0000
0000
0000
0000
0000
0000
0000
0100
0000
0000
0000
0000
0000
0000
0000
0000
0000
0000
0000
1000
0000
0000
0000
0000
0000
0000
0000
0000
0000
0000
0000
0100
0000
0000
0000
0000
0000
0000
0000
0000
0000
0000
0000
0010
0000
0000
0000
0000
0000
0000
0000
0000
0000
0000
0000
0100
0000
0000
0000
0000
0000
0000
0000
0000
0000
0000
0000
1000
0000
0000
0000
0000
0000
0000
0000
0000
0000
0000
0000
0100
0000
0000
0000
0000
0000
0000
0000
0000
0000
0000
0000
0010
0000
0000
0000
0000
0000
0000
0000
0000
0000
0000
0000
0100
0000
0000
0000
0000
0000
0000
0000
0000
0000
0000
0000
2000
3000
0000
0000
0000
0000
0000
0000
0000
0000
0000
0000
0000
0000
0000
0000
0000
0000
0000
0000
0000
0000
0000
0000
0000
0000
0000
0000
0000
0000
0000
0000
0000
0000
0000
0000
0000
0000
0000
0000
0000
0000
0000
0000
0000
0000
0000
0000
,
0001
0010
0100
0010
0001
0010
0100
0010
0001
0010
0100
0010
0001
0010
0100
0010
,
0001
0010
0100
0010
0001
0010
0100
0010
0001
0010
0100
0010
0002
0000
0003
0000
,
1000
0100
0010
0100
1000
0100
0010
0100
1000
0100
0010
0100
1000
0100
0010
0100
,
1000
0000
0000
0000
0000
0000
0000
0000
0000
0000
0000
0000
0100
0000
0000
0000
0000
0000
0000
0000
0000
0000
0000
0000
0010
0000
0000
0000
0000
0000
0000
0000
0000
0000
0000
0000
0100
0000
0000
0000
0000
0000
0000
0000
0000
0000
0000
0000
1000
0000
0000
0000
0000
0000
0000
0000
0000
0000
0000
0000
0100
0000
0000
0000
0000
0000
0000
0000
0000
0000
0000
0000
0010
0000
0000
0000
0000
0000
0000
0000
0000
0000
0000
0000
0100
0000
0000
0000
0000
0000
0000
0000
0000
0000
0000
0000
1000
0000
0000
0000
0000
0000
0000
0000
0000
0000
0000
0000
0100
0000
0000
0000
0000
0000
0000
0000
0000
0000
0000
0000
0010
0000
0000
0000
0000
0000
0000
0000
0000
0000
0000
0000
0100
0000
0000
0000
0000
0000
0000
0000
0000
0000
0000
0000
2000
3000
0000
0000
0000
0000
0000
0000
0000
0000
0000
0000
0000
0000
0000
0000
0000
0000
0000
0000
0000
0000
0000
0000
0000
0000
0000
0000
0000
0000
0000
0000
0000
0000
0000
0000
0000
0000
0000
0000
0000
0000
0000
0000
0000
0000
0000
0000
,
0001
0010
0100
0010
0001
0010
0100
0010
0001
0010
0100
0010
0001
0010
0100
0010
,
0001
0010
0100
0010
0001
0010
0100
0010
0001
0000
0010
0000
0100
0000
1000
0000
,
0110
0000
1001
0110
1001
0000
1001
0000
,
0110
0100
0010
0000
1000
0100
0010
0001
,
0110
0000
1001
0110
1001
0000
1001
0000
,
0110
0010
0100
0000
0001
0010
0100
1000
,
0001
0010
0001
0010
1000
0100
1000
0100
,
0001
0010
0001
0010
1000
0100
1000
0100
,
0011
0010
1100
0100
0011
0010
1100
0100
,
0110
0000
0000
0000
1001
0000
0110
0000
0010
0100
0010
0100
0010
0100
0010
0100
,
1000
0100
0010
0100
1000
0100
0010
0100
1000
0100
0010
0100
1000
0100
0010
0100
,
1000
0000
0000
0000
0000
0000
0000
0000
0000
0000
0000
0000
0100
0000
0000
0000
0000
0000
0000
0000
0000
0000
0000
0000
0010
0000
0000
0000
0000
0000
0000
0000
0000
0000
0000
0000
0100
0000
0000
0000
0000
0000
0000
0000
0000
0000
0000
0000
1000
0000
0000
0000
0000
0000
0000
0000
0000
0000
0000
0000
0100
0000
0000
0000
0000
0000
0000
0000
0000
0000
0000
0000
0010
0000
0000
0000
0000
0000
0000
0000
0000
0000
0000
0000
0100
0000
0000
0000
0000
0000
0000
0000
0000
0000
0000
0000
1000
0000
0000
0000
0000
0000
0000
0000
0000
0000
0000
0000
0100
0000
0000
0000
0000
0000
0000
0000
0000
0000
0000
0000
0010
0000
0000
0000
0000
0000
0000
0000
0000
0000
0000
0000
0100
0000
0000
0000
0000
0000
0000
0000
0000
0000
0000
0000
2000
3000
0000
0000
0000
0000
0000
0000
0000
0000
0000
0000
0000
0000
0000
0000
0000
0000
0000
0000
0000
0000
0000
0000
0000
0000
0000
0000
0000
0000
0000
0000
0000
0000
0000
0000
0000
0000
0000
0000
0000
0000
0000
0000
0000
0000
0000
0000
,
0001
0010
0100
0010
0001
0010
0100
0010
0001
0010
0100
0010
0001
0010
0100
0010
,
0001
0010
0100
0010
0001
0010
0100
0010
0001
0010
0100
0010
0002
0000
0003
0000
,
1000
0100
0010
0100
1000
0100
0010
0100
1000
0100
0010
0100
1000
0100
0010
0100
,
1000
0000
0000
0000
0000
0000
0000
0000
0000
0000
0000
0000
0100
0000
0000
0000
0000
0000
0000
0000
0000
0000
0000
0000
0010
0000
0000
0000
0000
0000
0000
0000
0000
0000
0000
0000
0100
0000
0000
0000
0000
0000
0000
0000
0000
0000
0000
0000
1000
0000
0000
0000
0000
0000
0000
0000
0000
0000
0000
0000
0100
0000
0000
0000
0000
0000
0000
0000
0000
0000
0000
0000
0010
0000
0000
0000
0000
0000
0000
0000
0000
0000
0000
0000
0100
0000
0000
0000
0000
0000
0000
0000
0000
0000
0000
0000
1000
0000
0000
0000
0000
0000
0000
0000
0000
0000
0000
0000
0100
0000
0000
0000
0000
0000
0000
0000
0000
0000
0000
0000
0010
0000
0000
0000
0000
0000
0000
0000
0000
0000
0000
0000
0100
0000
0000
0000
0000
0000
0000
0000
0000
0000
0000
0000
2000
3000
0000
0000
0000
0000
0000
0000
0000
0000
0000
0000
0000
0000
0000
0000
0000
0000
0000
0000
0000
0000
0000
0000
0000
0000
0000
0000
0000
0000
0000
0000
0000
0000
0000
0000
0000
0000
0000
0000
0000
0000
0000
0000
0000
0000
0000
0000
,
0001
0010
0100
0010
0001
0010
0100
0010
0001
0010
0100
0010
0001
0010
0100
0010
,
0001
0010
0100
0010
0001
0010
0100
0010
0001
0010
0100
0010
0002
0000
0003
0000
,
1000
0100
0010
0100
1000
0100
0010
0100
1000
0100
0010
0100
1000
0100
0010
0100
,
1000
0000
0000
0000
0000
0000
0000
0000
0000
0000
0000
0000
0100
0000
0000
0000
0000
0000
0000
0000
0000
0000
0000
0000
0010
0000
0000
0000
0000
0000
0000
0000
0000
0000
0000
0000
0100
0000
0000
0000
0000
0000
0000
0000
0000
0000
0000
0000
1000
0000
0000
0000
0000
0000
0000
0000
0000
0000
0000
0000
0100
0000
0000
0000
0000
0000
0000
0000
0000
0000
0000
0000
0010
0000
0000
0000
0000
0000
0000
0000
0000
0000
0000
0000
0100
0000
0000
0000
0000
0000
0000
0000
0000
0000
0000
0000
1000
0000
0000
0000
0000
0000
0000
0000
0000
0000
0000
0000
0100
0000
0000
0000
0000
0000
0000
0000
0000
0000
0000
0000
0010
0000
0000
0000
0000
0000
0000
0000
0000
0000
0000
0000
0100
0000
0000
0000
0000
0000
0000
0000
0000
0000
0000
0000
2000
3000
0000
0000
0000
0000
0000
0000
0000
0000
0000
0000
0000
0000
0000
0000
0000
0000
0000
0000
0000
0000
0000
0000
0000
0000
0000
0000
0000
0000
0000
0000
0000
0000
0000
0000
0000
0000
0000
0000
0000
0000
0000
0000
0000
0000
0000
0000
,
0001
0010
0100
0010
0001
0010
0100
0010
0001
0010
0100
0010
0001
0010
0100
0010
,
0001
0010
0100
0010
0001
0010
0100
0010
0001
0010
0100
0010
0002
0000
0003
0000
,
1000
0100
0010
0100
1000
0100
0010
0100
1000
0100
0010
0100
1000
0100
0010
0100
,
1000
0000
0000
0000
0000
0000
0000
0000
0000
0000
0000
0000
0100
0000
0000
0000
0000
0000
0000
0000
0000
0000
0000
0000
0010
0000
0000
0000
0000
0000
0000
0000
0000
0000
0000
0000
0100
0000
0000
0000
0000
0000
0000
0000
0000
0000
0000
0000
1000
0000
0000
0000
0000
0000
0000
0000
0000
0000
0000
0000
0100
0000
0000
0000
0000
0000
0000
0000
0000
0000
0000
0000
0010
0000
0000
0000
0000
0000
0000
0000
0000
0000
0000
0000
0100
0000
0000
0000
0000
0000
0000
0000
0000
0000
0000
0000
1000
0000
0000
0000
0000
0000
0000
0000
0000
0000
0000
0000
0100
0000
0000
0000
0000
0000
0000
0000
0000
0000
0000
0000
0010
0000
0000
0000
0000
0000
0000
0000
0000
0000
0000
0000
0100
0000
0000
0000
0000
0000
0000
0000
0000
0000
0000
0000
2000
3000
0000
0000
0000
0000
0000
0000
0000
0000
0000
0000
0000
0000
0000
0000
0000
0000
0000
0000
0000
0000
0000
0000
0000
0000
0000
0000
0000
0000
0000
0000
0000
0000
0000
0000
0000
0000
0000
0000
0000
0000
0000
0000
0000
0000
0000
0000
,
0001
0010
0100
0010
0001
0010
0100
0010
0001
0010
0100
0010
0001
0010
0100
0010
,
0001
0010
0100
0010
0110
0000
1001
0000
0100
0010
0100
0010
0100
0010
0100
0010
,
0110
0000
0000
0000
,
0000
0000
0000
0000
,
2000
3002
0203
0320
,
2030
3002
0203
0300
,
1001
0000
0000
0000
,
0000
0000
0000
0000
,
0002
2003
3020
0130
,
0100
0010
0100
0010
0100
0010
0100
0010
1000
0001
1000
0001
1000
0001
1000
0001
,
0110
0000
0000
0000
;
