#TITLE:Bring It Back;
#SUBTITLE:;
#ARTIST:Tisoki;
#TITLETRANSLIT:;
#SUBTITLETRANSLIT:;
#ARTISTTRANSLIT:;
#GENRE:;
#CREDIT:;
#BANNER:;
#BACKGROUND:;
#LYRICSPATH:;
#CDTITLE:;
#MUSIC:Bring It Back.ogg;
#OFFSET:0.040000;
#SAMPLESTART:29.992674;
#SAMPLELENGTH:14.999983;
#SELECTABLE:YES;
#BPMS:0.000000=128.000183
;
#STOPS:188.000000=1.406250
;
#BGCHANGES:;
#KEYSOUNDS:;
#ATTACKS:;

//---------------dance-single - ----------------
#NOTES:
     dance-single:
     :
     Beginner:
     1:
     0.068062,0.103912,0.073929,0.016429,0.000000,58.000000,49.000000,9.000000,2.000000,0.000000,0.000000,0.000000,0.000000,0.000000,0.068062,0.103912,0.073929,0.016429,0.000000,58.000000,49.000000,9.000000,2.000000,0.000000,0.000000,0.000000,0.000000,0.000000:
0000
0000
0000
0000
,
0000
0000
0000
0000
,
0000
0000
0000
0000
,
0000
0000
0000
0000
,
1000
0000
0000
0000
,
0000
0000
0000
0000
,
0001
0000
0000
0000
,
0000
0000
0000
0000
,
0110
0000
0000
0000
,
0000
0000
0000
0000
,
1001
0000
0000
0000
,
0000
0000
0000
0000
,
0110
0000
0000
0000
,
0000
0000
0000
0000
,
1001
0000
0000
0000
,
0000
0000
0000
0000
,
1000
0000
0000
0000
,
1000
0000
0000
0000
,
0001
0000
0000
0000
,
0001
0000
0000
0000
,
0100
0000
0000
0000
,
0100
0000
0000
0000
,
0010
0000
0000
0000
,
0010
0000
0000
0000
,
1000
0000
0000
0000
,
0001
0000
0000
0000
,
1000
0000
0000
0000
,
0001
0000
0000
0000
,
0100
0000
0000
0000
,
0010
0000
0000
0000
,
0100
0000
0000
0000
,
0010
0000
0000
0000
,
1001
0000
0000
0000
,
0000
0000
0000
0000
,
0110
0000
0000
0000
,
0000
0000
0000
0000
,
1001
0000
0000
0000
,
0000
0000
0000
0000
,
0220
0000
0000
0000
,
0330
0000
0000
0000
,
1000
0000
0000
0000
,
1000
0000
1000
0000
,
1000
0000
0000
0000
,
0001
0000
0001
0000
,
0001
0000
0000
0000
,
0100
0000
0100
0000
,
0100
0000
0000
0000
,
0000
1000
0000
0000
,
0000
1000
0000
0000
,
0000
0001
0000
0000
,
0000
0001
0000
0000
,
0000
0100
0000
0000
,
0000
0100
0000
0000
,
0000
0010
0000
0000
,
0000
0010
0000
0000
,
0000
1000
0000
0000
,
0000
0000
0000
0000
,
0000
0001
0000
0000
,
0000
0000
0000
0000
,
0000
0100
0000
0000
,
0000
0000
0000
0000
,
0000
0010
0000
0000
,
0000
0000
0000
0000
,
0000
0110
0000
0000
;

//---------------dance-single - ----------------
#NOTES:
     dance-single:
     :
     Easy:
     5:
     0.221788,0.285757,0.156073,0.032857,0.000000,189.000000,170.000000,19.000000,4.000000,0.000000,0.000000,0.000000,0.000000,0.000000,0.221788,0.285757,0.156073,0.032857,0.000000,189.000000,170.000000,19.000000,4.000000,0.000000,0.000000,0.000000,0.000000,0.000000:
0000
0000
0000
0000
,
0000
0000
0000
0000
,
0000
0000
0000
0000
,
0000
0000
0000
0000
,
1000
0100
1000
0000
,
0010
0100
0010
0000
,
0001
0010
0001
0000
,
0010
0100
0010
0000
,
0110
0000
0000
0000
,
1001
0000
0000
0000
,
1100
0000
0000
0000
,
0011
0000
0000
0000
,
1000
0100
0010
0001
,
1000
0100
0010
0001
,
0220
0000
0000
0000
,
0330
0000
0000
0000
,
1000
0100
1000
0100
,
0010
0001
0010
0000
,
0001
0010
0001
0010
,
0100
1000
0100
0000
,
0100
0010
0100
0010
,
0100
1000
0100
0000
,
0010
0100
0010
0100
,
0010
0001
0010
0000
,
1000
0100
1000
0100
,
0010
0001
0010
0000
,
0001
0010
0001
0010
,
0100
1000
0100
0000
,
0100
0010
0100
0010
,
0100
1000
0100
0000
,
0010
0100
0010
0100
,
0010
0001
0010
0000
,
0110
0000
0000
0000
,
0000
0000
0000
0000
,
1001
0000
0000
0000
,
0000
0000
0000
0000
,
1000
1000
1000
1000
,
0001
0001
0001
0000
,
0220
0000
0000
0000
,
0330
0000
0000
0000
,
1000
0100
1000
0000
,
0110
0000
0011
0000
,
0001
0010
0001
0000
,
0110
0000
1100
0000
,
1000
0100
1000
0000
,
0110
0000
0011
0000
,
0001
0010
0001
0000
,
0000
1000
0100
1000
,
0100
0010
0001
0010
,
0000
0001
0010
0001
,
0010
0100
1000
0100
,
0000
0100
0010
0100
,
0010
0100
1000
0100
,
0000
0010
0100
0010
,
0100
0010
0001
0010
,
0000
0110
0100
0100
,
0100
0100
0100
0100
,
0100
0110
0010
0010
,
0010
0010
0010
0010
,
0010
1001
0001
0001
,
0001
0001
0001
0001
,
0001
1001
1000
1000
,
1000
1000
1000
1000
,
1000
0110
0000
0000
;

//---------------dance-single - ----------------
#NOTES:
     dance-single:
     :
     Medium:
     9:
     0.450616,0.467603,0.755721,0.090358,0.045179,384.000000,292.000000,92.000000,11.000000,0.000000,0.000000,0.000000,0.000000,0.000000,0.450616,0.467603,0.755721,0.090358,0.045179,384.000000,292.000000,92.000000,11.000000,0.000000,0.000000,0.000000,0.000000,0.000000:
0000
0000
0000
0000
,
0000
0000
0000
0000
,
0000
0000
0000
0000
,
0000
0000
0000
0000
,
1000
0110
0001
0110
,
1000
0110
0001
0110
,
0100
1001
0010
1001
,
0100
0000
0000
0000
0000
0000
1001
0000
0000
0000
0000
0000
0010
0000
0000
0000
0100
0000
0000
0000
0000
0010
0000
0000
,
0110
0000
1000
0100
0010
0000
0001
0000
,
1000
0001
1000
0001
,
0110
0000
0001
0010
0100
0000
1000
0000
,
0001
1000
0001
1000
,
0110
0011
0110
1100
,
0110
0011
0110
1100
,
0010
0100
0010
0100
0010
0100
0010
0100
,
0110
0010
0010
0010
0010
0010
0100
0000
,
1001
0000
1000
0100
0010
0001
0010
1000
,
0100
0001
0010
1000
0100
0001
0010
0000
,
0110
0000
0001
0010
0100
1000
0100
0001
,
0010
0000
0000
1000
0000
0000
0100
0000
0000
0001
0000
0000
0020
0000
0000
0000
0230
0000
0000
0000
0300
1000
0000
0000
,
0110
0000
1000
0100
0010
0001
0010
1000
,
0100
0001
0010
1000
0100
0001
0010
0000
,
0110
0000
1000
0100
0010
0001
0010
1000
,
0100
0001
0010
1000
0200
0000
0000
0300
,
0110
0000
0010
0100
0010
0000
1100
0000
,
0110
0011
0110
1100
,
0110
0000
0010
0100
0010
0000
0011
0000
,
0110
0000
0000
0000
0000
0000
1100
0000
0000
0000
0000
0000
0020
0000
0000
0000
0230
0000
0000
0000
0300
0010
0000
0000
,
1001
0000
0100
0010
0100
0000
1100
0000
,
0110
0011
0110
1100
,
0110
0000
0010
0100
0010
0000
0011
0000
,
0110
0000
0000
0000
0000
0000
1100
0000
0000
0000
0000
0000
0010
0000
0000
0000
0100
0000
0000
0000
0000
0010
0000
0000
,
0110
0000
1000
0100
0010
0000
0001
0000
,
1000
0001
1000
0001
,
0110
0000
0001
0010
0100
0000
1000
0000
,
0001
1000
0001
1000
,
0110
0011
0110
1100
,
0110
0011
0110
0000
,
2002
0000
0000
0000
,
3003
0000
0000
0000
0010
0100
0010
0000
,
0110
0000
1000
0100
0010
0100
1000
0100
,
0011
0110
1100
0110
,
0011
0000
0001
0010
0100
0010
0001
0010
,
1100
0000
0000
0000
0000
0000
0110
0000
0000
0000
0000
0000
0020
0000
0000
0000
0230
0000
0000
0000
0300
0010
0000
0000
,
0110
0000
1000
0100
0010
0100
1000
0100
,
0011
0110
1100
0110
,
0011
0000
0001
0010
0100
0010
0001
0010
,
0110
0000
1001
0000
0010
0100
0010
0000
,
1100
0110
0011
0110
,
1100
0000
0110
0000
0010
0100
0010
0000
,
0011
0000
0000
0110
0000
0000
1100
0000
0000
0020
0000
0230
,
0000
0000
0300
0010
0000
0000
1001
0000
0000
0000
0000
0000
0100
0000
0000
0010
0000
0000
0100
0000
0000
0000
0000
0000
,
1100
0110
0011
0110
,
1100
0000
0110
0000
0010
0100
0010
0000
,
0011
0000
0000
0110
0000
0000
1100
0000
0000
0010
0000
0100
,
0000
0010
0110
0000
1000
0000
0001
0000
,
1000
0001
1000
0001
,
1000
0110
0001
1000
,
0001
1000
0001
1000
,
0001
1001
0100
0010
,
0100
0010
0100
0010
,
0100
1001
0010
0100
,
0010
0100
0010
0100
,
0010
0110
0000
0000
;

//---------------dance-single - ----------------
#NOTES:
     dance-single:
     :
     Beginner:
     1:
     0.068062,0.103912,0.073929,0.016429,0.000000,58.000000,49.000000,9.000000,2.000000,0.000000,0.000000,0.000000,0.000000,0.000000,0.068062,0.103912,0.073929,0.016429,0.000000,58.000000,49.000000,9.000000,2.000000,0.000000,0.000000,0.000000,0.000000,0.000000:
0000
0000
0000
0000
,
0000
0000
0000
0000
,
0000
0000
0000
0000
,
0000
0000
0000
0000
,
1000
0000
0000
0000
,
0000
0000
0000
0000
,
0001
0000
0000
0000
,
0000
0000
0000
0000
,
0110
0000
0000
0000
,
0000
0000
0000
0000
,
1001
0000
0000
0000
,
0000
0000
0000
0000
,
0110
0000
0000
0000
,
0000
0000
0000
0000
,
1001
0000
0000
0000
,
0000
0000
0000
0000
,
1000
0000
0000
0000
,
1000
0000
0000
0000
,
0001
0000
0000
0000
,
0001
0000
0000
0000
,
0100
0000
0000
0000
,
0100
0000
0000
0000
,
0010
0000
0000
0000
,
0010
0000
0000
0000
,
1000
0000
0000
0000
,
0001
0000
0000
0000
,
1000
0000
0000
0000
,
0001
0000
0000
0000
,
0100
0000
0000
0000
,
0010
0000
0000
0000
,
0100
0000
0000
0000
,
0010
0000
0000
0000
,
1001
0000
0000
0000
,
0000
0000
0000
0000
,
0110
0000
0000
0000
,
0000
0000
0000
0000
,
1001
0000
0000
0000
,
0000
0000
0000
0000
,
0220
0000
0000
0000
,
0330
0000
0000
0000
,
1000
0000
0000
0000
,
1000
0000
1000
0000
,
1000
0000
0000
0000
,
0001
0000
0001
0000
,
0001
0000
0000
0000
,
0100
0000
0100
0000
,
0100
0000
0000
0000
,
0000
1000
0000
0000
,
0000
1000
0000
0000
,
0000
0001
0000
0000
,
0000
0001
0000
0000
,
0000
0100
0000
0000
,
0000
0100
0000
0000
,
0000
0010
0000
0000
,
0000
0010
0000
0000
,
0000
1000
0000
0000
,
0000
0000
0000
0000
,
0000
0001
0000
0000
,
0000
0000
0000
0000
,
0000
0100
0000
0000
,
0000
0000
0000
0000
,
0000
0010
0000
0000
,
0000
0000
0000
0000
,
0000
0110
0000
0000
;

//---------------dance-single - ----------------
#NOTES:
     dance-single:
     :
     Easy:
     5:
     0.221788,0.285757,0.156073,0.032857,0.000000,189.000000,170.000000,19.000000,4.000000,0.000000,0.000000,0.000000,0.000000,0.000000,0.221788,0.285757,0.156073,0.032857,0.000000,189.000000,170.000000,19.000000,4.000000,0.000000,0.000000,0.000000,0.000000,0.000000:
0000
0000
0000
0000
,
0000
0000
0000
0000
,
0000
0000
0000
0000
,
0000
0000
0000
0000
,
1000
0100
1000
0000
,
0010
0100
0010
0000
,
0001
0010
0001
0000
,
0010
0100
0010
0000
,
0110
0000
0000
0000
,
1001
0000
0000
0000
,
1100
0000
0000
0000
,
0011
0000
0000
0000
,
1000
0100
0010
0001
,
1000
0100
0010
0001
,
0220
0000
0000
0000
,
0330
0000
0000
0000
,
1000
0100
1000
0100
,
0010
0001
0010
0000
,
0001
0010
0001
0010
,
0100
1000
0100
0000
,
0100
0010
0100
0010
,
0100
1000
0100
0000
,
0010
0100
0010
0100
,
0010
0001
0010
0000
,
1000
0100
1000
0100
,
0010
0001
0010
0000
,
0001
0010
0001
0010
,
0100
1000
0100
0000
,
0100
0010
0100
0010
,
0100
1000
0100
0000
,
0010
0100
0010
0100
,
0010
0001
0010
0000
,
0110
0000
0000
0000
,
0000
0000
0000
0000
,
1001
0000
0000
0000
,
0000
0000
0000
0000
,
1000
1000
1000
1000
,
0001
0001
0001
0000
,
0220
0000
0000
0000
,
0330
0000
0000
0000
,
1000
0100
1000
0000
,
0110
0000
0011
0000
,
0001
0010
0001
0000
,
0110
0000
1100
0000
,
1000
0100
1000
0000
,
0110
0000
0011
0000
,
0001
0010
0001
0000
,
0000
1000
0100
1000
,
0100
0010
0001
0010
,
0000
0001
0010
0001
,
0010
0100
1000
0100
,
0000
0100
0010
0100
,
0010
0100
1000
0100
,
0000
0010
0100
0010
,
0100
0010
0001
0010
,
0000
0110
0100
0100
,
0100
0100
0100
0100
,
0100
0110
0010
0010
,
0010
0010
0010
0010
,
0010
1001
0001
0001
,
0001
0001
0001
0001
,
0001
1001
1000
1000
,
1000
1000
1000
1000
,
1000
0110
0000
0000
;

//---------------dance-single - ----------------
#NOTES:
     dance-single:
     :
     Medium:
     9:
     0.450616,0.467603,0.755721,0.090358,0.045179,384.000000,292.000000,92.000000,11.000000,0.000000,0.000000,0.000000,0.000000,0.000000,0.450616,0.467603,0.755721,0.090358,0.045179,384.000000,292.000000,92.000000,11.000000,0.000000,0.000000,0.000000,0.000000,0.000000:
0000
0000
0000
0000
,
0000
0000
0000
0000
,
0000
0000
0000
0000
,
0000
0000
0000
0000
,
1000
0110
0001
0110
,
1000
0110
0001
0110
,
0100
1001
0010
1001
,
0100
0000
0000
0000
0000
0000
1001
0000
0000
0000
0000
0000
0010
0000
0000
0000
0100
0000
0000
0000
0000
0010
0000
0000
,
0110
0000
1000
0100
0010
0000
0001
0000
,
1000
0001
1000
0001
,
0110
0000
0001
0010
0100
0000
1000
0000
,
0001
1000
0001
1000
,
0110
0011
0110
1100
,
0110
0011
0110
1100
,
0010
0100
0010
0100
0010
0100
0010
0100
,
0110
0010
0010
0010
0010
0010
0100
0000
,
1001
0000
1000
0100
0010
0001
0010
1000
,
0100
0001
0010
1000
0100
0001
0010
0000
,
0110
0000
0001
0010
0100
1000
0100
0001
,
0010
0000
0000
1000
0000
0000
0100
0000
0000
0001
0000
0000
0020
0000
0000
0000
0230
0000
0000
0000
0300
1000
0000
0000
,
0110
0000
1000
0100
0010
0001
0010
1000
,
0100
0001
0010
1000
0100
0001
0010
0000
,
0110
0000
1000
0100
0010
0001
0010
1000
,
0100
0001
0010
1000
0200
0000
0000
0300
,
0110
0000
0010
0100
0010
0000
1100
0000
,
0110
0011
0110
1100
,
0110
0000
0010
0100
0010
0000
0011
0000
,
0110
0000
0000
0000
0000
0000
1100
0000
0000
0000
0000
0000
0020
0000
0000
0000
0230
0000
0000
0000
0300
0010
0000
0000
,
1001
0000
0100
0010
0100
0000
1100
0000
,
0110
0011
0110
1100
,
0110
0000
0010
0100
0010
0000
0011
0000
,
0110
0000
0000
0000
0000
0000
1100
0000
0000
0000
0000
0000
0010
0000
0000
0000
0100
0000
0000
0000
0000
0010
0000
0000
,
0110
0000
1000
0100
0010
0000
0001
0000
,
1000
0001
1000
0001
,
0110
0000
0001
0010
0100
0000
1000
0000
,
0001
1000
0001
1000
,
0110
0011
0110
1100
,
0110
0011
0110
0000
,
2002
0000
0000
0000
,
3003
0000
0000
0000
0010
0100
0010
0000
,
0110
0000
1000
0100
0010
0100
1000
0100
,
0011
0110
1100
0110
,
0011
0000
0001
0010
0100
0010
0001
0010
,
1100
0000
0000
0000
0000
0000
0110
0000
0000
0000
0000
0000
0020
0000
0000
0000
0230
0000
0000
0000
0300
0010
0000
0000
,
0110
0000
1000
0100
0010
0100
1000
0100
,
0011
0110
1100
0110
,
0011
0000
0001
0010
0100
0010
0001
0010
,
0110
0000
1001
0000
0010
0100
0010
0000
,
1100
0110
0011
0110
,
1100
0000
0110
0000
0010
0100
0010
0000
,
0011
0000
0000
0110
0000
0000
1100
0000
0000
0020
0000
0230
,
0000
0000
0300
0010
0000
0000
1001
0000
0000
0000
0000
0000
0100
0000
0000
0010
0000
0000
0100
0000
0000
0000
0000
0000
,
1100
0110
0011
0110
,
1100
0000
0110
0000
0010
0100
0010
0000
,
0011
0000
0000
0110
0000
0000
1100
0000
0000
0010
0000
0100
,
0000
0010
0110
0000
1000
0000
0001
0000
,
1000
0001
1000
0001
,
1000
0110
0001
1000
,
0001
1000
0001
1000
,
0001
1001
0100
0010
,
0100
0010
0100
0010
,
0100
1001
0010
0100
,
0010
0100
0010
0100
,
0010
0110
0000
0000
;

//---------------dance-single - ----------------
#NOTES:
     dance-single:
     :
     Hard:
     13:
     0.533934,0.675426,0.599648,0.115001,0.139644,455.000000,382.000000,73.000000,14.000000,0.000000,0.000000,0.000000,0.000000,0.000000,0.533934,0.675426,0.599648,0.115001,0.139644,455.000000,382.000000,73.000000,14.000000,0.000000,0.000000,0.000000,0.000000,0.000000:
// measure 0
0000
0000
0000
0000
,  // measure 1
0000
0000
0000
0000
,  // measure 2
0000
0000
0000
0000
,  // measure 3
0000
0000
0000
0000
,  // measure 4
1000
0100
0001
0010
1000
0100
0001
0010
,  // measure 5
1000
0100
0001
0010
1000
0100
0110
0000
,  // measure 6
0001
0010
1000
0100
0001
0010
1000
0100
,  // measure 7
0001
0000
0000
0010
0000
0000
1000
0000
0000
0100
0000
0000
0011
0000
0000
0000
0110
0000
0000
0000
0000
1100
0000
0000
,  // measure 8
0110
0000
0001
0010
0100
0000
1000
0000
,  // measure 9
0001
1000
0001
1000
,  // measure 10
0110
0000
1000
0100
0010
0000
0001
0000
,  // measure 11
1000
0001
1000
0001
,  // measure 12
1000
0100
0001
0010
1000
0100
0001
0010
,  // measure 13
1000
0100
0001
0010
1000
0100
0001
0010
,  // measure 14
0100
0010
0100
0010
0100
0010
0100
0010
0100
0010
0100
0010
0100
0010
0100
0010
,  // measure 15
0110
0010
0010
0010
0010
0010
0100
0000
,  // measure 16
1001
0000
1000
0100
0010
0001
0010
1000
,  // measure 17
0100
0000
0001
0000
0010
0000
1000
0000
0100
0000
0001
0010
0001
0000
0000
0000
,  // measure 18
0110
0000
0001
0010
0100
1000
0100
0001
,  // measure 19
0010
0000
0000
0100
0000
0000
1000
0000
0000
0000
0000
0000
0100
0000
0000
0000
0000
0000
0010
0000
0000
0000
0000
0000
0002
0000
0000
0000
0000
0000
0000
0000
0023
0000
0000
0000
0000
0000
0000
0000
0030
0000
0100
0000
0000
0000
0000
0000
,  // measure 20
0110
0000
0001
0010
0100
1000
0100
0001
,  // measure 21
0010
0000
1000
0000
0100
0000
0001
0000
0010
0000
1000
0100
1000
0000
0000
0000
,  // measure 22
0110
0000
1000
0100
0010
0001
0010
1000
,  // measure 23
0100
0001
0010
1000
0220
0000
0000
0330
,  // measure 24
1001
0000
0010
0100
0010
0000
0100
0000
,  // measure 25
0000
0010
0000
0100
0020
0000
0230
0300
,  // measure 26
1001
0000
0100
0010
0100
0000
0010
0000
,  // measure 27
0000
0000
0000
0100
0000
0000
0000
0000
0000
0010
0000
0000
2000
0000
0000
0000
3002
0000
0000
0000
0003
1000
0000
0000
,  // measure 28
0110
0000
0010
0100
0010
0000
0100
0000
,  // measure 29
0000
0010
0000
0100
0010
0000
0100
0000
,  // measure 30
1001
0000
0010
0100
0010
0000
0100
0000
,  // measure 31
0000
0000
0000
0010
0000
0000
0000
0000
0000
0100
0000
0000
0011
0000
0000
0000
0110
0000
0000
0000
0000
1100
0000
0000
,  // measure 32
0110
0000
1000
0001
1000
0000
0011
0000
,  // measure 33
0110
1100
0110
0011
,  // measure 34
0110
0000
0001
1000
0001
0000
1100
0000
,  // measure 35
0110
0011
0110
1100
,  // measure 36
0001
0010
1000
0100
0001
0010
1000
0100
,  // measure 37
0001
0010
1000
0100
0001
0010
0000
0200
,  // measure 38
0020
0000
0000
0000
0000
0000
0000
0330
,  // measure 39
0010
0000
0100
0000
1000
0001
1000
0001
0100
0000
0000
0000
0010
0000
0000
0000
,  // measure 40
0110
0000
1000
0100
0110
0001
0010
0001
,  // measure 41
1000
0100
1000
0000
0001
0010
0001
0000
1000
0000
0100
0010
0100
0000
0000
0000
,  // measure 42
0110
0000
0001
0010
0110
1000
0100
1000
,  // measure 43
0001
0000
0000
0010
0000
0000
0001
0000
0000
0000
0000
0000
1000
0000
0000
0100
0000
0000
1000
0000
0000
0000
0000
0000
0020
0000
0000
0000
0000
0000
0000
0000
0230
0000
0000
0000
0000
0000
0000
0000
0300
0000
0010
0000
0000
0000
0000
0000
,  // measure 44
0110
0000
1000
0100
0110
0001
0010
0001
,  // measure 45
1000
0100
1000
0000
0001
0010
0001
0000
0100
0000
0010
0100
0010
0000
0000
0000
,  // measure 46
1001
0000
0000
0000
0110
0000
0000
0000
0100
0010
0100
0010
0100
0000
0100
0000
,  // measure 47
0110
0000
1001
1100
0000
0110
0000
0011
,  // measure 48
0000
0110
0000
1100
0000
0110
0000
0011
,  // measure 49
0000
1001
0000
1100
0000
0110
0000
0011
,  // measure 50
0000
0000
0000
0110
0000
0000
0000
0000
0000
1100
0000
0000
0000
0000
0000
0110
0000
0000
0020
0000
0000
0000
0230
0000
,  // measure 51
0000
0000
0300
0010
0000
0000
1001
0000
0000
1100
0000
0000
0000
0000
0000
0110
0000
0000
0000
0000
0000
0011
0000
0000
,  // measure 52
0000
0110
0000
1100
0000
0110
0000
0011
,  // measure 53
0000
1001
0000
0011
0000
0110
0000
1100
,  // measure 54
0000
0000
0000
0110
0000
0000
0000
0000
0000
0011
0000
0000
0000
0000
0000
0110
0000
0000
0100
0000
0000
0000
0010
0000
,  // measure 55
0000
0100
0001
0010
1000
0100
0001
0010
,  // measure 56
1000
0100
0001
0010
1000
0100
0001
0010
,  // measure 57
0110
0000
1000
0100
0001
0010
1000
0100
,  // measure 58
0001
0010
1000
0100
0001
0010
1000
0100
,  // measure 59
0001
0010
1000
0100
0001
0010
1000
0100
,  // measure 60
0001
0010
1000
0100
0001
0010
1000
0100
,  // measure 61
0110
0000
0001
0010
1000
0100
0001
0010
,  // measure 62
1000
0100
0001
0010
1000
0100
0001
0010
,  // measure 63
1000
0100
0110
0000
0000
0000
0000
0000
;
