#TITLE:Another Round;
#SUBTITLE:;
#ARTIST:Justin Dai;
#TITLETRANSLIT:;
#SUBTITLETRANSLIT:;
#ARTISTTRANSLIT:;
#GENRE:;
#CREDIT:;
#BANNER:;
#BACKGROUND:;
#LYRICSPATH:;
#CDTITLE:;
#MUSIC:Another Round.ogg;
#OFFSET:0.020000;
#SAMPLESTART:31.862949;
#SAMPLELENGTH:14.999977;
#SELECTABLE:YES;
#BPMS:0.000000=128.000214
;
#STOPS:64.000000=0.234373,
64.500000=0.234375,
65.000000=0.234375,
65.500000=0.234375,
105.000000=0.234375,
208.500000=0.234375,
264.000000=0.234375
;
#BGCHANGES:;
#KEYSOUNDS:;
#ATTACKS:;

//---------------dance-single - ----------------
#NOTES:
     dance-single:
     :
     Beginner:
     1:
     0.054162,0.103188,0.050074,0.000000,0.000000,53.000000,46.000000,7.000000,0.000000,0.000000,0.000000,0.000000,0.000000,0.000000,0.054162,0.103188,0.050074,0.000000,0.000000,53.000000,46.000000,7.000000,0.000000,0.000000,0.000000,0.000000,0.000000,0.000000:
0000
0000
0000
0000
,
0000
0000
0000
0000
,
0000
0000
0000
0000
,
0000
0000
0000
0000
,
0000
0000
0000
0000
,
1000
0000
0000
0000
,
1000
0000
0000
0000
,
0001
0000
0000
0000
,
0001
0000
0000
0000
,
1001
0000
0000
0000
,
0000
0000
0000
0000
,
0110
0000
0000
0000
,
0000
0000
0000
0000
,
1000
0000
0000
0000
,
0001
0000
0000
0000
,
0100
0000
0000
0000
,
0000
0000
1000
0000
,
0000
0000
1000
0000
,
0000
0000
0001
0000
,
0000
0000
0000
0000
,
0000
0000
0100
0000
,
0000
0000
0100
0000
,
0000
0000
0010
0000
,
0000
0000
0000
0000
,
0000
0000
1000
0000
,
0000
0000
1000
0000
,
0000
0000
0000
0001
0000
0000
0000
0000
,
0000
0000
0000
0000
,
0000
0000
0000
0100
0000
0000
0000
0000
,
0000
0000
0000
0100
0000
0000
0000
0000
,
0000
0000
0000
0010
0000
0000
0000
0000
,
0000
0000
0000
0000
,
0000
0000
0000
0110
0000
0000
0000
0000
,
0000
0000
0000
0000
,
0000
0000
0000
0000
,
0000
0000
0000
0000
,
0000
0000
0000
1001
0000
0000
0000
0000
,
0000
0000
0000
0000
,
0000
0000
0000
0000
,
0000
0000
0000
0000
,
0000
0000
0000
1000
0000
0000
0000
0000
,
0000
0000
0000
1000
0000
0000
0000
0000
,
0000
0000
0000
0001
0000
0000
0000
0000
,
0000
0000
0000
0001
0000
0000
0000
0000
,
0000
0000
0000
0100
0000
0000
0000
0000
,
0000
0000
0000
0100
0000
0000
0000
0000
,
0000
0000
0000
0010
0000
0000
0000
0000
,
0000
0000
0000
0010
0000
0000
0000
0000
,
0000
0000
0000
0110
0000
0000
0000
0000
,
0000
0000
0000
0000
,
0000
0000
0000
0000
,
0000
0000
0000
0000
,
0000
0000
0000
0000
,
0000
0000
0000
0000
,
0000
0000
0000
0000
,
0000
0110
0000
0000
,
0000
1000
0000
0000
,
0000
1000
0000
0000
,
0000
0001
0000
0000
,
0000
0000
0000
0000
,
0000
0100
0000
0000
,
0000
0100
0000
0000
,
0000
0010
0000
0000
,
0000
0000
0000
0000
,
0000
1000
0000
0000
,
0000
1000
0000
0000
,
0000
0001
0000
0000
0000
0000
0000
0000
,
0000
0000
0000
0000
,
0000
0100
0000
0000
0000
0000
0000
0000
,
0000
0100
0000
0000
0000
0000
0000
0000
,
0000
0010
0000
0000
0000
0000
0000
0000
,
0000
0000
0000
0000
,
0000
0110
0000
0000
0000
0000
0000
0000
;

//---------------dance-single - ----------------
#NOTES:
     dance-single:
     :
     Easy:
     5:
     0.210515,0.283768,0.271830,0.000000,0.000000,206.000000,168.000000,38.000000,0.000000,0.000000,0.000000,0.000000,0.000000,0.000000,0.210515,0.283768,0.271830,0.000000,0.000000,206.000000,168.000000,38.000000,0.000000,0.000000,0.000000,0.000000,0.000000,0.000000:
0000
0000
0000
0000
,
0000
0000
0000
0000
,
0000
0000
0000
0000
,
0000
0000
0000
0000
,
0000
0000
0000
0000
,
1000
0000
0100
0000
,
0010
0001
0010
0000
,
0001
0000
0010
0000
,
0110
0000
1001
0000
,
0100
0000
0100
0000
,
0010
0000
0010
0000
,
1000
0000
1000
0000
,
0001
0000
0001
0000
,
1000
0100
0010
0000
,
0001
0010
0100
0000
,
0010
0100
0010
0100
,
0110
1001
1000
0100
,
0010
0100
0001
0010
,
0100
0010
1000
0001
,
0100
0010
0110
0000
,
1001
0000
0110
0100
,
0010
0100
1000
0100
,
0010
0100
0001
1000
,
0010
0100
0110
0000
,
1001
0000
0110
0100
,
0001
0010
0110
1000
,
0010
0000
0000
0110
0000
0001
0000
0010
,
0000
0100
0000
0110
0000
0000
0000
1001
,
0000
0000
0000
0110
0000
0100
0000
0010
,
0000
0100
0000
1000
0000
0100
0000
0010
,
0000
0100
0000
0001
0000
0010
0000
0100
,
0000
0010
0000
0110
0000
0000
0000
1001
,
0000
0000
0000
0110
0000
0000
0000
0000
,
0000
0000
0000
0000
,
0000
0000
0000
0000
,
0000
0000
0000
0000
,
0000
0000
0000
1000
0000
0000
0000
0000
,
0000
0000
0000
0000
,
0000
0000
0000
0001
0000
0000
0000
0000
,
0000
0000
0000
0000
,
0000
0000
0000
1000
0000
0000
0000
0100
,
0000
0000
0000
0010
0000
0001
0000
0010
,
0000
0000
0000
0001
0000
0000
0000
0010
,
0000
0000
0000
0100
0000
1000
0000
0100
,
0000
0000
0000
0010
0000
0000
0000
0100
,
0000
0000
0000
0010
0000
0100
0000
0010
,
0000
0000
0000
0100
0000
0000
0000
0010
,
0000
0000
0000
0110
0000
0000
0000
1001
,
0000
0000
0000
0110
0000
0000
0000
0000
,
0000
0000
0000
0000
,
0000
0000
0000
0000
,
0000
0000
0000
0000
,
0000
1001
0000
0000
,
0000
0000
0000
0000
,
0000
1000
0000
0001
,
0000
0110
0000
1001
,
0000
1000
0100
0010
,
0100
0001
0010
0100
,
0010
1000
0001
0100
,
0010
0110
0000
1001
,
0000
0110
0100
0010
,
0100
1000
0100
0010
,
0100
0001
0010
0100
,
0010
0110
0000
1001
,
0000
0110
0100
0001
,
0010
0110
1000
0010
,
0000
0110
0000
0001
0000
0010
0000
0100
,
0000
0110
0000
0000
0000
1001
0000
0000
,
0000
0110
0000
0100
0000
0010
0000
0100
,
0000
1000
0000
0100
0000
0010
0000
0100
,
0000
0001
0000
0010
0000
0100
0000
0010
,
0000
0110
0000
0000
0000
1001
0000
0000
,
0000
0110
0000
0000
0000
0000
0000
0000
;

//---------------dance-single - ----------------
#NOTES:
     dance-single:
     :
     Medium:
     9:
     0.352562,0.541739,0.522201,0.042921,0.010730,345.000000,272.000000,73.000000,6.000000,0.000000,0.000000,0.000000,0.000000,0.000000,0.352562,0.541739,0.522201,0.042921,0.010730,345.000000,272.000000,73.000000,6.000000,0.000000,0.000000,0.000000,0.000000,0.000000:
0000
0000
0000
0000
,
0000
0000
0000
0000
,
0000
0000
0000
0000
,
0000
0000
0000
0000
,
0000
0000
0000
0000
,
1000
0000
0000
0100
0000
0000
0010
0000
0000
0000
0000
0000
0001
0000
1000
0000
,
0001
0100
0010
0100
,
1001
0000
0001
0010
0100
0000
0110
0000
,
1000
0001
1000
0001
,
0110
0100
0010
0100
,
0001
1000
0001
1000
,
0010
1000
0100
0010
,
0001
0010
0100
1000
,
0110
0010
0100
0010
,
0100
0010
0100
0010
,
1000
0001
1000
0001
1000
0001
1000
0001
,
0110
1001
0110
1001
0110
0000
1000
0100
,
0010
0000
0110
0000
1001
0000
0001
0010
,
0100
0000
0110
0000
1001
0000
1000
0100
,
0010
0000
0110
0000
0001
0010
0100
1000
,
0100
0010
0001
0000
0110
0000
1000
0100
,
0010
0000
0110
0000
1001
0000
0001
0010
,
0100
0000
0110
0000
1001
0000
1000
0100
,
0010
0000
0110
0000
1000
0100
0010
0001
,
0110
1001
0110
1000
,
0010
0100
0001
0100
,
0010
0000
0110
1001
0000
1000
0100
0010
,
0000
0110
0000
0001
0010
0100
1000
0100
,
0010
0001
0000
0110
0000
1000
0100
0010
,
0000
0110
0000
1001
0000
0001
0010
0100
,
0000
0110
0000
1001
0000
1000
0100
0010
,
0000
0110
0000
1001
0000
0000
0000
0220
,
0000
0330
0000
1001
0000
0000
0000
0000
,
0000
0000
0000
0000
,
0000
0000
0000
0001
0000
0000
0100
0000
,
0000
0000
0000
0000
,
0000
0000
0000
1000
0000
0000
0100
0000
,
0000
0000
0000
0000
,
0000
0000
0000
0001
0000
0000
0100
0000
,
0000
0000
0000
0010
0000
0100
0000
0010
,
0000
0000
0000
0000
0000
0000
1000
0000
0000
0100
0000
0000
0010
0000
0000
0000
,
0000
0001
1000
0001
0000
0100
0000
0010
,
0000
0100
0000
1001
0000
0001
0010
0100
,
0000
0110
0000
1000
0001
1000
0001
0110
,
0000
0000
1001
0000
0000
0000
0001
0000
0000
0010
0000
0000
0100
0000
0000
0000
,
0000
1000
0001
1000
0000
0010
0000
0100
,
0000
0010
0000
1001
0000
1000
0100
0010
,
0000
0110
0000
0001
0000
1000
0000
0001
,
0000
1000
0000
0110
0000
0000
0000
0000
,
0000
0000
0000
0000
,
0000
0000
0000
0000
,
0000
0000
0000
0000
,
0000
0220
0000
0000
,
0000
0000
0000
0000
,
0330
1000
0001
1000
,
0001
0110
1001
0110
,
0000
0000
0110
0000
1000
0100
0010
0000
,
0110
0000
1001
0000
0001
0010
0100
0000
,
0110
0000
1001
0000
1000
0100
0010
0000
,
0110
0000
0001
0010
0100
1000
0100
0010
,
0001
0000
0110
0000
1000
0100
0010
0000
,
0110
0000
1001
0000
0001
0010
0100
0000
,
0110
0000
1001
0000
1000
0100
0010
0000
,
0110
0000
1000
0100
0010
0001
0110
0000
,
1001
0110
1000
0010
,
0100
0001
0100
0010
,
0110
1001
0000
1000
0100
0010
0000
0110
,
0000
0001
0010
0100
1000
0100
0010
0001
,
0000
0110
0000
1000
0100
0010
0000
0110
,
0000
1001
0000
0001
0010
0100
0000
0110
,
0000
1001
0000
1000
0100
0010
0000
0110
,
0000
1001
0000
0000
0000
0220
0000
0330
,
0000
1001
0000
0000
0000
0000
0000
0000
;

//---------------dance-single - ----------------
#NOTES:
     dance-single:
     :
     Beginner:
     1:
     0.054162,0.103188,0.050074,0.000000,0.000000,53.000000,46.000000,7.000000,0.000000,0.000000,0.000000,0.000000,0.000000,0.000000,0.054162,0.103188,0.050074,0.000000,0.000000,53.000000,46.000000,7.000000,0.000000,0.000000,0.000000,0.000000,0.000000,0.000000:
0000
0000
0000
0000
,
0000
0000
0000
0000
,
0000
0000
0000
0000
,
0000
0000
0000
0000
,
0000
0000
0000
0000
,
1000
0000
0000
0000
,
1000
0000
0000
0000
,
0001
0000
0000
0000
,
0001
0000
0000
0000
,
1001
0000
0000
0000
,
0000
0000
0000
0000
,
0110
0000
0000
0000
,
0000
0000
0000
0000
,
1000
0000
0000
0000
,
0001
0000
0000
0000
,
0100
0000
0000
0000
,
0000
0000
1000
0000
,
0000
0000
1000
0000
,
0000
0000
0001
0000
,
0000
0000
0000
0000
,
0000
0000
0100
0000
,
0000
0000
0100
0000
,
0000
0000
0010
0000
,
0000
0000
0000
0000
,
0000
0000
1000
0000
,
0000
0000
1000
0000
,
0000
0000
0000
0001
0000
0000
0000
0000
,
0000
0000
0000
0000
,
0000
0000
0000
0100
0000
0000
0000
0000
,
0000
0000
0000
0100
0000
0000
0000
0000
,
0000
0000
0000
0010
0000
0000
0000
0000
,
0000
0000
0000
0000
,
0000
0000
0000
0110
0000
0000
0000
0000
,
0000
0000
0000
0000
,
0000
0000
0000
0000
,
0000
0000
0000
0000
,
0000
0000
0000
1001
0000
0000
0000
0000
,
0000
0000
0000
0000
,
0000
0000
0000
0000
,
0000
0000
0000
0000
,
0000
0000
0000
1000
0000
0000
0000
0000
,
0000
0000
0000
1000
0000
0000
0000
0000
,
0000
0000
0000
0001
0000
0000
0000
0000
,
0000
0000
0000
0001
0000
0000
0000
0000
,
0000
0000
0000
0100
0000
0000
0000
0000
,
0000
0000
0000
0100
0000
0000
0000
0000
,
0000
0000
0000
0010
0000
0000
0000
0000
,
0000
0000
0000
0010
0000
0000
0000
0000
,
0000
0000
0000
0110
0000
0000
0000
0000
,
0000
0000
0000
0000
,
0000
0000
0000
0000
,
0000
0000
0000
0000
,
0000
0000
0000
0000
,
0000
0000
0000
0000
,
0000
0000
0000
0000
,
0000
0110
0000
0000
,
0000
1000
0000
0000
,
0000
1000
0000
0000
,
0000
0001
0000
0000
,
0000
0000
0000
0000
,
0000
0100
0000
0000
,
0000
0100
0000
0000
,
0000
0010
0000
0000
,
0000
0000
0000
0000
,
0000
1000
0000
0000
,
0000
1000
0000
0000
,
0000
0001
0000
0000
0000
0000
0000
0000
,
0000
0000
0000
0000
,
0000
0100
0000
0000
0000
0000
0000
0000
,
0000
0100
0000
0000
0000
0000
0000
0000
,
0000
0010
0000
0000
0000
0000
0000
0000
,
0000
0000
0000
0000
,
0000
0110
0000
0000
0000
0000
0000
0000
;

//---------------dance-single - ----------------
#NOTES:
     dance-single:
     :
     Easy:
     5:
     0.210515,0.283768,0.271830,0.000000,0.000000,206.000000,168.000000,38.000000,0.000000,0.000000,0.000000,0.000000,0.000000,0.000000,0.210515,0.283768,0.271830,0.000000,0.000000,206.000000,168.000000,38.000000,0.000000,0.000000,0.000000,0.000000,0.000000,0.000000:
0000
0000
0000
0000
,
0000
0000
0000
0000
,
0000
0000
0000
0000
,
0000
0000
0000
0000
,
0000
0000
0000
0000
,
1000
0000
0100
0000
,
0010
0001
0010
0000
,
0001
0000
0010
0000
,
0110
0000
1001
0000
,
0100
0000
0100
0000
,
0010
0000
0010
0000
,
1000
0000
1000
0000
,
0001
0000
0001
0000
,
1000
0100
0010
0000
,
0001
0010
0100
0000
,
0010
0100
0010
0100
,
0110
1001
1000
0100
,
0010
0100
0001
0010
,
0100
0010
1000
0001
,
0100
0010
0110
0000
,
1001
0000
0110
0100
,
0010
0100
1000
0100
,
0010
0100
0001
1000
,
0010
0100
0110
0000
,
1001
0000
0110
0100
,
0001
0010
0110
1000
,
0010
0000
0000
0110
0000
0001
0000
0010
,
0000
0100
0000
0110
0000
0000
0000
1001
,
0000
0000
0000
0110
0000
0100
0000
0010
,
0000
0100
0000
1000
0000
0100
0000
0010
,
0000
0100
0000
0001
0000
0010
0000
0100
,
0000
0010
0000
0110
0000
0000
0000
1001
,
0000
0000
0000
0110
0000
0000
0000
0000
,
0000
0000
0000
0000
,
0000
0000
0000
0000
,
0000
0000
0000
0000
,
0000
0000
0000
1000
0000
0000
0000
0000
,
0000
0000
0000
0000
,
0000
0000
0000
0001
0000
0000
0000
0000
,
0000
0000
0000
0000
,
0000
0000
0000
1000
0000
0000
0000
0100
,
0000
0000
0000
0010
0000
0001
0000
0010
,
0000
0000
0000
0001
0000
0000
0000
0010
,
0000
0000
0000
0100
0000
1000
0000
0100
,
0000
0000
0000
0010
0000
0000
0000
0100
,
0000
0000
0000
0010
0000
0100
0000
0010
,
0000
0000
0000
0100
0000
0000
0000
0010
,
0000
0000
0000
0110
0000
0000
0000
1001
,
0000
0000
0000
0110
0000
0000
0000
0000
,
0000
0000
0000
0000
,
0000
0000
0000
0000
,
0000
0000
0000
0000
,
0000
1001
0000
0000
,
0000
0000
0000
0000
,
0000
1000
0000
0001
,
0000
0110
0000
1001
,
0000
1000
0100
0010
,
0100
0001
0010
0100
,
0010
1000
0001
0100
,
0010
0110
0000
1001
,
0000
0110
0100
0010
,
0100
1000
0100
0010
,
0100
0001
0010
0100
,
0010
0110
0000
1001
,
0000
0110
0100
0001
,
0010
0110
1000
0010
,
0000
0110
0000
0001
0000
0010
0000
0100
,
0000
0110
0000
0000
0000
1001
0000
0000
,
0000
0110
0000
0100
0000
0010
0000
0100
,
0000
1000
0000
0100
0000
0010
0000
0100
,
0000
0001
0000
0010
0000
0100
0000
0010
,
0000
0110
0000
0000
0000
1001
0000
0000
,
0000
0110
0000
0000
0000
0000
0000
0000
;

//---------------dance-single - ----------------
#NOTES:
     dance-single:
     :
     Medium:
     9:
     0.352562,0.541739,0.522201,0.042921,0.010730,345.000000,272.000000,73.000000,6.000000,0.000000,0.000000,0.000000,0.000000,0.000000,0.352562,0.541739,0.522201,0.042921,0.010730,345.000000,272.000000,73.000000,6.000000,0.000000,0.000000,0.000000,0.000000,0.000000:
0000
0000
0000
0000
,
0000
0000
0000
0000
,
0000
0000
0000
0000
,
0000
0000
0000
0000
,
0000
0000
0000
0000
,
1000
0000
0000
0100
0000
0000
0010
0000
0000
0000
0000
0000
0001
0000
1000
0000
,
0001
0100
0010
0100
,
1001
0000
0001
0010
0100
0000
0110
0000
,
1000
0001
1000
0001
,
0110
0100
0010
0100
,
0001
1000
0001
1000
,
0010
1000
0100
0010
,
0001
0010
0100
1000
,
0110
0010
0100
0010
,
0100
0010
0100
0010
,
1000
0001
1000
0001
1000
0001
1000
0001
,
0110
1001
0110
1001
0110
0000
1000
0100
,
0010
0000
0110
0000
1001
0000
0001
0010
,
0100
0000
0110
0000
1001
0000
1000
0100
,
0010
0000
0110
0000
0001
0010
0100
1000
,
0100
0010
0001
0000
0110
0000
1000
0100
,
0010
0000
0110
0000
1001
0000
0001
0010
,
0100
0000
0110
0000
1001
0000
1000
0100
,
0010
0000
0110
0000
1000
0100
0010
0001
,
0110
1001
0110
1000
,
0010
0100
0001
0100
,
0010
0000
0110
1001
0000
1000
0100
0010
,
0000
0110
0000
0001
0010
0100
1000
0100
,
0010
0001
0000
0110
0000
1000
0100
0010
,
0000
0110
0000
1001
0000
0001
0010
0100
,
0000
0110
0000
1001
0000
1000
0100
0010
,
0000
0110
0000
1001
0000
0000
0000
0220
,
0000
0330
0000
1001
0000
0000
0000
0000
,
0000
0000
0000
0000
,
0000
0000
0000
0001
0000
0000
0100
0000
,
0000
0000
0000
0000
,
0000
0000
0000
1000
0000
0000
0100
0000
,
0000
0000
0000
0000
,
0000
0000
0000
0001
0000
0000
0100
0000
,
0000
0000
0000
0010
0000
0100
0000
0010
,
0000
0000
0000
0000
0000
0000
1000
0000
0000
0100
0000
0000
0010
0000
0000
0000
,
0000
0001
1000
0001
0000
0100
0000
0010
,
0000
0100
0000
1001
0000
0001
0010
0100
,
0000
0110
0000
1000
0001
1000
0001
0110
,
0000
0000
1001
0000
0000
0000
0001
0000
0000
0010
0000
0000
0100
0000
0000
0000
,
0000
1000
0001
1000
0000
0010
0000
0100
,
0000
0010
0000
1001
0000
1000
0100
0010
,
0000
0110
0000
0001
0000
1000
0000
0001
,
0000
1000
0000
0110
0000
0000
0000
0000
,
0000
0000
0000
0000
,
0000
0000
0000
0000
,
0000
0000
0000
0000
,
0000
0220
0000
0000
,
0000
0000
0000
0000
,
0330
1000
0001
1000
,
0001
0110
1001
0110
,
0000
0000
0110
0000
1000
0100
0010
0000
,
0110
0000
1001
0000
0001
0010
0100
0000
,
0110
0000
1001
0000
1000
0100
0010
0000
,
0110
0000
0001
0010
0100
1000
0100
0010
,
0001
0000
0110
0000
1000
0100
0010
0000
,
0110
0000
1001
0000
0001
0010
0100
0000
,
0110
0000
1001
0000
1000
0100
0010
0000
,
0110
0000
1000
0100
0010
0001
0110
0000
,
1001
0110
1000
0010
,
0100
0001
0100
0010
,
0110
1001
0000
1000
0100
0010
0000
0110
,
0000
0001
0010
0100
1000
0100
0010
0001
,
0000
0110
0000
1000
0100
0010
0000
0110
,
0000
1001
0000
0001
0010
0100
0000
0110
,
0000
1001
0000
1000
0100
0010
0000
0110
,
0000
1001
0000
0000
0000
0220
0000
0330
,
0000
1001
0000
0000
0000
0000
0000
0000
;

//---------------dance-single - ----------------
#NOTES:
     dance-single:
     :
     Hard:
     14:
     0.587604,0.773912,0.736804,0.028614,0.382709,575.000000,472.000000,103.000000,4.000000,0.000000,0.000000,0.000000,0.000000,0.000000,0.587604,0.773912,0.736804,0.028614,0.382709,575.000000,472.000000,103.000000,4.000000,0.000000,0.000000,0.000000,0.000000,0.000000:
// measure 0
0000
0000
0000
0000
,  // measure 1
0000
0000
0000
0000
,  // measure 2
0000
0000
0000
0000
,  // measure 3
0000
0000
0000
0000
,  // measure 4
0000
0000
0000
0000
,  // measure 5
1000
0000
0000
0100
0000
0000
0010
0000
0000
0000
0000
0000
0001
0000
1000
0000
,  // measure 6
0001
0010
1000
0100
0110
0000
1001
0110
,  // measure 7
1001
0000
0010
0100
0010
0000
1000
0100
,  // measure 8
0001
0010
1000
0100
0110
0000
1001
0000
,  // measure 9
0110
0000
0000
0001
0010
0000
0110
0000
1001
0000
0000
1000
0100
0000
0110
0000
,  // measure 10
1001
0000
0000
0001
0010
0000
0110
0000
1001
0000
0000
1000
0100
0000
0110
0000
,  // measure 11
1001
0000
0000
0001
0010
0000
0110
0000
1001
0000
0000
1000
0100
0000
0110
0000
,  // measure 12
1001
0000
0000
0001
0010
0000
0110
0000
1001
0000
0000
1000
0100
0000
0110
0000
,  // measure 13
0010
0100
0010
0100
0010
0100
0010
0100
,  // measure 14
0001
1000
0001
1000
0001
1000
0001
1000
,  // measure 15
0001
0010
0001
0010
0001
0010
0001
0010
1000
0100
1000
0100
1000
0100
1000
0000
,  // measure 16
0110
1001
1100
0011
0110
0000
1001
0010
,  // measure 17
0100
0000
0010
0100
0010
0000
1000
0001
1000
0000
0110
0000
1001
0000
0000
0010
,  // measure 18
0100
0000
0001
1000
0001
0000
0110
0000
1001
0000
0000
0000
0110
0000
0010
0000
,  // measure 19
0100
0000
0010
0100
0010
0000
0001
1000
0001
0000
1000
0000
0010
0100
0010
0100
,  // measure 20
0001
0010
1000
0100
0110
0000
0000
0000
0110
0000
0000
0000
1001
0000
0010
0000
,  // measure 21
0100
0000
0010
0100
0010
0000
1000
0001
1000
0000
0110
0000
1001
0000
0000
0010
,  // measure 22
0100
0000
0001
1000
0001
0000
0110
0000
1001
0000
0000
0000
0110
0000
0010
0000
,  // measure 23
0100
0000
0010
0100
0010
0000
0001
1000
0001
0000
0010
0000
0100
0000
1000
0000
,  // measure 24
0110
0000
0000
0000
1001
0000
0110
0000
1001
0000
0000
0010
0100
1000
0001
1000
,  // measure 25
0110
0000
0010
0100
0000
0100
0010
0000
0110
0000
0000
0100
0010
0001
1000
0001
,  // measure 26
0110
1001
0110
1001
0000
0110
0010
0100
,  // measure 27
0010
0100
0010
0000
0001
1000
0001
0000
0000
0100
0010
0100
0010
0100
0001
0010
,  // measure 28
1000
0100
0110
0000
0000
0000
0110
0000
0000
0000
1001
0000
0010
0000
0100
0000
,  // measure 29
0010
0100
0010
0000
1000
0001
1000
0000
0110
0000
1001
0000
0000
0010
0100
0000
,  // measure 30
0001
1000
0001
0000
0110
0000
1001
0000
0000
0000
0110
0000
0010
0000
0100
0000
,  // measure 31
0010
0100
0010
0000
0001
1000
0001
0000
0000
0000
0000
0000
0000
0000
1000
0000
,  // measure 32
0100
0010
0001
0110
0000
0000
0100
0000
,  // measure 33
0000
0000
0000
0000
,  // measure 34
0000
0000
0001
0000
0001
0000
0001
0000
0000
0010
0000
0000
0100
0000
0000
0000
,  // measure 35
0000
0000
0000
0000
,  // measure 36
0000
0000
0000
0000
0000
0000
0001
0000
0000
0010
0000
0000
0100
0000
0000
0000
,  // measure 37
0000
0000
0000
0000
,  // measure 38
0000
0000
0001
1000
0001
1000
0001
0000
0000
0010
0000
0000
0100
0000
0000
0000
,  // measure 39
0000
1000
0100
0001
0010
1000
0100
0110
,  // measure 40
0000
0000
1001
0000
0000
0000
1000
0000
0000
0100
0000
0000
0010
0000
0000
0000
,  // measure 41
0000
0001
1000
0001
0010
1000
0100
0110
,  // measure 42
0000
1001
0110
1001
0000
0010
0100
0010
,  // measure 43
0000
1000
0100
0001
0010
1000
0100
0110
,  // measure 44
0000
0000
1001
0000
0110
0000
0001
0000
0000
0010
0000
0000
0100
0000
0000
0000
,  // measure 45
0000
1000
0001
1000
0100
0001
0010
0110
,  // measure 46
0000
1001
0110
1001
0000
0100
0010
0100
,  // measure 47
0000
0001
0010
1000
0100
0001
0010
0110
,  // measure 48
0000
1001
0000
0220
0000
0000
0000
0000
,  // measure 49
0000
0000
0000
0000
,  // measure 50
0000
0000
0000
0000
,  // measure 51
0000
0000
0000
0000
,  // measure 52
0000
0330
0000
0000
2002
0000
0000
0000
0000
0000
0000
0000
0000
0000
0000
0000
,  // measure 53
0000
0000
0000
0000
,  // measure 54
0000
3003
0010
0000
0100
0000
0001
0000
,  // measure 55
1000
0000
0110
1000
0100
0010
0001
0000
,  // measure 56
1001
0000
0000
0000
0110
0000
0000
1000
0001
0000
0010
0000
0100
0000
0010
0100
,  // measure 57
0010
0000
1000
0001
1000
0000
0000
0100
0010
0000
0000
0010
0100
0000
0001
1000
,  // measure 58
0001
0000
0110
0000
1001
0000
0000
0010
0100
0000
0010
0000
0100
0000
0010
0100
,  // measure 59
0010
0000
0001
1000
0001
0000
1000
0000
0010
0100
0010
0100
0001
0010
1000
0100
,  // measure 60
0110
0000
0000
0000
0110
0000
0000
1000
0001
0000
0010
0000
0100
0000
0010
0100
,  // measure 61
0010
0000
1000
0001
1000
0000
0000
0100
0010
0000
0000
0010
0100
0000
0001
1000
,  // measure 62
0001
0000
0110
0000
1001
0000
0000
0010
0100
0000
0010
0000
0100
0000
0010
0100
,  // measure 63
0010
0000
0001
1000
0001
0000
0010
0000
0100
0000
1000
0000
0110
0000
0000
0000
,  // measure 64
1001
0000
0110
0000
1001
0000
0000
0010
0100
1000
0001
1000
0110
0000
0010
0100
,  // measure 65
0000
0100
0010
0000
0110
0000
0000
0100
0010
0001
1000
0001
0110
0000
1001
0000
,  // measure 66
0110
0000
1001
0000
0000
0010
0100
0000
0010
0000
0100
0000
0010
0100
0010
0000
,  // measure 67
0001
1000
0001
0000
0000
0100
0010
0100
0010
0100
0001
0010
1000
0100
0110
0000
,  // measure 68
0000
0000
0110
0000
0000
1000
0001
0000
0010
0000
0100
0000
0010
0100
0010
0000
,  // measure 69
1000
0001
1000
0000
0000
0100
0010
0000
0000
0010
0100
0000
0001
1000
0001
0000
,  // measure 70
0110
0000
1001
0000
0000
0000
0110
0000
0010
0000
0100
0000
0010
0100
0010
0000
,  // measure 71
0001
1000
0001
0000
0000
0000
0000
0000
0000
0000
1000
0000
0100
0000
0010
0000
,  // measure 72
0001
0110
0000
0000
0000
0000
0000
0000
;
