#TITLE:AYAKASHI;
#SUBTITLE:;
#ARTIST:DJ Myosuke, GPF, & Joe Fight;
#TITLETRANSLIT:;
#SUBTITLETRANSLIT:;
#ARTISTTRANSLIT:;
#GENRE:;
#CREDIT:;
#BANNER:;
#BACKGROUND:;
#LYRICSPATH:;
#CDTITLE:;
#MUSIC:AYAKASHI.ogg;
#OFFSET:0.040000;
#SAMPLESTART:35.967907;
#SAMPLELENGTH:15.999950;
#SELECTABLE:YES;
#BPMS:0.000000=120.000313
,71.500000=60.000195
,87.000000=120.000397
,101.000000=60.000385
,102.000000=240.001053
,130.000000=60.000481
,131.000000=240.001083
,159.000000=60.000538
,160.000000=240.001175
,192.000000=120.000801
,240.000000=30.000765
,241.000000=240.001373
,257.000000=60.000809
,258.000000=240.001114
,286.000000=60.000542
,287.000000=240.001175
,297.000000=479.997345
,301.000000=240.000580
;
#STOPS:19.000000=0.249999,
79.000000=0.250000,
86.750000=0.249996,
241.000000=0.250000,
242.000000=0.250000,
243.000000=0.250000,
244.000000=0.250000
;
#BGCHANGES:;
#KEYSOUNDS:;
#ATTACKS:;

//---------------dance-single - ----------------
#NOTES:
     dance-single:
     :
     Beginner:
     5:
     0.180306,0.271304,0.120204,0.007513,0.022538,168.000000,152.000000,16.000000,1.000000,0.000000,0.000000,0.000000,0.000000,0.000000,0.180306,0.271304,0.120204,0.007513,0.022538,168.000000,152.000000,16.000000,1.000000,0.000000,0.000000,0.000000,0.000000,0.000000:
// measure 0
0000
0000
0000
0000
,  // measure 1
0000
0000
0000
0000
,  // measure 2
0000
0000
0000
0000
,  // measure 3
0000
0000
0000
0000
,  // measure 4
0000
0000
0000
0000
0000
0000
0000
1000
,  // measure 5
0000
0000
0000
1000
0000
0000
0000
0001
,  // measure 6
0000
0000
0000
0001
0000
0000
0000
0100
,  // measure 7
0000
0000
0000
0100
0000
0000
0000
0010
,  // measure 8
0000
0000
0000
0010
0000
0000
0000
0110
,  // measure 9
0000
0000
0000
0000
0000
0000
0000
1000
,  // measure 10
0000
0001
0000
1000
0000
0000
0000
0010
,  // measure 11
0000
0000
0000
0100
0000
0000
0000
0001
,  // measure 12
0000
1000
0000
0001
0000
0000
0000
0100
,  // measure 13
0000
0000
0000
0010
0000
0000
0000
1000
,  // measure 14
0000
0001
0000
1000
0000
0000
0000
0010
,  // measure 15
0000
0000
0000
0100
0000
0000
0000
0001
,  // measure 16
0000
1000
0000
0001
0000
0000
0000
0100
,  // measure 17
0000
0000
0000
0010
0000
0000
0000
1000
,  // measure 18
0000
1000
0000
1000
0000
0000
0000
0001
,  // measure 19
0000
0000
0001
0000
0000
0000
0001
0000
0000
0000
0000
0000
0000
0100
0000
0000
,  // measure 20
0000
0100
0000
0000
0000
0100
0000
0000
0000
0000
0000
0000
0000
0010
0000
0000
,  // measure 21
0000
0010
0000
0000
0000
0010
0000
0000
0000
0000
0000
0000
0110
0000
0000
0000
,  // measure 22
0000
0000
0000
0000
,  // measure 23
0000
0000
0000
1000
,  // measure 24
0001
1000
0001
0100
,  // measure 25
0010
0110
1000
0000
,  // measure 26
1000
0000
1000
0000
,  // measure 27
1000
0000
0001
0000
,  // measure 28
0001
0000
0001
0000
,  // measure 29
0001
0000
0100
0000
,  // measure 30
0010
0000
0100
0000
,  // measure 31
0010
0000
1000
0000
,  // measure 32
0001
0000
0110
1000
,  // measure 33
0000
0100
0000
1000
,  // measure 34
0000
0100
0000
0001
,  // measure 35
0000
0010
0000
0001
,  // measure 36
0000
0010
0000
1000
,  // measure 37
0000
0100
0000
1000
,  // measure 38
0000
0100
0000
0001
,  // measure 39
0000
0010
0000
0110
,  // measure 40
1000
0000
0100
0000
,  // measure 41
0010
0000
0100
0000
,  // measure 42
1000
0000
0100
0000
,  // measure 43
0010
0000
0010
0000
,  // measure 44
0001
0000
0010
0000
,  // measure 45
0100
0000
0010
0000
,  // measure 46
0001
0000
0010
0000
,  // measure 47
0200
0000
0310
0000
,  // measure 48
0110
0000
0100
0000
,  // measure 49
0000
0000
0100
0000
,  // measure 50
1001
0000
0010
0000
,  // measure 51
0000
0000
0010
0000
,  // measure 52
1000
0000
1000
0000
,  // measure 53
1000
0000
0000
0000
,  // measure 54
0001
0000
0001
0000
,  // measure 55
0001
0000
0000
0000
,  // measure 56
0100
0000
0100
0000
,  // measure 57
0100
0000
0000
0000
,  // measure 58
0010
0000
0010
0000
,  // measure 59
0010
0000
0000
0000
,  // measure 60
0000
0000
0000
0000
,  // measure 61
0000
1000
0000
0100
,  // measure 62
0000
0010
0000
0001
,  // measure 63
0000
0110
0000
1001
,  // measure 64
0000
0110
1000
0000
,  // measure 65
0100
0000
0100
0000
,  // measure 66
0100
0000
0001
0000
,  // measure 67
0010
0000
0010
0000
,  // measure 68
0010
0000
1000
0000
,  // measure 69
0001
0000
1000
0000
,  // measure 70
0001
0000
0100
0000
,  // measure 71
0010
0000
0110
1000
,  // measure 72
0000
0100
0000
0010
,  // measure 73
0000
0001
0000
0110
,  // measure 74
0000
1001
0000
0000
,  // measure 75
0000
0110
0000
1001
,  // measure 76
0000
0010
0000
0010
,  // measure 77
0000
0100
0000
0100
,  // measure 78
0000
0001
0000
1000
,  // measure 79
0000
0010
0000
0100
,  // measure 80
0000
0110
0000
0000
;

//---------------dance-single - ----------------
#NOTES:
     dance-single:
     :
     Easy:
     10:
     0.357392,0.542609,0.330561,0.015026,0.030051,333.000000,289.000000,44.000000,2.000000,0.000000,0.000000,0.000000,0.000000,0.000000,0.357392,0.542609,0.330561,0.015026,0.030051,333.000000,289.000000,44.000000,2.000000,0.000000,0.000000,0.000000,0.000000,0.000000:
0000
0000
0000
0000
,
0000
0000
0000
0000
,
0000
0000
0000
0000
,
0000
0000
0000
0000
,
0000
0000
0000
0000
0000
0000
0000
1000
,
0000
0100
0000
0010
0000
0100
0000
1000
,
0000
0100
0000
0010
0000
0100
0000
1000
,
0000
0100
0000
0010
0000
0001
0000
0010
,
0000
0100
0000
1000
0000
0000
0000
0110
,
0000
0000
0000
0000
0000
0000
0000
0001
,
0000
1000
0000
0001
0000
0000
0000
0100
,
0000
0010
0000
0100
0000
0000
0000
0001
,
0000
0010
0000
0100
0000
0000
0000
1000
,
0000
0100
0000
0010
0000
0000
0000
0010
,
0000
0100
0000
0010
0000
0000
0000
1000
,
0000
0001
0000
1000
0000
0000
0000
1000
,
0000
0100
0000
0010
0000
0000
0000
0001
,
0000
0010
0000
0100
0000
0000
0000
0110
,
0000
1000
0000
0100
0000
1000
0000
0110
,
0000
0000
0001
0000
0000
0000
0010
0000
0000
0000
0001
0000
0000
0110
0000
0000
,
0000
1000
0000
0000
0000
0100
0000
0000
0000
1000
0000
0000
0000
0110
0000
0000
,
0000
0001
0000
0000
0000
0010
0000
0000
0000
0001
0000
0000
0000
0000
0000
0000
,
0000
0000
0000
0000
,
0000
0000
0000
0000
0000
0000
1000
0001
,
1000
0001
0100
0010
0100
0010
1000
0100
,
0010
0001
0110
1001
1000
0000
0100
0000
,
1000
0100
1000
0100
,
1000
0000
0100
0010
0001
0000
0010
0000
,
0001
0000
0010
0000
0001
0010
1000
0100
,
0001
0010
0220
0330
1000
0000
0100
0000
,
1000
0100
1000
0100
,
1000
0000
0100
0010
0001
0000
0010
0000
,
0001
0000
0010
0000
0110
1001
0010
0000
,
0100
0010
0100
0010
,
0100
0010
0110
1000
,
0001
1000
0001
1000
,
0001
0110
1001
0010
,
0100
0010
0100
0010
,
0100
0010
0110
1000
,
0001
0000
1000
0000
0001
0000
0110
1001
,
1000
0100
0010
0100
1000
0000
0100
0000
,
1000
0000
0100
0000
1000
0000
0100
0010
,
0001
0010
0001
0010
,
0010
0100
0010
0100
0010
0100
0110
0000
,
0001
0010
0001
0010
,
0001
0000
0010
0000
0001
0000
0010
0100
,
1000
0100
1000
0100
,
0110
0000
1001
0000
,
0110
0000
0001
0000
,
0000
0000
0001
0000
,
0110
0000
1000
0000
,
0000
0000
1000
0000
,
0110
0000
0001
0000
,
0010
0000
0001
0000
,
0110
0000
1000
0000
,
0100
0000
1000
0000
,
0110
0001
0010
0100
,
0110
1000
0100
0010
,
0110
0001
0010
0100
,
0110
1001
0110
0000
,
0110
1000
0100
0010
,
0001
0010
0100
0010
,
0100
0010
0100
0010
,
0100
1000
0001
0100
,
0010
0000
0110
1001
0100
0000
0010
0000
,
0100
0010
0100
0010
,
0100
0000
0010
0100
0110
0000
1001
0000
,
0010
0000
0100
0000
0010
0000
0100
0010
,
0110
1001
0001
0010
,
1000
0100
0001
0010
,
1000
0100
1000
0000
0100
0000
0001
0000
,
0010
0100
0010
0000
0110
1001
0100
0010
,
0100
0001
1000
0010
,
0100
0001
1000
0010
,
0100
0110
0000
0000
,
0000
1001
0110
1001
,
0000
0000
0010
0100
0010
0000
0010
0000
,
0010
0000
0100
0000
0100
0000
0100
0010
,
0100
0000
0001
1000
0001
0000
0001
0000
,
1000
0001
0100
0010
,
0110
1001
0000
0000
;

//---------------dance-single - ----------------
#NOTES:
     dance-single:
     :
     Medium:
     14:
     0.592434,0.732494,1.412398,0.135230,0.075128,552.000000,364.000000,188.000000,18.000000,0.000000,0.000000,0.000000,0.000000,0.000000,0.592434,0.732494,1.412398,0.135230,0.075128,552.000000,364.000000,188.000000,18.000000,0.000000,0.000000,0.000000,0.000000,0.000000:
0000
0000
0000
0000
,
0000
0000
0000
0000
,
0000
0000
0000
0000
,
0000
0000
0000
0000
,
0000
0000
0000
0000
0000
0000
0000
1000
,
0100
0010
0001
0110
1001
0110
0000
0001
,
0010
0100
1000
0110
1001
0110
0000
1000
,
0100
0010
0001
0110
1001
0110
0000
0001
,
0010
1000
0100
0001
0010
1000
0100
0110
,
0000
0000
0000
0000
0000
0000
0000
0110
,
1000
0100
0010
0002
0000
0000
0003
0110
,
0001
0010
0100
2000
0000
0000
3000
0110
,
1000
0100
0010
0002
0000
0000
0003
0110
,
0001
0010
0100
2000
0000
0000
3000
0110
,
1000
0100
0010
0002
0000
0000
0003
0110
,
0001
0010
0100
2000
0000
0000
3000
0110
,
1000
0100
0010
0002
0000
0000
0003
0110
,
0001
0010
0100
2000
0000
0000
3000
1000
,
0100
0010
0100
1000
0100
0010
0000
0001
,
0010
0000
0100
0000
0010
0000
0001
0000
0010
0000
0100
0000
0110
0010
0000
0100
,
0000
1000
0000
0100
0000
0010
0000
0100
0000
1000
0000
0000
0000
0001
0000
0010
,
0000
0100
0000
1000
0000
0100
0000
0010
0000
0001
0000
0110
1001
0000
0000
0000
,
0000
0000
0000
0000
,
0000
0000
0000
0000
0000
0000
1000
0001
,
1000
0001
0100
0010
0100
0010
1100
0110
,
0011
0110
1001
0110
1100
0000
0110
0000
,
0011
0110
1100
0110
,
0011
0000
0110
1001
0110
0000
1100
0000
,
0110
0000
0011
0000
0100
0010
0100
0010
,
0100
0010
2002
3003
0011
0000
0110
0000
,
1100
0110
0011
0110
,
1100
0000
0110
1001
0110
0000
0011
0000
,
0110
0000
1100
0000
0110
1001
0110
0000
,
0101
0110
1010
0110
,
0101
0000
0110
0000
0000
0010
0110
0000
,
0101
0110
1010
0110
,
0101
0000
0001
0010
1000
0100
0110
0000
,
0101
0110
1010
0110
,
0101
0000
0110
0000
0100
0010
1100
0000
,
1100
0000
0011
0000
0011
0000
0110
1001
,
0010
0100
0010
0100
0011
0000
0110
0000
,
1100
0110
0011
0110
,
1100
0110
0011
0110
,
0100
0010
0100
0000
1000
0001
1000
0000
0010
0100
0010
0000
0000
0000
0010
0000
,
1100
0110
0011
0110
,
1100
0110
0011
0110
,
1100
0110
0011
0110
,
2002
3003
0220
0330
,
1001
0000
0010
0000
0100
0010
0100
0000
,
1001
0000
0100
0000
0010
0100
0010
0000
,
0110
0000
0001
0000
1000
0001
1000
0000
,
0110
0000
1000
0000
0001
1000
0001
0000
,
0110
1000
0100
0010
,
0100
1000
0100
0000
,
0110
0001
0010
0100
,
0010
0001
0010
0000
,
0110
1000
0100
1000
,
0100
0010
0001
0000
,
0110
0001
0010
0001
,
0010
0100
1000
0000
,
0110
1100
0110
0011
,
0110
1001
0110
0011
,
0110
1100
0110
0011
,
0110
1001
0010
0000
0100
0000
0010
0000
,
0100
0000
0110
1001
0110
0000
0011
0000
,
0110
1100
0110
0011
,
0110
0000
1100
0100
0110
0000
0011
0000
,
0110
0000
1100
0000
0110
0000
0011
0010
,
0100
0010
0100
0000
1100
0000
1010
0000
,
0101
0011
1100
1010
,
0100
0010
0011
0000
0101
0000
1010
0000
,
1000
0000
0100
0000
0010
0100
0010
0100
0110
0000
1001
0000
0011
0000
0101
0000
,
0011
0101
0011
1100
,
1010
1100
1010
0110
,
1001
0220
0000
0000
,
0330
1001
0110
1001
,
0000
0000
0011
0110
0011
0000
1100
0000
,
1100
0000
0110
0000
0110
0000
1001
0110
,
1001
0000
1100
0110
1100
0000
1100
0000
,
0011
0000
0011
0000
0100
0010
0100
0010
,
1001
0220
0000
0000
,
0000
0330
0000
0000
;

//---------------dance-single - ----------------
#NOTES:
     dance-single:
     :
     Hard:
     18:
     0.812451,1.068220,1.412398,0.285485,0.330561,757.000000,569.000000,188.000000,38.000000,0.000000,0.000000,0.000000,0.000000,0.000000,0.812451,1.068220,1.412398,0.285485,0.330561,757.000000,569.000000,188.000000,38.000000,0.000000,0.000000,0.000000,0.000000,0.000000:
0000
0000
0000
0000
,
0000
0000
0000
0000
,
0000
0000
0000
0000
,
0000
0000
0000
0000
,
0000
0000
0000
0000
0000
0000
0000
0000
0000
0000
0000
0000
0000
0000
1000
0100
,
0010
0001
1000
0100
0010
0001
0010
0100
0010
0100
0001
1000
0001
1000
0001
0010
,
0100
1000
0001
0010
0100
1000
0100
0010
0100
0010
1000
0001
1000
0001
1000
0100
,
0010
0001
1000
0100
0010
0001
0010
0100
0010
0100
0001
1000
0001
1000
0001
0010
,
0100
1000
0001
0010
0100
1000
0100
0010
0001
0010
0110
0000
0000
0000
2002
0000
,
0000
0000
0000
0000
0000
3003
0000
1001
,
1100
0110
0011
0220
0000
0000
0330
1001
,
0011
0110
1100
0220
0000
0000
0330
1001
,
1100
0110
0011
0220
0000
0000
0330
1001
,
0011
0110
1100
0220
0000
0000
0330
1001
,
1100
0110
0011
0220
0000
0000
0330
1001
,
0011
0110
1100
0220
0000
0000
0330
1001
,
1100
0110
0011
0220
0000
0000
0330
1001
,
0011
0000
0110
0000
1100
0000
0220
0000
0000
0000
0000
0000
0330
0000
1000
0100
,
0010
0001
0010
0100
1000
0100
0010
0100
1000
0100
0010
0000
0000
0000
0001
0010
,
0100
1000
0100
0010
0001
0010
0100
0010
0001
0010
0100
0000
0110
1000
0100
0010
,
0001
0010
0100
1000
0100
0010
0100
1000
0100
0010
0000
0000
0000
0001
0010
0100
,
1000
0100
0010
0001
0010
0100
0010
0001
0010
0100
0000
0110
1001
0000
0000
0000
,
0000
0000
0000
0000
0000
0000
0000
0000
0000
0000
0000
0000
0100
0010
0100
0010
,
0100
0000
0000
0000
1000
0100
0010
0100
0001
0010
0100
0000
1001
0000
0110
0000
,
1001
0000
0110
0000
1100
0000
0110
0000
0011
0000
0110
0000
1000
0001
1000
0001
,
0100
0000
0010
0000
0100
0000
0010
0000
0110
0000
0000
0000
1000
0001
1000
0001
1100
0000
0000
0000
0010
0000
0000
0000
0011
0000
0000
0000
0100
0000
0000
0000
,
1100
0010
0011
0100
1100
0010
0011
0100
,
1100
0010
0100
0010
1100
0010
0011
0100
,
1100
0010
0011
0100
1100
1100
0110
0011
,
0011
0110
0220
0330
1100
0010
0011
0100
,
1100
0010
0011
0100
1100
0010
0011
0100
,
1100
0010
0001
0010
1100
0010
0011
0100
,
1100
0010
0011
0100
0110
1001
0001
0010
,
1000
0100
0001
0010
1000
0100
0001
0010
,
1000
0100
0001
0010
0000
1001
0001
0010
,
1000
0100
0001
0010
1000
0100
0001
0010
,
1000
0100
0010
0001
0100
1000
0001
0010
,
1000
0100
0001
0010
1000
0100
0001
0010
,
1000
0100
0001
0010
0100
1001
1000
0100
,
0001
0010
1000
0100
0001
0010
0110
1001
,
0010
0010
0100
0100
1100
0000
1100
0000
,
0110
0000
0000
0000
0110
0000
0000
0000
0011
0000
0000
0000
0010
0001
0010
0000
,
0011
0011
0110
0110
,
1000
0100
1000
0000
0001
0010
0001
0000
0100
0010
0100
0000
0000
0000
0110
0000
,
1100
1100
0110
0110
,
0011
0000
0000
0000
0011
0000
0000
0000
0110
0000
0000
0000
0100
0010
0100
0000
,
1100
1100
0110
0110
,
2002
3003
0220
0330
,
0110
0000
1001
0000
1000
0100
0010
0001
,
0110
0000
1001
0000
0001
0010
0100
1000
,
0110
0000
1001
0000
1000
0100
0010
0001
,
0110
1000
0100
0010
0001
0010
0001
0010
,
0110
1000
0100
1000
0100
0010
0001
0010
,
0110
0001
0010
0001
0010
0100
1000
0100
,
0110
1000
0100
1000
0100
0010
0001
0010
,
0110
0001
0010
0001
0010
0100
1000
0100
,
0110
1000
0100
1000
0100
1000
0100
1000
,
0100
0010
0001
0010
0100
0010
0001
0010
,
0110
0001
0010
0001
0010
0001
0010
0001
,
0010
0100
1000
0001
0110
1001
0110
1001
,
0220
0330
0110
0000
1001
0000
1100
0000
,
0011
0110
1100
0110
,
0011
0110
1100
0110
,
0011
0011
1000
0000
0001
0000
0100
0000
,
0010
0000
0000
0000
0110
0000
1001
0000
0011
0000
0000
0000
0001
0010
0100
0000
,
1000
0100
0010
0000
0001
0010
0100
0000
1000
0100
0010
0000
0001
0010
0100
0000
,
1000
0100
0010
0000
0110
0000
1001
0000
0110
0000
0000
0000
1100
0000
0000
0000
,
1000
0100
0010
0000
0001
0010
0100
0000
1000
0100
0010
0000
0110
0000
1001
0000
,
0010
0100
0010
0100
0010
0000
0000
0000
2000
0000
3100
0000
0002
0000
0013
0000
,
2000
3100
0002
0013
0200
1300
0020
0031
,
0110
1001
0110
0000
0002
1003
2000
3001
,
0010
0000
1001
0000
0100
0010
0100
0010
1001
0000
0110
0000
1100
0000
1010
0000
,
1100
0000
0110
0001
0110
1000
0110
0000
,
1001
0000
0110
0000
1000
0001
0100
0010
,
0100
0010
0220
0000
0000
0000
0000
0000
,
0330
0000
0000
0000
1000
0000
0001
0000
0100
0010
0100
0000
0110
0000
1001
0000
,
0110
0000
1100
0110
0011
0000
0011
0000
,
0011
0000
0110
0000
0110
0000
1100
0110
,
0011
0000
0110
1001
0110
0000
1100
0000
,
0011
0000
0110
0000
1000
0001
1000
0001
,
0110
2002
0000
0000
,
0000
3003
0000
0000
;
