#VERSION:0.83;
#TITLE:Summer;
#SUBTITLE:;
#ARTIST:Banvox;
#TITLETRANSLIT:;
#SUBTITLETRANSLIT:;
#ARTISTTRANSLIT:;
#GENRE:DANCE MUSIC;
#CREDIT:At The Moment;
#MUSIC:banvox - summer.ogg;
#BANNER:banner.png;
#BACKGROUND:bg.png;
#CDTITLE:CDTITLE.png;
#SAMPLESTART:40.008;
#SAMPLELENGTH:12.000;
#SELECTABLE:YES;
#OFFSET:-0.008;
#BPMS:0.000=150.000;
#STOPS:;
#SPEEDS:0.000=1.000=0.000=0;
#SCROLLS:0.000=1.000;
#TICKCOUNTS:0.000=4;
#TIMESIGNATURES:0.000=4=4;
#LABELS:0.000=Song Start;
#COMBOS:0.000=1;
#ORIGIN:;
#PREVIEWVID:;
#JACKET:jacket.jpg;
#CDIMAGE:;
#DISCIMAGE:bg_43.png;
#BGCHANGES:0.000=banvox - summer.mp4=1.000=1=0=1===CrossFade==,
99999.000=-nosongbg-=1.000=0=0=0=StretchNoLoop====
;
#FGCHANGES:;

//--------------- dance-single - CND9 ----------------
#NOTEDATA:;
#STEPSTYPE:dance-single;
#DESCRIPTION:CND9;
#DIFFICULTY:Challenge;
#METER:11;
#RADARVALUES:0.609583,0.98257,0.279503,0.385093,0.459627,687,642,45,62,45,5,14,0,0,0.609583,0.98257,0.279503,0.385093,0.459627,687,642,45,62,45,5,14,0,0;
#OFFSET:-0.008;
#BPMS:0.000=150.000;
#SPEEDS:0.000=1.000=0.000=0,
32.000=0.600=2.000=0,
60.000=1.000=2.000=0,
64.000=0.600=2.000=0,
94.000=1.000=2.000=0,
174.000=2.000=1.000=0,
175.000=1.000=0.100=0,
175.125=1.200=0.100=0,
175.250=1.000=0.100=0,
175.375=1.200=0.100=0,
175.500=1.000=0.100=0,
175.625=1.200=0.100=0,
175.750=1.000=0.100=0,
175.875=1.200=0.100=0,
176.000=1.000=0.100=0,
190.000=2.000=1.000=0,
191.000=1.000=0.100=0,
206.000=2.000=1.000=0,
207.000=1.000=0.100=0,
207.125=1.200=0.100=0,
207.250=1.000=0.100=0,
207.375=1.200=0.100=0,
207.500=1.000=0.100=0,
207.625=1.200=0.100=0,
207.750=1.000=0.100=0,
207.875=1.200=0.100=0,
208.000=1.000=0.100=0,
220.000=0.600=1.000=0,
252.000=1.000=4.000=0,
302.000=2.000=1.000=0,
303.000=1.000=0.100=0,
303.125=1.200=0.100=0,
303.250=1.000=0.100=0,
303.375=1.200=0.100=0,
303.500=1.000=0.100=0,
303.625=1.200=0.100=0,
303.750=1.000=0.100=0,
303.875=1.200=0.100=0,
304.000=1.000=0.100=0,
318.000=2.000=1.000=0,
319.000=1.000=0.100=0,
334.000=2.000=1.000=0,
335.000=1.000=0.100=0,
335.125=1.200=0.100=0,
335.250=1.000=0.100=0,
335.375=1.200=0.100=0,
335.500=1.000=0.100=0,
335.625=1.200=0.100=0,
335.750=1.000=0.100=0,
335.875=1.200=0.100=0,
336.000=1.000=0.100=0,
348.000=0.600=1.000=0,
380.000=2.000=0.000=0
;
#SCROLLS:0.000=1.000,
159.000=0.000,
159.250=2.000,
159.500=0.000,
159.750=2.000,
160.000=1.000,
191.000=0.000,
191.250=2.000,
191.500=0.000,
191.750=2.000,
192.000=1.000,
284.000=0.600,
287.000=0.000,
287.250=2.000,
287.500=0.000,
287.750=2.000,
288.000=1.000,
319.000=0.000,
319.250=2.000,
319.500=0.000,
319.750=2.000,
320.000=1.000
;
#TICKCOUNTS:0.000=4;
#TIMESIGNATURES:0.000=4=4;
#LABELS:0.000=Song Start;
#COMBOS:0.000=1;
#CHARTNAME:;
#CHARTSTYLE:;
#CREDIT:CND9;
#NOTES:
0000
0000
0000
0000
,
0000
0000
0000
0000
,
0000
0000
0000
0000
,
0000
0000
0000
0000
,
1000
1000
0001
0001
,
0100
0100
0010
0010
,
1000
0100
0001
0100
,
1000
0000
0000
0000
0000
0000
0000
0000
1000
0000
0000
0000
1000
0000
0000
0000
0000
0000
0000
0000
1000
0000
0010
0000
0100
0000
0000
0000
0100
0001
0100
0000
,
0000
0000
0000
0000
0000
0000
0000
0000
0002
0000
0000
0003
0002
0000
0000
0003
,
0002
0000
0000
0000
0200
0000
0003
0000
2000
0000
0000
0300
3100
0000
0000
0020
,
0000
0000
0000
0030
0020
0000
0000
0000
0000
0000
0000
0030
0200
0000
0000
0300
,
0020
0000
0000
0030
0100
0000
0001
0000
0010
0000
0100
0000
1000
0000
0100
0000
,
0000
0000
0010
0010
,
0200
0000
0300
0000
0200
0000
0300
0000
2000
0000
0000
3000
0100
0000
0002
0000
,
0000
0000
0000
0000
0000
0000
0000
0000
0000
0000
0000
0000
0000
0000
0000
0003
,
0001
0000
0001
0000
0100
0000
0001
0000
0100
1000
0010
1000
0001
1000
0100
0010
,
1001
0000
0000
0000
0000
0000
0000
0000
0002
0000
0000
0003
0002
0000
0000
0000
,
0203
0000
0000
0300
0002
0000
0000
0003
2000
0000
0000
3000
0010
0000
0002
0000
,
0000
0000
0000
0023
0000
0000
0000
0000
0000
0000
0000
0030
1000
0000
0000
0000
,
1000
0000
0010
0001
0010
1000
0100
0001
,
0000
0000
0100
0100
,
0002
0000
0000
0003
0001
0000
0000
0000
2000
0000
3000
0000
0010
0000
0002
0000
,
0000
0000
0000
0000
0000
0000
0000
0000
0000
0000
0000
0000
0000
0000
0000
0003
,
0020
0000
0130
0010
0200
0000
1300
0000
,
1000
0100
0010
0000
0010
0000
0001
0000
0001
0000
0100
0000
0001
0000
0000
0000
,
1000
0000
0100
0000
0001
0000
1000
0000
0010
0001
0010
0000
0100
0000
1000
0000
,
1000
0010
0100
0000
0100
0000
0001
0000
0010
0000
0001
0000
0100
0000
0000
0000
,
1001
0000
0101
0000
1000
0100
0010
0001
,
1000
0100
0010
0000
0010
0000
0001
0000
0100
0000
1000
0000
0100
0000
0000
0000
,
0002
0103
0020
1030
0002
0000
0013
0100
,
1000
0001
0100
0000
0100
0000
0001
0000
0020
0000
0030
0000
0010
0000
0000
0000
,
0001
0010
0001
0000
1000
0000
0010
0000
1000
0100
0010
0001
1000
0000
0100
0000
,
1000
1000
0100
0100
0010
0010
0001
0001
,
0100
0100
1000
1000
0100
0100
0010
0010
,
1000
0100
0010
0000
0010
0000
0100
0000
1000
0010
1000
0000
0001
0000
0100
0000
,
0101
0000
0000
0000
1010
0000
0000
0000
1000
0100
1000
0000
0100
0010
0100
0000
,
1000
0100
1000
0100
0010
0100
0010
0100
0001
0100
0001
0100
0010
0100
0010
0100
,
1000
0001
0100
0001
0010
0001
1000
0010
1000
0100
1000
0100
0010
0001
0010
0100
,
1000
0001
1000
0010
1000
0100
1000
0100
0001
0100
0001
0100
1000
0010
0100
0001
,
1000
0000
0000
0000
0001
0000
0001
0000
0000
0000
1000
0010
1010
0000
0010
0000
,
1002
0000
0000
0000
0013
0000
0000
0000
0011
0000
0001
0010
0000
0010
0001
0000
,
1000
0100
1000
0000
0010
0000
0010
0000
0100
0010
0100
0010
1000
0000
1000
0000
,
2000
0000
0000
0000
3010
0000
0000
0000
1010
0000
1000
1000
0000
0010
0001
0000
,
0001
0010
1000
0000
0010
0000
0010
0000
4004
0000
0000
3003
M00M
0000
0000
0000
,
0110
0000
0000
0000
0010
0000
0000
0000
0011
0000
0001
0010
0000
0010
0001
0000
,
1000
0100
0010
0000
0004
0000
4003
0000
3001
0001
0001
0001
1000
0000
0010
0000
,
2000
0000
0000
0000
3100
0000
0000
0000
1100
0000
0100
0010
0000
0010
0100
0000
,
1000
0100
0010
0000
0100
0000
0100
0000
0440
0000
0000
0330
0MM0
0000
0MM0
0000
,
2010
0000
0000
0000
3001
0000
0000
0000
1001
0000
0010
0001
0010
0001
0001
0000
,
0100
1000
0100
0000
0100
0000
0100
0000
0001
0100
0001
0100
0010
0000
0010
0000
,
0102
0000
0000
0000
1003
0000
0000
0000
1001
0000
1000
1000
0010
0010
0100
0000
,
0010
0010
0000
0000
0100
0000
1000
0000
0400
0000
0000
0000
0004
0000
0300
0000
,
2103
0000
0000
0000
3001
0000
0000
0000
1001
0000
0100
0100
0001
0100
1000
0000
,
0100
0100
0001
0000
0010
0000
0010
0000
0001
0010
0100
1000
0001
0000
0001
0000
,
0102
0000
0000
0000
0013
0000
0000
0000
0011
0000
0001
0010
0000
0010
0001
0000
,
MMMM
0000
0000
0000
1000
0000
0001
0000
0000
0000
1000
0100
0010
0000
0100
0000
,
0110
0000
0000
0000
0000
0000
0000
0000
2000
0000
0000
3000
2000
0000
0000
3000
,
0020
0000
0000
0030
0200
0000
0000
0000
1000
0000
0000
0300
1000
0000
0002
0000
,
0000
0000
0003
0020
0000
0000
0000
0000
0000
0000
0000
0030
1000
0000
0000
0000
,
1000
0000
0100
0010
0100
0001
0001
0100
,
0000
0000
0000
0000
0000
0000
0000
0000
0020
0000
0000
0030
0020
0000
0000
0030
,
0022
0000
0000
0000
0000
0000
0000
0033
0200
0000
0000
0300
0010
0000
0002
0000
,
0000
0000
0000
0000
0000
0000
0000
0000
0000
0000
0000
0000
0000
0000
0000
0003
,
0020
0000
0000
0030
0100
0000
0010
0000
0100
0000
0000
0000
1000
0100
0010
0001
,
1001
0000
0000
1000
0010
0000
0100
0000
0001
0000
0010
0000
1000
0000
0000
0000
,
0011
0000
0010
0001
0000
0000
0100
0000
1000
0000
0100
0000
0001
0000
0010
0000
,
1100
0000
0000
1000
0100
0000
1000
0000
0100
0000
0001
0000
0100
0000
0000
0000
,
1000
0100
0000
0000
0000
0000
0001
0100
0000
0000
0000
0000
0001
0000
0000
0010
0000
0000
0100
0000
0000
1000
0000
0000
,
0100
1000
0100
1000
0010
1000
0010
0100
0010
0100
0010
0100
0001
0100
0001
0100
,
0010
1000
0010
1000
0100
1000
0100
0010
0001
0010
0100
1000
0100
1000
0100
1000
,
0100
1000
0010
1000
0001
0100
0001
0010
0001
1000
0010
1000
0001
0100
0001
1000
,
MMMM
0000
0000
0000
0010
0000
0010
0000
0000
0000
1000
0100
1100
0000
1100
0000
,
1002
0000
0000
0000
0013
0000
0000
0000
0001
0000
0100
0010
0000
0010
0100
0000
,
0001
0001
0001
0000
0010
0000
0010
0000
0001
0010
0001
0100
0010
0000
0010
0000
,
2001
0000
0000
0000
3010
0000
0000
0000
1000
0000
0010
0100
0000
0100
0010
0000
,
1000
1000
1000
0000
0100
0000
0100
0000
4004
0000
0000
0000
3013
0000
0000
0000
,
1002
0000
0000
0000
0103
0000
0000
0000
0010
0000
0100
0010
0000
0100
0001
0000
,
1000
1000
1000
0000
0010
0000
0010
0000
1000
0001
1000
0001
0100
0000
0100
0000
,
2001
0000
0000
0000
3100
0000
0000
0000
0010
0000
0100
0010
0000
0100
1000
0000
,
0001
0001
0001
0000
0010
0000
0010
0000
4004
0000
0000
3003
M00M
0000
M00M
0000
,
2020
0000
0000
0000
3131
0000
0000
0000
1000
0000
0010
0010
1000
1000
0010
0000
,
1000
0100
1000
0100
0010
0000
0010
0000
0001
0010
0001
0010
0100
0000
0100
0000
,
2020
0000
0000
0000
3131
0000
0000
0000
0010
0000
1000
0010
0001
0010
1000
0000
,
0001
0010
0001
0000
0100
0000
0100
0000
0440
0000
0000
0330
MMMM
0000
0000
0000
,
0220
0000
0000
0000
1331
0000
0000
0000
0100
0000
0010
0010
0000
0100
0100
0000
,
1000
0100
0001
0000
0100
0000
0100
0000
1000
0100
0001
1000
0010
0000
0001
0000
,
2002
0000
0000
3003
1001
0000
0000
0000
0010
0000
1000
0100
0000
0100
1000
0000
,
MMMM
0000
0000
0000
1000
0000
0001
0000
0000
0000
1000
0010
1000
0000
1000
0000
,
1002
0000
0000
0103
0000
0001
0010
1000
,
0010
0000
0001
0010
0000
0100
0001
1000
,
0010
0000
0000
0100
0000
1000
0100
0010
,
0001
0000
0001
0100
0000
0001
0100
1000
,
0100
0000
0000
0100
0010
0000
0010
0000
,
1000
0000
0000
1000
0001
0000
0001
0000
,
0010
0010
0100
0100
,
MMMM
0000
0000
0000
0000
0000
0000
0000
MMMM
0000
0000
0000
MMMM
0000
0000
0000
0000
0000
0000
0000
M000
0000
M000
0000
000M
000M
000M
000M
000M
0000
0000
0000
;

//--------------- dance-double - CND9 ----------------
#NOTEDATA:;
#STEPSTYPE:dance-double;
#DESCRIPTION:CND9;
#DIFFICULTY:Challenge;
#METER:13;
#RADARVALUES:0.948536,1.221565,0.776398,0.254658,1,1069,927,125,41,16,22,0,0,0,0.948536,1.221565,0.776398,0.254658,1,1069,927,125,41,16,22,0,0,0;
#OFFSET:-0.008;
#BPMS:0.000=150.000;
#SPEEDS:0.000=1.000=0.000=0,
174.000=2.000=1.000=0,
175.000=1.000=0.100=0,
175.125=1.200=0.100=0,
175.250=1.000=0.100=0,
175.375=1.200=0.100=0,
175.500=1.000=0.100=0,
175.625=1.200=0.100=0,
175.750=1.000=0.100=0,
175.875=1.200=0.100=0,
176.000=1.000=0.100=0,
190.000=2.000=1.000=0,
191.000=1.000=0.250=0,
318.000=2.000=1.000=0,
319.000=1.000=0.250=0
;
#SCROLLS:0.000=1.000,
32.000=0.600,
62.000=1.000,
64.000=0.600,
95.000=1.000,
159.000=0.000,
159.250=2.000,
159.500=0.000,
159.750=2.000,
160.000=1.000,
191.000=0.000,
191.250=2.000,
191.500=0.000,
191.750=2.000,
192.000=1.000,
220.000=0.600,
223.000=1.000,
287.000=0.000,
287.250=2.000,
287.500=0.000,
287.750=2.000,
288.000=1.000,
319.000=0.000,
319.250=2.000,
319.500=0.000,
319.750=2.000,
320.000=1.000,
348.000=0.600,
351.000=1.000,
380.000=0.600
;
#TICKCOUNTS:0.000=4;
#TIMESIGNATURES:0.000=4=4;
#LABELS:0.000=Song Start;
#COMBOS:0.000=1;
#CHARTNAME:;
#CHARTSTYLE:;
#CREDIT:CND9;
#NOTES:
00010100
00000000
00000000
00101000
00000000
00200000
00302000
00013000
,
00010100
00000000
00100000
00010100
00000000
00000200
00002300
00013000
,
00110000
00000000
00000000
10100000
00000000
00002000
00203000
00300100
,
00001100
00000000
00100000
00101000
00000000
00200000
00302000
00013000
,
00011000
00000000
00000100
00001010
00000010
00001000
00010100
00100000
,
01010000
00000000
00010100
00001000
00100000
00010000
01010000
00100000
,
11000000
00000000
00100000
01010000
00100000
00001000
00010100
00000010
,
00000100
00000000
00000000
00000000
00000000
00000000
00000000
00000000
00000100
00000000
00000000
00000000
00000100
00000000
00000000
00000000
00000000
00000000
00000000
00000000
00000010
00000000
00010000
00000000
00001000
00000000
00000000
00000000
00001000
00100000
00001000
00000000
,
00000000
00000000
00000000
00000000
00000010
00000000
00000020
00000030
,
00001020
00000000
00000100
00000000
00100030
00000000
00100000
00012000
,
00000000
00000000
00000000
00000000
00000000
02000000
00003000
00000000
00000000
00000000
00000000
00000000
00000000
00000000
00000000
00000000
00000000
00000000
03010000
00000000
00000000
00000000
00000000
00000000
,
00020000
00030000
02000000
00020000
03002000
00030200
00023000
00002300
,
00033000
00000000
00000000
00000000
00000010
00000000
00000020
00000030
,
00000012
00000000
00000000
00000000
00010000
00000000
00000000
00000000
00100003
00000000
00000000
00000000
00020000
00000000
00000000
02000000
,
00000000
00000000
00000000
00030000
10000000
00000000
03000000
00000000
,
00010000
00000000
00010000
00000000
00100000
00000000
00100000
00000000
00010000
00100000
00001000
00010000
00000100
00001000
00000010
00000100
,
00000002
00000000
00000013
00000010
,
00001020
00000000
00000100
00000000
00010030
00000000
00010000
00000020
,
00000000
00000000
00000000
00000000
00000000
00000000
00000000
00000200
00000000
00000000
00000000
00000000
00000000
00000000
00000000
00000000
00000000
00000000
00000000
00000000
00000030
00000000
00000000
00000000
00002300
00000000
00000000
00000000
00003000
00000000
00000000
00000000
,
00001000
00001000
00100000
00100000
00000100
00001000
00000100
00010000
,
00000000
00000000
00000000
00000000
00000010
00000000
00000020
00000030
,
00001020
00000000
00000000
00100000
00000000
00000000
02000030
00000000
00000000
03010000
00000000
00220000
,
00000000
00030000
00301000
00000000
,
00000100
00000100
00010000
00000100
00002000
00000000
00023000
00000000
,
00130000
00000000
00000000
01000000
00010000
00000000
000M0100
00000000
00010100
00000000
00000100
00000000
00100100
00000000
00000000
00000000
,
00001010
00000000
00000000
00000100
00001000
00000000
0010M000
00000000
00101000
00000000
00100000
00000000
00110000
00000000
10000000
00000000
,
10100000
00000000
00000000
00100000
10000000
00000000
M1000000
00000000
01010000
00000000
01000000
00000000
01001000
00000000
00000000
00000000
,
00011000
00000000
00000000
00010000
00001000
00000000
0000M010
00000000
00001010
00000000
00000010
00000000
00010010
00001000
01000000
00010000
,
01100000
00000000
00000000
00100000
01000000
00000000
1M000000
00000000
10100000
00000000
10000000
00000000
10010000
00000000
00000000
00000000
,
00101000
00000000
00000000
00010000
00001000
00000000
0000M100
00000000
00010100
00000000
00000100
00000000
00000110
00000000
00000000
00000000
,
00101000
00000000
00000000
00001000
01000000
00000000
1M000000
00000000
10100000
00000000
10000000
00000000
10001000
00000000
00000000
00000000
,
00101000
00000000
00000000
00100000
00010000
00000000
000M0100
00000000
00001100
00000000
00000100
00000000
00000110
00000010
00000100
00000100
,
00010100
00010000
00010000
00010000
00101000
00001000
00001000
00001000
,
01010000
01000000
01000000
01000000
10100000
00100000
00100000
00100000
,
10010000
10000000
10000000
10000000
01100000
00100000
00100000
00100000
,
01010000
01000000
01000000
01000000
00101000
00001000
00001000
00001000
,
01000000
00010000
00100000
00010000
10000000
00010000
00100000
00010000
01000000
00001000
00100000
00001000
00010000
00001000
00100000
00001000
,
00010000
00000100
00010000
00000010
00001000
00000100
00001000
00000010
00001000
00000001
00001000
00000010
00010000
00001000
00100000
00010000
,
01000000
00010000
01000000
00010000
00100000
00010000
00100000
00010000
00100000
00001000
00100000
00001000
00010000
00001000
00010000
00001000
00010000
00000100
00010000
00000100
00001000
00000100
00001000
00000100
,
00001000
00000000
00000000
00000000
00000010
00000000
00000100
00000000
00000000
00000000
00000010
00000010
M0000000
00000000
0000000M
00000000
,
01011000
00000000
00000000
00000000
01000000
00000000
00000000
00000000
00001100
00000000
00010000
00001000
00000000
00001000
00110000
00000000
,
00001000
00100000
00010000
00000000
01000000
00000000
01000000
00000000
00100000
00100000
00100000
00100000
10000000
00000000
10000000
00000000
,
11001000
00000000
00000000
00000000
01000000
00000000
00000000
00000000
00010100
00000000
00000100
00001000
00000000
00000100
00000010
00000000
,
00000100
00000100
00000100
00000000
00001000
00000000
00001000
00000000
00021000
00000000
00000000
00000000
00030101
00000000
00000000
00000000
,
00110100
00000000
00000000
00000000
00100000
00000000
00000000
00000000
10010000
00000000
00010000
01000000
00000000
01000000
00010000
00000000
,
01000000
00100000
01000000
00000000
00010000
00000000
00010000
00000000
00100000
00100000
00100000
00100000
00001000
00000000
00001000
00000000
,
00101100
00000000
00000000
00000000
00100000
00000000
00000000
00000000
00010010
00000000
00000010
00001000
00000000
00001000
00000001
00000000
,
00000100
00000100
00000100
00000000
00000010
00000000
00000010
00000000
00210000
00000000
00000000
00000000
00301000
00000000
00001000
00000000
,
00001011
00000000
00000000
00000000
00000000
00000000
00000000
00000000
00001000
00010000
00001000
00010000
00001000
00100000
00001000
00100000
00010000
00000000
00000000
00000000
01000000
00000000
00010000
00000000
00000000
00000000
00010000
00000000
00100000
00000000
00000000
00000000
,
00001000
00010000
00100000
00000000
10000000
00000000
10000000
00000000
00010000
00010000
00010000
00010000
01000000
00000000
01000000
00000000
,
00111000
00000000
00000000
00000000
00000000
00000000
00000000
00000000
00100000
00001000
00100000
00001000
00100000
00010000
00100000
00010000
00100000
00000000
00000000
00000000
00000100
00000000
00010000
00000000
00000000
00000000
00010000
00000000
00000010
00000000
00000000
00000000
,
00001000
00000000
00000100
00000000
00010000
00000000
00000000
00000000
00000100
00000000
00000000
00000000
00000100
00000000
00000000
00000000
00011020
00000000
00000000
00000000
00000000
00000000
00000000
00000000
00001030
00000100
00001000
00000100
00010000
00000100
00010000
00001000
,
00010000
00000000
00000000
00000000
00000000
00000000
00000000
00000000
00001000
00100000
00001000
00010000
00001000
00100000
00010000
00100000
00001000
00000000
00000000
00000000
01000000
00000000
00010000
00000000
00000000
00000000
00100000
00000000
00010000
00000000
00000000
00000000
,
01000000
00100000
00010000
00000000
00001000
00000000
00001000
00000000
00010000
00010000
00010000
00010000
00000100
00000000
00000100
00000000
,
00101000
00000000
00000000
00000000
00000000
00000000
00000000
00000000
00001000
00010000
00001000
00010000
00000100
00010000
00000100
00001000
00000010
00000000
00000000
00000000
00001000
00000000
00000010
00000000
00000000
00000000
00000010
00000000
00010000
00000000
00000000
00000000
,
00111000
00000000
00000000
00000000
00000000
00000000
00000000
00000000
00010000
00000000
00000000
00000000
00010000
00000000
00000000
00000000
00000000
00000000
00000000
00000000
00001000
00000000
00001000
00000000
00001000
00000000
00000000
00000000
00001000
00100000
00001000
00000000
,
00010000
00001000
00010000
00001000
00010000
00000100
00010000
00000100
00001000
00000000
00000000
00000000
00000010
00000000
00001000
00000000
00001010
00000000
00000000
00000000
00001000
00000000
00000000
00000000
00001100
00000000
00000000
00000000
00000100
00000000
00000000
00000000
,
00010100
00000000
00010000
00000000
00000100
00010000
00000100
00000000
00111000
00000000
00100000
00000000
00101000
00000000
00000000
00000000
,
00110000
00000000
00000000
00000000
00010000
00100000
00010000
01000000
00010000
00100000
00010000
00000000
10000000
00000000
00000000
00000000
01010000
00000000
00000000
00000000
01000000
00000000
00000000
00000000
01100000
00000000
00000000
00000000
00100000
00000000
00000000
00000000
,
10100000
00000000
00000000
00000000
10000000
00000000
00000000
00000000
10010000
00000000
00000000
00000000
00010000
00000000
00000000
00000000
00110000
00000000
00000000
00000000
00100000
00000000
00000000
00000000
00101000
00000000
00000000
00000000
00001000
00010000
00001000
00010000
,
00001000
00000000
00010000
00000000
00010100
00000000
00000100
00001000
00001100
00000000
00001000
00000000
00001010
00000000
00000010
00000000
,
00000110
00000000
00000100
00000000
00000100
00000001
00000100
00000000
00000011
00000000
00000001
00000000
00001001
00000000
00001000
00000000
,
00001100
00000000
00000000
00000000
00000100
00010000
00000100
00001000
00000100
00000000
00001000
00000000
00000100
00000000
00000000
00000000
00010010
00000000
00000000
00000000
00010000
00000000
00000000
00000000
00010100
00000000
00000000
00000000
00000100
00000000
00000000
00000000
,
00001000
00000000
00000000
00000000
00001000
00000000
00001000
00000000
00001000
00000000
00000000
00000000
00000100
00010000
00001000
00100000
,
00110000
00000000
00000000
00100000
00001000
00000000
0000M100
00000000
00010100
00000000
00000100
00000000
00000110
00000000
00000000
00000000
,
00110000
00000000
00010000
00100000
00010000
00000000
000M1000
00000000
00101000
00000000
00100000
00000000
00110000
00000000
00000000
00000000
,
10010000
00000000
00000000
00010000
01000000
00000000
1M000000
00000000
10010000
00000000
00010000
00000000
00110000
00000000
00000000
00000000
,
00010100
00000000
00000000
00001000
00000100
00000000
00000M01
00000000
00000101
00000000
00000001
00000000
00000100
00000010
00001000
00000100
,
00001000
00000100
00001000
00000100
00010000
00001000
00010000
00001000
00100000
00010000
00100000
00010000
10000000
01000000
00100000
00010000
,
10000000
00100000
01000000
00100000
10000000
00100000
01000000
00010000
00100000
00001000
00010000
00000100
00001000
00000010
00000100
00000001
,
00001000
00000010
00001000
00000100
00010000
00000100
00001000
00000100
00010000
00001000
00010000
00001000
00100000
00001000
00100000
00010000
00100000
00010000
01000000
00010000
01000000
00100000
01000000
00100000
,
10000000
00000000
00000000
00000000
00010000
00000000
00010000
00000000
00000000
00000000
10000000
00100000
0000000M
00000000
M0000000
00000000
,
00011100
00000000
00000000
00000000
00000000
00000000
00000000
00000000
00010000
00001000
00010000
00001000
00100000
00001000
00100000
00001000
00010000
00000000
00000000
00000000
00001000
00000000
00010000
00000000
00000000
00000000
00010000
00000000
00000100
00000000
00000000
00000000
,
00001000
00000000
00000010
00000000
00000100
00000000
00000000
00000000
00000001
00000000
00000000
00000000
00000001
00000000
00000000
00000000
00001000
00000000
00001000
00000000
00001000
00000000
00001000
00000000
00000100
00010000
00000100
00010000
00001000
00010000
00001000
00010000
,
00000100
00000000
00010000
00000000
00001000
00000000
00100000
00000000
00010000
00100000
00010000
01000000
00010000
01000000
00010000
00100000
00001000
00000000
00000000
00000000
00010000
00000000
00000100
00000000
00000000
00000000
00000100
00000000
00001000
00000000
00000000
00000000
,
00000010
00000000
00001000
00000000
00000100
00000000
00000000
00000000
00010000
00000000
00000000
00000000
00010000
00000000
00000000
00000000
00211000
00000000
00000000
00000000
00000000
00000000
00000000
00000000
00301000
00100000
00001000
00010000
00001000
00100000
00001000
00100000
,
00010000
00000000
01000000
00000000
00100000
00000000
10000000
00000000
00010000
01000000
00010000
01000000
00001000
01000000
00001000
01000000
00010000
00000000
00000000
00000000
00100000
00000000
00001000
00000000
00000000
00000000
00001000
00000000
00100000
00000000
00000000
00000000
,
00000100
00000000
00001000
00000000
00000100
00000000
00000000
00000000
00001000
00000000
00000000
00000000
00001000
00000000
00000000
00000000
00000001
00000000
00000001
00000000
00000001
00000000
00000001
00000000
00001000
00000010
00001000
00000010
00010000
00000100
00010000
00000100
,
00010000
00000000
00001000
00000000
00100000
00000000
00010000
00000000
00100000
00010000
00100000
00010000
00100000
00001000
00100000
00001000
00100000
00000000
00000000
00000000
00010000
00000000
01000000
00000000
00000000
00000000
01000000
00000000
00010000
00000000
00000000
00000000
,
10000000
00100000
01000000
00000000
00010000
00000000
00010000
00000000
00002110
00000000
00000000
00000000
00003001
00000000
00000001
00000000
,
00111000
00000000
00000000
00000000
00000000
00000000
00000000
00000000
00100000
00010000
00100000
00010000
01000000
00010000
01000000
00010000
10000000
00000000
00000000
00000000
00010000
00000000
01000000
00000000
00000000
00000000
01000000
00000000
00100000
00000000
00000000
00000000
,
01000000
00001000
00010000
00000000
00001000
00000000
00001000
00000000
00010000
00010000
00010000
00010000
00000100
00000000
00000100
00000000
,
00010000
00000000
00000100
00000000
00001000
00000000
00000010
00000000
00001000
00000100
00001000
00000010
00001000
00000010
00001000
00000100
00010000
00000000
00000000
00000000
00000010
00000000
00001000
00000000
00000000
00000000
00001000
00000000
00000100
00000000
00000000
00000000
,
00010000
00000000
00001000
00000000
00010000
00000000
00000000
00000000
00000100
00000000
00000000
00000000
00000100
00000000
00000000
00000000
00211000
00000000
00000000
00000000
00000000
00000000
00000000
00000000
00301000
00010000
00001000
00010000
00001000
00100000
00001000
00100000
,
00001000
00000000
00010000
00000000
00000100
00000000
00001000
00000000
00000010
00001000
00000010
00001000
00000100
00010000
00000100
00010000
00001000
00000000
00000000
00000000
00100000
00000000
00010000
00000000
00000000
00000000
00010000
00000000
01000000
00000000
00000000
00000000
,
00010000
01000000
00100000
00000000
10000000
00000000
00010000
00000000
00010000
00010000
00010000
00010000
01000000
00000000
01000000
00000000
,
00011010
00000000
00000000
00000000
00000000
00000000
00000000
00000000
00000010
00001000
00000010
00001000
00000100
00010000
00000100
00010000
00001000
00000000
00000000
00000000
00010000
00000000
00001000
00000000
00000000
00000000
00001000
00000000
00100000
00000000
00000000
00000000
,
01110000
00000000
00000000
00000000
00000000
00000000
00000000
00000000
01000000
00000000
00000000
00000000
01000000
00000000
00000000
00000000
00000000
00000000
00000000
00000000
00010000
00000000
10000000
00000000
00010000
00000000
00000000
00000000
10000000
00010000
10000000
00010000
,
01000000
00001000
01000000
00001000
00100000
00010000
00100000
00010000
00000000
00000000
00000000
00000000
00100000
00000000
00001000
00000000
00010100
00000000
00000000
00000000
00010000
00000000
00000000
00000000
00011000
00000000
00000000
00000000
00001000
00000000
00000000
00000000
,
00101000
00000000
00100000
00000000
00010000
00100000
00010000
00000000
01100000
00000000
01000000
00000000
01010000
00000000
00010000
00000000
,
10010000
00000000
00000000
00000000
10000000
00100000
10000000
00100000
10000000
00000000
00010000
00000000
01000000
00000000
00000000
00000000
00101000
00000000
00000000
00000000
00001000
00000000
00000000
00000000
00011000
00000000
00000000
00000000
00010000
00000000
00000000
00000000
,
00010100
00000000
00000000
00000000
00000100
00000000
00000000
00000000
00001100
00000000
00000000
00000000
00001000
00000000
00000000
00000000
00001010
00000000
00000000
00000000
00000010
00000000
00000000
00000000
00001100
00000000
00000000
00000000
00001000
00000100
00010000
00000100
,
00001000
00000000
00000000
00000010
00000000
00001000
00010000
00001000
,
00000100
00000000
00010000
00001000
00000000
00100000
00001000
00010000
,
00000100
00000000
00000000
00000000
00001000
00000100
00010000
00000100
00010000
00000000
00001000
00000000
00010000
00000000
00000000
00000000
00011000
00000000
00000000
00000000
00001000
00000000
00000000
00000000
00101000
00000000
00000000
00000000
00100000
00000000
00000000
00000000
,
10110000
00000000
00000000
00000000
00000000
00000000
00000000
00000000
10000000
00000000
00000000
00000000
10000000
00000000
00000000
00000000
00000000
00000000
00000000
00000000
10000000
00000000
00100000
00000000
01000000
00000000
00000000
00000000
00010000
00100000
00010000
00000000
;
