#TITLE:one or eight;
#SUBTITLE:;
#ARTIST:sampling masters AYA;
#TITLETRANSLIT:;
#SUBTITLETRANSLIT:;
#ARTISTTRANSLIT:;
#GENRE:HARDCORE RAVE;
#CREDIT:beatmania IIDX 9th style;
#BANNER:banner.png;
#BACKGROUND:bg.png;
#LYRICSPATH:;
#CDTITLE:CDTITLE.png;
#MUSIC:one or eight.ogg;
#OFFSET:1.191000;
#SAMPLESTART:29.770000;
#SAMPLELENGTH:17.028000;
#LASTBEATHINT:0.412008;
#SELECTABLE:YES;
#BPMS:0.000000=155.035995
;
#STOPS:
;
#BGCHANGES:0.000=oneoreight.mp4=1.000=0=0=0=StretchNoLoop====,
99999=-nosongbg-=1.000=0=0=0 // don't automatically add -songbackground-
;
#KEYSOUNDS:;
#ATTACKS:;

//---------------dance-single - CND9----------------
#NOTES:
     dance-single:
     CND9:
     Challenge:
     11:
     0.915927,1.045545,0.294198,0.284053,1.339109,632.000000,603.000000,29.000000,28.000000,0.000000,1.000000,0.915927,1.045545,0.294198,0.284053,1.339109,632.000000,603.000000,29.000000,28.000000,0.000000,1.000000:
// measure 0
0000
0000
0000
0000
,  // measure 1
0001
0000
1000
0100
1000
0100
0010
0002
0000
1003
0100
0100
1000
0100
0010
0001
,  // measure 2
1000
0010
1000
0100
1000
0100
1000
0002
0000
0103
0010
1000
1000
0100
1000
0001
,  // measure 3
1000
0000
0000
0000
1000
0000
0000
0000
1010
0000
0000
0000
0010
0000
0100
0000
0000
0000
0101
0000
0000
0000
0001
0000
0010
0000
0000
0000
0100
1000
0100
1000
,  // measure 4
0200
0000
0000
0000
0000
0000
0000
0000
0000
0000
0000
0000
0000
0000
0000
0000
0000
0000
0300
0000
0000
0100
1000
0100
,  // measure 5
4000
0100
0000
0100
0000
0010
0000
0010
0000
0001
0000
0001
0000
0010
0000
3010
,  // measure 6
0400
0010
0000
0001
0000
0010
0000
1000
0000
0010
0000
0001
0000
0010
0000
0301
,  // measure 7
4000
0100
0000
0100
0000
0001
0000
0001
0000
0010
0000
0010
0000
0001
0000
3001
,  // measure 8
2002
0000
0000
3003
0022
0000
0000
0033
2020
0000
0000
3030
0202
0000
0000
0303
,  // measure 9
0004
0100
0000
1000
0000
0100
0000
1000
0000
0010
0000
0100
0000
1000
0000
0103
,  // measure 10
0040
1000
0000
0100
0000
0001
0000
0100
0000
1000
0000
0100
0000
0001
0000
0130
,  // measure 11
0004
0010
0000
1000
0000
0010
0000
1000
0000
0100
0000
0010
0000
0100
0000
0013
,  // measure 12
0001
0010
0001
0100
0001
0100
0001
1000
0001
0010
0100
1000
0100
0010
0001
0010
,  // measure 13
0001
0000
0001
1000
0100
0000
1100
0000
0000
0000
0011
0000
0000
0000
1100
0000
,  // measure 14
1000
0100
0010
0000
0010
0000
0010
0000
0001
0100
0010
0100
0001
0010
0100
1000
,  // measure 15
0001
0000
0001
0010
0001
0000
0101
0000
0000
0000
1010
0000
0000
0000
0101
0000
,  // measure 16
0001
0000
0001
0000
0001
1000
0001
0000
1000
0100
0001
0000
0200
0000
0300
0000
,  // measure 17
1000
0000
0010
0100
0001
0000
1001
0000
0000
0000
0110
0000
0000
0000
1001
0000
,  // measure 18
1000
0100
0010
0000
0100
0000
0010
0000
0000
0100
1000
0000
1000
0000
0001
0010
,  // measure 19
0100
0000
1000
0100
1000
0000
1010
0000
0000
0000
0110
0000
0000
0000
0101
0000
,  // measure 20
1001
0000
0000
0000
0000
0000
1010
0000
0000
0000
0000
0000
0001
0000
0000
0000
0000
0000
0001
0000
0000
0001
0000
0000
0101
0000
0000
0000
0000
0000
0100
0000
0000
0010
0000
0000
1000
0000
0010
0000
0100
0000
0010
0000
1000
0000
0100
0000
,  // measure 21
1000
0000
1000
0000
1000
0000
1000
0000
0001
0000
0000
0001
0000
0000
0001
0000
,  // measure 22
0010
0001
0010
0000
0100
0000
0100
0000
0010
0000
0001
0000
0001
0000
1000
0000
,  // measure 23
1000
0100
0100
0000
0001
0100
0100
0000
1000
0010
0010
0000
0001
0010
0010
0000
,  // measure 24
1000
0100
0100
0000
0001
0100
0100
0000
1000
0100
0010
0000
0001
0010
0100
0000
,  // measure 25
1000
0000
1001
0000
1000
0000
1010
0000
0001
0000
0010
0001
0000
0000
0101
0000
,  // measure 26
0001
0100
0001
0000
0001
0000
0001
0000
0010
0000
0100
0000
0100
0000
0100
0000
,  // measure 27
1000
0100
0100
0000
0001
0100
0100
0000
1000
0010
0010
0000
0001
0010
0010
0000
,  // measure 28
4000
0100
0000
0100
0000
0010
0000
0010
0000
0004
0000
3000
1003
0001
1000
0001
,  // measure 29
1000
0000
0010
0000
0010
1000
0000
1000
0001
0000
1000
0001
0000
1000
0001
0000
,  // measure 30
0100
0000
0100
0000
0001
0010
0000
0010
0100
0000
1000
0100
0000
1000
0100
0000
,  // measure 31
1000
0000
1000
0000
0001
0100
0000
0001
0010
0000
0010
0001
0000
0001
0010
0000
,  // measure 32
0001
0100
0000
0100
0001
0010
0000
0010
0100
0000
0100
1000
0000
1000
0100
0000
,  // measure 33
1000
0000
1000
0000
1000
0000
1000
0000
0010
0000
0000
0010
0000
0000
0010
0000
,  // measure 34
0010
1000
0001
0000
0100
0000
0100
0000
0001
0010
0100
0000
0100
0000
1000
0000
,  // measure 35
0001
0000
0010
0000
0001
0010
0000
0010
0001
0000
0001
0100
0000
0100
0001
0000
,  // measure 36
0010
0000
0000
0000
0101
0000
0001
0010
0000
0000
0011
0000
0000
1010
0000
0000
,  // measure 37
0020
0000
0000
0000
,  // measure 38
1000
0000
0000
0001
0000
0000
1000
0000
1030
0000
0100
0010
0001
0100
0001
1000
,  // measure 39
0200
0000
0000
0000
,  // measure 40
1000
0000
0000
0001
0000
0000
1000
0000
1300
0000
0100
0010
0001
0010
0001
0100
,  // measure 41
0020
0000
0000
0000
0000
2030
3002
0023
,  // measure 42
0230
0000
0000
0000
0000
0320
0032
2003
,  // measure 43
3200
0000
0000
0000
0000
0320
0230
0320
,  // measure 44
2032
0000
0000
0003
,  // measure 45
3001
0010
0001
0100
0010
1000
0100
0010
0001
0100
0010
0100
0001
0001
0001
1000
,  // measure 46
0100
1000
0001
0010
0001
0100
0010
1000
0010
0100
0001
0010
0010
0000
0000
0000
,  // measure 47
0001
0010
0001
1000
0100
0010
0001
1000
0100
1000
0010
0100
0001
0001
0001
0010
,  // measure 48
0001
0100
0010
0100
0001
1000
0001
0010
0001
0010
0100
1000
0001
0010
0010
0000
,  // measure 49
0001
0100
0001
0010
0100
0010
0001
0100
0010
1000
0100
0010
0001
0001
0001
0010
,  // measure 50
0100
0010
0001
1000
0010
0100
0001
0010
0001
1000
0010
0100
0100
0000
0000
0000
,  // measure 51
0001
0100
0001
1000
0010
1000
0001
0010
0100
1000
0010
1000
0001
0001
0001
0100
,  // measure 52
0010
0100
0001
0010
0100
1000
0001
0100
0001
0100
0010
1000
0004
4000
0000
0003
,  // measure 53
3001
1000
0100
1000
0010
0100
0010
1000
0100
0010
0100
1000
0001
0001
0001
0000
,  // measure 54
0010
0000
0001
0010
0100
0000
0010
0000
0010
0000
0100
0000
1100
0000
0000
0000
,  // measure 55
0001
0100
0001
0010
0001
1000
0100
0010
0001
0100
0010
1000
0001
0001
0001
0000
,  // measure 56
0010
0000
0000
0000
0000
0000
0100
0000
0000
0010
0000
0000
0000
0000
0000
0010
0000
0000
0000
0000
0000
0000
0000
0000
0001
0000
0000
0000
0000
0000
0100
0000
0000
0001
0000
0000
0000
0000
0000
0001
0000
0000
0100
0000
0010
0000
0100
0000
,  // measure 57
0001
0010
0001
0100
0001
1000
0100
0010
0001
0010
0001
0100
0001
0001
0001
0010
,  // measure 58
0100
1000
0100
1000
0001
0100
0001
0010
0001
0010
0100
1000
0001
1000
0001
0100
,  // measure 59
0010
0100
0000
0100
0010
1000
0010
0100
0010
0000
0000
0100
0001
1000
0100
0010
,  // measure 60
0001
0000
0000
0000
0000
0000
0001
0000
0100
0000
0001
0000
0100
0000
0000
0001
0000
0000
0000
0000
0000
1000
0000
0000
0000
0000
0000
0010
0000
0000
1000
0000
0000
0000
0000
0000
0000
0000
0000
0000
0000
0000
0000
0000
0000
0000
0000
0000
;
