#TITLE:airflow;
#SUBTITLE:;
#ARTIST:Mr. T;
#TITLETRANSLIT:;
#SUBTITLETRANSLIT:;
#ARTISTTRANSLIT:;
#GENRE:INSTRUMENTAL;
#CREDIT:beatmania IIDX 8th Style. VJ GYO;
#BANNER:banner.png;
#BACKGROUND:bg.png;
#LYRICSPATH:;
#CDTITLE:CDTITLE.png;
#MUSIC:airflow.ogg;
#OFFSET:0.042000;
#SAMPLESTART:13.944000;
#SAMPLELENGTH:25.337999;
#SELECTABLE:YES;
#BPMS:0.000000=148.000000
,246.000000=142.000000
,250.000000=137.000000
,254.000000=131.000000
,256.000000=118.000000
,257.000000=105.000000
,257.500000=124.000000
,258.500000=109.000000
,259.000000=95.000000
,261.000000=75.000000
,261.916656=70.000000
,263.416656=40.000000
;
#STOPS:
;
#BGCHANGES:0.000=airflow.mp4=1.000=0=0=1=====,
99999=-nosongbg-=1.000=0=0=0 // don't automatically add -songbackground-
;
#KEYSOUNDS:;
#ATTACKS:;

//---------------dance-single - Another----------------
#NOTES:
     dance-single:
     CND9:
     Challenge:
     11:
     0.598441,1.018926,0.376843,0.981543,0.473244,478.000000,433.000000,43.000000,112.000000,0.000000,23.000000,0.598441,1.018926,0.376843,0.981543,0.473244,478.000000,433.000000,43.000000,112.000000,0.000000,23.000000:
// measure 0
1000
0000
1000
0100
0011
0000
0101
0000
,  // measure 1
0110
0000
0000
0000
2000
0000
3001
0010
0200
0000
0000
0300
1010
0000
0000
0000
,  // measure 2
1001
0000
0000
0000
0000
0000
1000
0100
0020
0000
0000
0000
0000
0000
0000
0030
,  // measure 3
2000
0000
0000
0000
3020
0000
0031
0100
0020
0000
0000
0000
0030
0000
0000
0000
,  // measure 4
2000
0000
0000
0000
3000
0000
0001
0000
0001
0100
0001
0010
0001
0100
0010
1000
,  // measure 5
0001
0010
0100
1000
0100
0010
0001
0010
0100
1000
0100
1000
0010
1000
0100
1000
,  // measure 6
0001
0010
0100
1000
0100
0010
0001
0100
0001
0010
0001
0100
0010
1000
0010
0100
,  // measure 7
0010
0000
1000
0000
0001
0000
0100
0000
0001
0000
1000
0000
0100
0000
0010
0000
0001
0000
0010
0000
0100
0000
1000
0000
0001
0000
0100
0000
0001
0000
0100
0001
,  // measure 8
0100
0001
0010
0001
1000
0100
0010
0001
2001
0000
0000
0000
0010
0000
0000
0000
,  // measure 9
0100
3201
0312
0100
,  // measure 10
1000
1023
2130
0010
,  // measure 11
0001
0000
3100
0001
0200
0000
1310
0000
,  // measure 12
0200
1301
0021
0100
,  // measure 13
1030
0001
0100
1000
0020
0000
0130
0000
,  // measure 14
2002
3013
1200
0010
,  // measure 15
0301
1000
0010
0001
0200
0310
0200
0310
,  // measure 16
1000
0100
1000
0100
0010
0001
0010
0001
0201
0000
0000
0000
0010
0000
0000
0000
,  // measure 17
1000
2310
3120
0001
,  // measure 18
0100
1032
1203
0001
,  // measure 19
0310
0000
1000
0100
0002
0000
0103
0000
,  // measure 20
2000
0000
3020
0000
0032
0000
0020
0003
,  // measure 21
1000
0130
0200
0002
,  // measure 22
0003
0000
0310
1000
0002
1000
0100
0023
,  // measure 23
0001
0000
0100
0000
1000
0000
0230
0000
1300
0000
1000
0100
0010
0001
0010
0100
,  // measure 24
1001
0000
0000
0000
0000
0000
0000
0000
0000
0000
0000
0000
2000
0000
0000
0000
0000
0000
3200
0000
0000
0000
0000
0000
0320
0000
0000
0000
0000
0000
0000
0000
0000
0000
0000
0000
0100
0000
0000
0000
0000
0000
0000
0030
0000
0000
0000
0000
,  // measure 25
0010
0000
0000
0000
0002
0000
0000
0000
0203
0000
0000
0000
0300
0000
0001
0010
,  // measure 26
0200
0310
0011
0101
,  // measure 27
1010
0000
1100
0000
2001
3100
0001
0100
,  // measure 28
0010
0001
1000
0100
0020
0000
0001
0030
,  // measure 29
0020
0000
0000
0000
0031
0000
0000
0000
2000
0000
0000
0000
0000
0000
3001
0010
,  // measure 30
0200
0000
0300
0000
0200
0000
0300
0000
2000
0000
0000
0000
0000
3000
1000
0100
,  // measure 31
0002
0000
0000
0000
0000
0000
1003
0010
0002
0000
0003
0000
0100
0001
0100
0001
,  // measure 32
0010
0000
0001
0000
0010
0000
0001
0000
1000
0000
0001
0000
2000
3200
0320
0032
2003
0000
0000
0000
0000
0000
0000
0000
3020
0000
0000
0000
0000
0000
0000
0000
,  // measure 33
0230
0302
0023
0230
,  // measure 34
2300
0000
0000
0000
0000
0000
3010
0100
0002
0000
0000
0000
0203
0000
0000
0000
,  // measure 35
2300
3200
0320
2030
,  // measure 36
3001
0100
0010
1000
0010
0100
0001
1000
0002
0000
0000
0000
0023
0000
0000
0000
,  // measure 37
0230
2300
3002
0023
,  // measure 38
2030
0000
0000
0000
3010
0000
0001
0010
0200
0000
0000
0000
0300
0000
1000
0100
,  // measure 39
0020
0000
0000
0000
0130
0000
0000
0000
0200
0000
0000
0000
0300
0000
1000
0100
,  // measure 40
2000
0000
0000
0000
0000
0000
3100
0010
0002
0000
0000
0000
0000
0000
1003
0100
,  // measure 41
0001
0000
0100
1000
0100
0010
0100
1000
0100
0000
0000
0000
0000
0000
0000
0000
,  // measure 42
0000
1111
1002
0010
,  // measure 43
0100
1203
2310
0100
,  // measure 44
0001
3021
0132
0010
,  // measure 45
1000
0003
0100
1000
0200
0000
0311
0000
,  // measure 46
0200
1301
1020
0100
,  // measure 47
0031
1000
0100
0001
0020
0000
0130
0000
,  // measure 48
2002
3013
0201
0000
,  // measure 49
0300
0000
0001
0000
0010
0000
1000
0000
0011
0000
0000
0000
0001
0010
0000
0010
,  // measure 50
0001
0000
0100
0010
1000
0100
0010
0001
0021
0000
0000
0000
0100
0000
0000
0000
,  // measure 51
1000
2130
3210
0001
,  // measure 52
0010
1302
1023
0001
,  // measure 53
0130
0000
1000
0010
0002
0000
0013
0000
,  // measure 54
2000
0000
3200
0000
0302
0000
0200
0003
,  // measure 55
1000
0310
0020
0002
,  // measure 56
0003
0000
0000
0000
0130
0000
1000
0000
0001
0010
0100
0010
0001
1000
0010
0100
,  // measure 57
0010
1000
0100
0010
0001
0010
0100
1000
0010
0100
0010
1000
0100
1000
0001
0010
,  // measure 58
0001
0100
0010
0100
0001
1000
0100
0010
0001
0100
0001
0010
0001
1000
0100
0010
,  // measure 59
0100
1000
0100
1000
0001
0010
0001
0010
0100
0000
0000
0000
0000
0000
0000
0000
,  // measure 60
0000
0000
1000
0010
0001
0000
0010
0000
,  // measure 61
1000
0000
0000
0000
0001
0000
0010
0001
0100
0000
0000
0000
1000
0000
0000
0000
,  // measure 62
0100
0000
0001
0000
0010
0000
0100
0010
0002
0000
0000
0000
0000
0000
0000
0000
,  // measure 63
0203
0000
0000
0000
0301
0000
0001
0100
2000
0000
0000
0000
0000
0000
0000
0000
,  // measure 64
3200
0000
0000
0000
0000
0000
0000
0000
0000
0000
0000
0000
0301
0000
0000
0000
0002
0000
0000
0000
1000
0000
0000
0000
0100
0000
0000
0010
0000
0000
2003
0000
,  // measure 65
0000
0000
0000
0000
0000
0000
0000
0000
0000
0000
0000
0000
0001
0000
0000
0000
0000
0000
0000
0000
0000
0000
0000
0000
0000
0000
0000
0000
0000
0000
0000
0000
0000
0000
0000
0000
0001
0000
0000
0000
0000
0000
0000
0000
0000
0000
0000
0000
0000
0000
0000
0000
0000
0000
0000
0000
0000
0000
0000
0000
0000
0000
0000
0000
0000
0000
0100
0000
0000
0000
0000
0000
0000
0000
0000
0000
0000
0000
0000
0000
0000
0000
0000
0000
0000
0000
0000
0000
0000
0000
3100
0000
0000
0010
0000
0000
0002
0000
0000
0000
0000
0000
0000
0000
0000
0000
0000
0000
0000
0000
0000
0000
0000
0000
0000
0000
0000
0000
0000
0000
0000
0000
0000
0000
0000
0000
0000
0000
0000
0000
0000
0000
0000
0000
0000
0000
0000
0000
0000
0000
0000
0000
0000
0000
0000
0000
0000
0000
0000
0000
0000
0000
0000
0000
0000
0000
0000
0000
0000
0000
0000
0000
0000
0000
2000
0000
0000
0000
0000
0000
0000
0000
0000
0000
0000
0000
0000
0000
0000
0000
0000
0000
0000
0000
0000
0000
0000
0000
0000
0000
0000
0000
,  // measure 66
0000
0000
0000
0000
0000
0000
0000
0000
0000
0000
0000
0000
0000
0000
0000
0000
0000
0000
0000
0000
0000
0000
0000
0000
0000
0000
0000
0000
0000
0000
0000
0000
0000
0000
0000
0000
0000
0000
0000
0000
0000
0000
0000
0000
0000
0000
0000
0000
0000
0000
0000
0000
0000
0000
0000
0000
0000
0000
0000
0000
0000
0000
0000
0000
0000
0000
0000
0000
0000
0000
0000
0000
0000
0000
0000
0000
0000
0000
0000
0000
0000
0000
0000
3000
0003
0000
0000
0000
0000
0000
0000
0000
0000
0000
0000
0000
0000
0000
0000
0000
0000
0000
0000
0000
0000
0000
0000
0000
0000
0000
0000
0000
0000
0000
0000
0000
0000
0000
0000
0000
0000
0000
0000
0000
0000
0000
0000
0000
0000
0000
0000
0000
0000
0000
0000
0000
0000
0000
0000
0000
0000
0000
0000
0000
0000
0000
0000
0000
0000
0000
0000
0000
0000
0000
0000
0000
0000
0000
0000
0000
0000
0000
0000
0000
0000
0000
0000
0000
0000
0000
0000
0000
0000
0000
0000
0000
0000
0000
0000
0000
0000
0000
0000
0000
0000
0000
0000
0000
0000
0000
0000
0000
;

//---------------dance-double - Hyper----------------
#NOTES:
     dance-double:
     CND9:
     Hard:
     10:
     0.542102,0.725066,0.324260,1.060418,0.289205,433.000000,396.000000,37.000000,121.000000,6.000000,12.000000,0.542102,0.725066,0.324260,1.060418,0.289205,433.000000,396.000000,37.000000,121.000000,6.000000,12.000000:
00100000
00001000
00000200
00000000
00002300
00000000
00023000
00000000
,
00030010
00000000
00001000
00000010
00002000
00000000
00000000
00000000
00023000
00000000
00000000
00000000
01030000
00000000
00000000
00000000
,
00000000
00000000
01000000
00010000
00200000
00000000
00000000
00000000
00300000
00000000
00000000
00000000
00002000
00000000
00000000
00000000
,
00003020
00000000
00000031
00000010
00000002
00000000
00000000
00000000
00000000
00000000
00000000
00000000
00020003
00000000
00000000
00000000
,
00030000
00001000
00011000
00000000
00000000
00000000
00000000
00000000
,
00000000
00000000
00000000
00000000
,
00000000
01010000
00101000
00000000
00000000
00000000
00000000
00000000
,
00000000
00000000
00000000
00000000
00000000
00000000
00000000
00000000
00000000
00000000
01000000
00010000
00100000
00001000
00010000
00000010
,
00000100
00000001
00000100
00001000
00020000
00000000
00000000
00000000
00030100
00000000
00001000
00000000
00000010
00000000
00010000
00000000
,
02020000
00000000
23230000
00300000
30100000
01000000
00001000
00010000
,
00000220
00000000
00002332
00003000
00001003
00000100
00010000
01000000
,
00010000
00001000
00000200
00000000
00000301
00000000
00000200
00000000
,
00001300
00000000
00201000
00000000
00310000
01000000
00001000
00001000
,
00010000
00000100
00000020
00000000
00001030
00000000
00200000
00000000
,
20300000
00000000
30200000
00000000
00301000
00010000
00100000
00010000
,
00000010
00000000
00000100
00000000
00001000
00100000
00001000
00100000
00000100
00010000
00000100
00010000
00000001
00000100
00000010
00001000
,
00000100
00010000
00001000
00100000
00020000
00000000
00000000
00000000
00130000
00000000
01000000
00000000
00100000
00000000
00010000
00000000
,
00022000
00000000
00000000
00033000
00002020
00000000
00000030
00000000
00003010
00000000
00000001
00000000
00000010
00000000
00001000
00000000
,
00020200
00030000
00200320
00300000
00100030
00010000
00100000
00001000
,
00010000
00001000
00000200
00000000
00001300
00000000
00020200
00000000
,
00032302
00000000
00000000
00000003
00003002
00000000
00000000
00000000
00000103
00000000
00000000
00000000
00002200
00000000
00003000
00000000
,
00022300
00000000
00030000
00000000
02003200
00000000
00000000
00000300
03200200
00000000
00000000
00000000
00000000
00000000
00300000
00000000
,
00100300
00000100
01000000
00001000
00010000
0001M000
00000100
00001000
,
00000010
00000000
0000M010
00000000
00000001
00001000
00000001
00001000
00000010
00001000
00000100
00010000
00011000
00000000
00000000
00000000
,
02000000
03020000
02030000
00000000
00010000
00000000
00100000
00000000
,
10000000
00000000
00000000
00000000
00100000
00000000
00000000
00000000
03010000
00000000
01000000
00010000
00002000
00000000
00000000
00000000
,
00003200
00001301
00011000
10010000
,
00011000
00000000
00100100
00100000
00010000
00000100
00010000
00100000
,
00010000
00001000
00000200
00000000
00001000
00000000
00000010
00000000
,
00000001
00000000
00000000
00000000
00020300
00000000
00000000
00000000
00030000
00000000
00000100
00001000
00010000
00000000
00000000
00000000
,
02000000
00000000
00000000
00000000
03001000
00000000
00000000
00000000
00000000
00000000
01000000
00100000
00010000
00000000
00000000
00000000
,
00000000
00000000
00010000
00001000
00000100
00000000
00000001
00000100
00000001
00001000
00000010
00001000
00000100
00010000
00001000
00100000
,
00010000
01000000
00100000
10000000
00020000
00000000
00000000
00000000
00230000
00000000
00000000
00000000
02300000
00000000
00000000
00000000
,
03020000
00032000
00003200
00000320
,
00000030
00000000
00000001
00000010
00002000
00000000
00000000
00000000
00023000
00000000
00000000
00000000
02030000
00000000
00000000
00000000
,
03020000
00230000
00320000
00032000
,
00003000
00000000
00001000
00000100
00000020
00000000
00000000
00000000
00000230
00000000
00000000
00000000
00002300
00000000
00000000
00000000
,
00003020
00020030
00030200
00020300
,
00032000
00000000
00013000
00100000
02000000
00000000
00000000
00000000
03000000
00000000
01000000
00100000
00020000
00000000
00000000
00000000
,
02030000
00000000
00000000
03000000
02000000
00000000
00000000
00000000
03000000
00000000
10000000
01000000
20000000
00000000
00000000
00000000
,
30000000
00000000
00100000
00010000
00002000
00000000
00000000
00000000
00003000
00000000
00010000
00001000
00000010
00000000
00000001
00000100
,
00000010
00001000
00000100
00010000
00002000
00000000
00000000
00000000
00000000
00000000
00000000
00000000
00003000
00000000
00000000
00000000
,
00011000
00000000
02010000
00000000
03100000
00010000
00001000
00010000
,
00002200
00000300
00003202
00000300
00000103
00001000
00010000
01000000
,
22000000
03000000
32020000
03000000
01030000
00001000
00010000
00100000
,
10000000
00100000
00020000
00000000
00031000
00000000
00000020
00000000
,
00001030
00000000
00220000
00300000
00130000
00001000
00010000
00001000
,
00000100
00000010
00002000
00000000
00003100
00000000
00000002
00000000
,
00000103
00000000
00020000
00000000
00030010
00000100
00010000
01000000
,
00010000
00000000
00100000
00000000
01000000
10000000
01000000
10000000
00010000
00100000
00010000
00100000
00001000
00010000
00000100
00001000
,
00000010
00000100
00000001
00000010
00000200
00000000
00000000
00000000
00000001
00000000
00000000
00000000
00001000
00000000
00000000
00000000
,
00021300
00000000
00000000
00030000
00210000
00000000
00000000
00000000
01000000
00000000
00000000
00000000
10300000
00000000
00000000
00000000
,
12000000
00000000
00000000
03000000
01020000
00000000
00000000
00000000
00100000
00000000
00000000
00000000
00000100
00000000
00030000
00000000
,
00010000
00001000
00000020
00000000
00000031
00000000
00000020
00000000
,
00001030
00201000
00010000
02300000
,
20000000
30000000
20000000
03000000
32020000
00000000
00000000
00030000
,
03010000
01000000
00010000
00100000
00010000
00M10000
00000010
00000100
,
00001000
00001M00
00100000
01000000
00010000
0M010000
00001000
00010000
,
00000010
00000000
00000100
00000000
000001M0
00000000
00001000
00000000
00000010
00001000
00000010
00001000
00000100
00010000
00000100
00010000
,
00001000
00100000
00010000
01000000
00200000
00000000
00000000
00000000
00000000
00000000
00000000
00000000
00300000
00000000
00000000
00000000
,
00100000
00010000
00001000
00000000
00010000
00000000
01000000
00000000
,
00010000
00000000
00001000
00010000
00001000
00000000
00000000
00000000
00100000
00000000
00000000
00000000
01000000
00000000
00000000
00000000
,
00000000
00000000
10000000
01000000
00100000
00000000
00010000
00000000
00001000
00000000
00000100
00000000
00020000
00000000
00000000
00000000
,
00030020
00000000
00001030
00000010
00001000
00000000
00010000
00000000
00100000
00000000
01000000
00000000
20000000
00000000
00000000
00000000
,
00000000
00000000
00000000
00000000
30010000
00000000
00000000
00000000
00010000
00000000
00000000
00000000
01000000
00000000
00000000
00000000
00100000
00000000
00000000
00010000
00000000
00000000
00001000
00000000
00000000
00000000
00000010
00000000
00000000
00000000
00000001
00000000
,
00000000
00000000
00000000
00000000
00000000
00000000
00000000
00000000
00000000
00000000
00000000
00000000
00000000
00000000
00000000
00000000
00000000
00000000
00000100
00000000
00000000
00000000
00000000
00000000
00000000
00000000
00000000
00000000
00000000
00000000
00000000
00000000
00000000
00000000
00000000
00000000
00000000
00000000
00000000
00000000
00000000
00000000
00000100
00000000
00000000
00000010
00000000
00000000
00000002
00000000
00000000
00000000
00000000
00000000
00000000
00000000
00000000
00000000
00000000
00000000
00000000
00000000
00000000
00000000
00000000
00000000
00000000
00000000
00000000
00000000
00000000
00000000
00000000
00000000
00000000
00000000
00000000
00000000
00000000
00000000
00000000
00000000
00000000
00000000
00000000
00000000
00000000
00000000
00000000
00000000
00000000
00000000
00000000
00000000
00000000
00000000
00000000
00000000
00000000
00000000
00000000
00000000
00000000
00000000
00000000
00000000
00000000
00000000
00000000
00000000
00000000
00000000
00000000
00000000
00000000
00000000
00002000
00000000
00000000
00000000
00000000
00000000
00000000
00000000
00000000
00000000
00000000
00000000
00000000
00000000
00000000
00000000
00000000
00000000
00000000
00000000
00000000
00000000
00000000
00000000
00000000
00000000
00000000
00000000
00000000
00000000
00000000
00000000
00000000
00000000
00000000
00000000
00000000
00000000
00000000
00000000
00000000
00000000
00000000
00000000
00000000
00000000
00000000
00000000
00000000
00000000
00000000
00000000
00000000
00000000
00000000
00000000
00000000
00000000
00000000
00000000
00000000
00000000
00000000
00000000
00000000
00000000
00000000
00000000
00000000
00000000
00000000
00000000
00000000
00000000
00000000
00000000
,
00000000
00000000
00000000
00003003
00000000
00000000
00000000
00000000
00000000
00000000
00000000
00000000
00000000
00000000
00000000
00000000
;
