#TITLE:Ruti'n;
#SUBTITLE:;
#ARTIST:BEXTER;
#TITLETRANSLIT:;
#SUBTITLETRANSLIT:;
#ARTISTTRANSLIT:;
#GENRE:;
#CREDIT:DJMAX PORTABLE Black Square;
#MUSIC:Ruti'n.ogg;
#BANNER:banner.png;
#BACKGROUND:bg.png;
#CDTITLE:CDTITLE.png;
#SAMPLESTART:24.319;
#SAMPLELENGTH:16.000;
#SELECTABLE:YES;
#OFFSET:1.681;
#BPMS:0.000=120.000;
#STOPS:;
#LASTBEATHINT:1.362000;
#BGCHANGES:0.000=black.png=1.000=0=0=1,
4.000=Rutin.mp4=1.000=0=0=1,
99999.000=-nosongbg-=1.000=0=0=0=StretchNoLoop====
;
#FGCHANGES:;

//--------------- dance-single - MX ----------------
#NOTES:
     dance-single:
     CND9:
     Challenge:
     11:
     0.931677,0.830273,0.332942,0.195848,1.542303,666,632,34,20,0,0,0.931677,0.830273,0.332942,0.195848,1.542303,666,632,34,20,0,0:
0000
0000
0000
0000
,
1001
0000
0000
0000
0000
0000
1000
0000
0010
0000
1000
0000
0001
0000
0000
1000
0000
0000
0100
0000
0000
1000
0000
0000
0000
0000
0000
1000
0000
0000
0020
0000
0000
0000
0000
0000
0030
0000
0000
0010
0000
0000
0001
0000
0000
0010
0000
0000
,
1000
0000
0000
0000
0000
0000
1000
0000
0001
0000
0100
0000
0001
0000
0000
0010
0000
0000
0001
0000
0000
0100
0000
0000
0000
0000
0000
0100
0000
0000
0002
0000
0000
0000
0000
0000
0003
0000
0000
0001
0000
0000
0010
0000
0000
0100
0000
0000
,
1000
0000
0000
0000
0000
0000
0001
0000
0100
0000
0010
0000
0100
0000
0000
0001
0000
0000
1000
0000
0000
0100
0000
0000
0000
0000
0000
0100
0000
0000
0020
0000
0000
0000
0000
0000
0030
0000
0000
0010
0000
0000
0001
0000
0000
1000
0000
0000
,
0200
0000
0000
0000
0000
0000
1300
0000
0010
0000
0100
0000
0010
0000
0000
1000
0000
0000
0200
0000
0000
0000
0000
0000
1300
0000
0010
0000
0100
0000
0010
0000
0000
1000
0000
0000
0002
0000
0000
0000
0000
0000
0013
0000
0000
0000
0000
0000
,
0011
0000
0000
0000
0000
0000
0001
0000
1000
0000
0010
0000
0100
0000
0000
0010
0000
0000
1000
0000
0000
0010
0000
0000
0000
0000
0000
1000
0000
0000
0020
0000
0000
0000
0000
0000
0030
0000
0000
0010
0000
0000
0100
0000
0000
0001
0000
0000
,
0010
0000
0000
0000
0000
0000
0001
0000
0100
0000
0001
0000
0100
0000
0000
0001
0000
0000
1000
0000
0000
0001
0000
0000
0000
0000
0000
0001
0000
0000
0020
0000
0000
0000
0000
0000
0030
0000
0000
0010
0000
0000
0001
0000
0000
1000
0000
0000
,
0010
0000
0000
0000
0000
0000
0100
0000
0001
0000
1000
0000
0001
0000
0000
0010
0000
0000
1000
0000
0000
0010
0000
0000
0000
0000
0000
0001
0000
0000
0020
0000
0000
0000
0000
0000
0030
0000
0000
0100
0000
0000
0010
0000
0000
1000
0000
0000
,
0100
0000
0000
0000
0000
0000
1000
0000
0010
0000
0100
0000
0010
0000
0000
0100
0000
0000
0001
0000
0000
0000
0000
0000
0001
0000
0100
0000
0001
0000
0010
0000
0000
0001
0000
0000
0200
0000
0000
0000
0000
0000
0302
0000
0000
0003
0000
0000
,
0101
0000
0001
0010
0001
0100
0010
0100
0000
0002
0000
0013
0001
1000
0100
1000
,
1100
0000
1000
0001
0010
0001
1000
0100
0000
0020
0000
0031
0010
0001
1000
0010
,
1010
0000
1000
0010
0100
0001
0010
0001
0000
0020
0000
0031
1000
0100
1000
0001
,
1000
0000
0100
0000
0001
0000
1000
0010
0000
0001
0000
1000
0001
0000
0101
0000
,
1010
0000
0010
1000
0001
0100
0010
1000
0000
0002
0000
0013
0100
1000
0010
1000
,
1010
0000
0010
0100
0001
0010
0001
0100
0000
0002
0000
1003
0010
1000
0001
0010
,
0011
0000
0010
0001
1000
0001
0100
0001
0000
0020
0000
0031
0100
0010
1000
0010
,
1000
0000
0100
0000
0001
0000
1000
0010
0000
0001
0000
1000
0001
0000
1001
0000
,
0110
0000
0100
0000
0101
0000
0001
0010
0001
0010
0002
0000
1003
0100
0010
0100
,
1010
0000
0010
0000
0011
0000
0010
0002
0003
0002
1003
0100
0001
0100
1000
0010
,
1010
0000
1000
0000
1001
0001
0100
0001
0000
0020
0000
0031
1000
0100
1000
0001
,
0101
0000
0100
0001
0010
0100
0010
0001
0100
1000
0100
0001
0010
0001
1000
0001
,
0011
0000
0001
0000
1001
1000
0100
1000
0001
1000
0001
0000
0100
0001
1000
0100
,
0110
0000
0010
0000
0011
0001
0100
0010
0000
0010
0000
1000
0001
0100
0010
1000
,
1010
0000
0100
0000
0101
0001
0100
0010
1000
0100
1000
0001
0010
0001
0100
0010
,
0100
0001
0010
0001
1000
0100
0010
0001
0010
0001
0100
0010
0100
0001
0010
0100
,
1000
0001
0010
0001
0100
0010
0000
1000
0000
0010
0000
0100
0001
0100
0001
0010
,
0100
0000
1000
0100
0010
0100
0000
1000
0000
0001
0100
0010
0100
0010
1000
0000
,
0100
0000
0001
0100
1000
0100
0000
1000
0000
0001
0010
0001
0010
1000
0010
0001
,
1000
0100
0001
1000
0000
0010
0000
0001
0000
1001
0000
1000
0001
0000
0002
0003
,
1000
0000
0001
0100
0001
0010
0000
0100
0000
0010
0000
0001
0100
0010
1000
0010
,
1000
0000
0001
0100
0001
0010
0000
1000
0000
0001
0100
0010
0001
0100
0010
1000
,
0100
0000
0001
0100
1000
0100
0000
1000
0000
0010
0000
0100
0001
0100
0010
1000
,
0001
0100
1000
0001
0000
0010
0000
1000
0000
2002
0000
0000
0000
0000
0000
3003
,
1001
0000
0001
0100
0010
0100
0001
1000
0010
0100
0010
1000
0010
0100
0010
1000
,
0100
0000
0010
0001
0010
0100
1000
0100
0010
0100
1000
0100
0010
0001
1000
0100
,
1000
0000
0001
0100
0001
0010
0001
1000
0100
1000
0010
1000
0100
0010
0100
1000
,
1000
0100
0001
1000
0100
0001
1000
0100
0001
1000
0100
0001
1000
0100
0001
0100
,
1100
0000
1000
0001
0010
0001
1000
0100
1000
0001
0010
0100
1000
0001
0010
0100
,
1000
0000
0001
0010
0001
0100
0001
1000
0100
1000
0010
1000
0001
0010
0100
1000
,
0010
0000
0100
0001
0010
0001
0100
0001
0010
0100
1000
0010
1000
0001
0020
0000
,
0130
0000
0000
0000
0000
0000
0100
0000
0000
0000
0000
0000
0010
0000
0000
0001
0000
0000
0010
0000
0001
0000
0100
0000
0001
0000
0100
0000
0010
0000
1000
0000
0000
0010
0000
0000
1000
0000
0000
0000
0001
0000
0000
0000
1000
0000
0000
0000
,
1001
0000
1000
0000
1000
0001
0100
0010
0000
0010
0000
1000
0001
0010
0001
1000
,
1010
0000
1000
0001
0100
0010
0100
0001
0000
0001
1000
0010
0100
0001
0100
0000
,
0101
0000
0001
0000
0001
0000
1000
0010
0100
0001
0000
0001
0010
0000
0000
0000
,
0001
0100
1000
0001
0010
1000
0000
1000
0001
0000
0010
0000
0200
0000
0300
0000
,
1100
1000
0100
1000
0010
1000
0010
0100
0001
0010
0001
1000
0100
1000
0100
1000
,
1100
0000
0100
0000
1000
0001
0100
0001
0000
0001
0000
0001
1000
0010
1000
0010
,
1010
0000
1000
0000
1000
0000
0010
0100
0001
0010
0000
0100
1000
0000
0000
0000
,
1000
0100
0001
1000
0010
0001
0000
0010
0001
0000
1000
0000
0200
0000
0300
0000
,
0100
0000
0000
0000
0000
0000
0000
0000
0000
0000
0000
0000
0000
0000
0000
0000
0000
0000
0000
0000
0000
0000
0000
0000
0000
0000
0000
0000
0000
0000
0000
0000
0000
0000
0000
0000
0000
0000
0000
0000
0000
0000
0000
0000
0000
0000
0000
0000
1100
0000
0000
0000
0000
0000
0000
0000
0000
0000
0000
0000
0000
0000
0000
0000
0000
0000
0000
0000
0000
0000
0000
0000
0000
0000
0000
0000
0000
0000
0000
0000
0000
0000
0000
0000
0000
0000
0000
0000
0000
0000
0000
0000
0000
0000
0000
0000
1000
0000
0000
0000
0000
0000
0000
0000
0000
0000
0000
0000
0000
0000
0000
0000
0000
0000
0000
0000
0000
0000
0000
0000
0000
0100
0000
0000
0000
0000
0000
0000
0000
0000
0000
0002
0000
0000
0000
0000
0000
0000
0000
0000
0000
0000
0000
0000
0000
0000
0000
0000
0000
0000
0000
0000
0000
0000
0000
0000
0000
0000
0000
0000
0000
0000
0000
0000
0000
0000
0000
0000
0000
0000
0013
0000
0000
0000
0000
0000
0000
0000
0000
0000
0000
0000
0000
0000
0000
0000
0000
0000
0000
0000
0000
0000
;

//--------------- dance-double - SC ----------------
#NOTES:
     dance-double:
     CND9:
     Beginner:
     11:
     0,0,0,0,0:
00000000
00000000
00000000
00000000
,
00101000
00000000
00000000
00000000
00000000
00000000
00100000
00000000
00010000
00000000
01000000
00000000
00100000
00000000
00000000
00010000
00000000
00000000
00100000
00000000
00000000
10000000
00000000
00000000
00000000
00000000
00000000
00001000
00000000
00000000
00020000
00000000
00000000
00000000
00000000
00000000
00000000
00000000
00000000
00030100
00000000
00000000
00001000
00000000
00000000
00000010
00000000
00000000
,
00000101
00000000
00000000
00000000
00000000
00000000
00000100
00000000
00000010
00000000
00001000
00000000
00000100
00000000
00000000
00001000
00000000
00000000
00010000
00000000
00000000
00001000
00000000
00000000
00000000
00000000
00000000
00000010
00000000
00000000
00000200
00000000
00000000
00000000
00000000
00000000
00000000
00000000
00000000
00000310
00000000
00000000
00010000
00000000
00000000
00001000
00000000
00000000
,
01010000
00000000
00000000
00000000
00000000
00000000
00010000
00000000
10000000
00000000
00010000
00000000
00100000
00000000
00000000
00010000
00000000
00000000
00000010
00000000
00000000
00001000
00000000
00000000
00000000
00000000
00000000
00010000
00000000
00000000
00000200
00000000
00000000
00000000
00000000
00000000
00000000
00000000
00000000
00010300
00000000
00000000
00001000
00000000
00000000
00100000
00000000
00000000
,
02000000
00000000
00000000
00000000
00000000
00000000
03100000
00000000
00010000
00000000
00100000
00000000
00001000
00000000
00000000
00010000
00000000
00000000
00000200
00000000
00000000
00000000
00000000
00000000
00000310
00000000
00000001
00000000
00000010
00000000
00000100
00000000
00000000
00010000
00000000
00000000
00002000
00000000
00000000
00000000
00000000
00000000
00203000
00000000
00000000
00000000
00000000
00000000
,
00301100
00000000
00000000
00000000
00000000
00000000
00001000
00000000
00000100
00000000
00010000
00000000
00000100
00000000
00000000
00001000
00000000
00000000
00010000
00000000
00000000
00001000
00000000
00000000
00000000
00000000
00000000
00000100
00000000
00000000
00000020
00000000
00000000
00000000
00000000
00000000
00000000
00000000
00000000
00000031
00000000
00000000
00001000
00000000
00000000
00000100
00000000
00000000
,
00110000
00000000
00000000
00000000
00000000
00000000
00001000
00000000
00100000
00000000
01000000
00000000
10000000
00000000
00000000
00010000
00000000
00000000
00001000
00000000
00000000
00010000
00000000
00000000
00000000
00000000
00000000
10000000
00000000
00000000
00200000
00000000
00000000
00000000
00000000
00000000
00000000
00000000
00000000
10300000
00000000
00000000
00010000
00000000
00000000
00100000
00000000
00000000
,
00001100
00000000
00000000
00000000
00000000
00000000
00010000
00000000
00000100
00000000
00000010
00000000
00000001
00000000
00000000
00000100
00000000
00000000
00001000
00000000
00000000
00010000
00000000
00000000
00000000
00000000
00000000
00000100
00000000
00000000
00000020
00000000
00000000
00000000
00000000
00000000
00000000
00000000
00000000
00000031
00000000
00000000
00001000
00000000
00000000
00000100
00000000
00000000
,
00220000
00000000
00000000
00000000
00000000
00000000
00331000
00000000
00010000
00000000
00001000
00000000
00100000
00000000
00000000
10000000
00000000
00000000
00200000
00000000
00000000
00000000
00000000
00000000
00301000
00000000
00010000
00000000
00001000
00000000
00010000
00000000
00000000
00000100
00000000
00000000
00000020
00000000
00000000
00000000
00000000
00000000
00000032
00000000
00000000
00000003
00000000
00000000
,
00001001
00000000
00000001
00000010
00000100
00000010
00000001
00001000
00000000
00210100
00000000
00301000
00100000
00010000
00001000
00010000
,
00110000
00000000
01011000
00000000
01000000
00010000
10000000
00100000
00000000
00020000
00000000
00030100
00001000
00000100
00000001
00000100
,
00010100
00000000
00010000
00001000
00100000
00001000
00100000
00110000
00000000
11010000
00000000
10000000
00100000
01000000
00100000
01000000
,
01010000
00000000
01000000
00100000
00010000
00001000
00100000
00010000
00001000
00000100
00000010
00000001
00001001
00000000
00001101
00000000
,
00001001
00000000
00011000
00000000
00010000
00000100
00001000
00000100
00000000
00000002
00000000
00000103
00010000
00001000
01000000
00010000
,
01010000
00000000
01000000
00100000
00010000
00100000
01000000
00010000
00000000
20110000
00000000
31000000
10000000
00100000
10000000
00010000
,
01110000
00000000
01000000
00010000
00001000
00010000
01000000
00000000
00000000
01200000
00000000
01300000
00001000
00010000
00000100
00010000
,
00000000
00000000
00000010
00000100
00001000
00010000
00000100
00001000
00010000
00100000
01000000
10000000
11000000
00000000
01110000
00000000
,
10000000
00010000
00000000
02000000
00000000
03000000
00100000
00000000
00010000
00001000
00000000
00020000
00000000
00030000
00000100
00001000
,
00000100
00000000
00100100
00000000
00001100
00000000
00001100
00000000
00000001
00000000
00001000
00000200
00000000
00000300
00010000
00000100
,
00001000
00000000
00001000
00000000
00000020
00000000
00020030
00000000
00031000
00000000
00001000
00200000
00000000
00300000
01000000
00000000
,
11000000
00000000
10000000
00100000
02000000
00000000
23000000
00000000
31000000
00000000
00010000
00200000
00000000
00300000
00001000
00000000
,
00010000
00000100
00001000
00000200
00000000
00000300
00000010
00000100
00010000
00001000
00100000
00020000
00000000
00030000
01000000
00010000
,
10010000
00000000
00010000
00000000
01010000
00000000
01000000
00000000
01002000
00000000
00103000
00010000
00100000
00001000
00100000
00000100
,
00001000
00000000
00001000
00000000
00000001
00000000
00000100
00000000
00002000
00000000
00000000
00003002
00000000
00000000
00000013
00000000
,
00001000
00000010
00010000
00000010
00000100
00000010
00001000
00000100
00010000
00001000
00100000
00001000
00000100
00001000
00100000
00000000
,
00010000
00000000
01010000
00000000
01000000
00010000
00000000
00010000
01000000
00010000
00100000
00001000
00100000
00010000
00100000
01000000
,
00110000
00000000
00000100
00010000
00011000
00000000
00010010
00000000
00000010
00000100
00000001
00000100
00000010
00001000
00000100
00001000
,
00000020
00000000
00001030
00000100
00000000
00000100
00000000
00000010
00000100
00010000
00001000
00100000
00010000
01000000
00010000
10000000
,
01000000
00100000
00010000
00001000
00100000
00010000
00001000
00000100
00000000
00000011
00000000
00000001
00001001
00000000
00010100
00000000
,
00010000
00001000
00100000
00010000
00001000
00010000
00100000
00001000
01000000
00010000
00100000
00001000
00010000
01000000
00100000
01000000
,
11000000
00000000
10010000
00000000
01010000
00000000
10010000
00000000
10000000
01000000
00010000
10000000
00100000
00010000
00000100
00010000
,
00000000
00000000
00000000
00000000
00000000
00000000
00000000
00010100
00000000
00000000
00000000
00000000
00000000
00000000
00000000
00000000
00011010
00000000
00000000
00000000
00000010
00000000
00000000
00000000
00001000
00000000
00000000
00000000
00000100
00000000
00000000
00000000
00000010
00000000
00000000
00000000
00000100
00000000
00000000
00000000
00001000
00000000
00000000
00000000
00000001
00000000
00000000
00000000
00000000
00000000
00000000
00000000
00000000
00000000
00000000
00000000
00001002
00000000
00000000
00000000
00000000
00000000
00000000
00000000
,
00000013
00000100
00001000
00010000
00000100
00001000
00010000
00100000
00000000
10000000
00000000
10000000
10000000
00000000
10110000
00000000
,
10000000
00010000
00100000
00001000
00010000
00001000
00100000
00010000
10000000
01000000
00100000
00010000
11000000
00010000
00100000
00000100
,
00001000
00000000
00001000
00000001
00000100
00000010
00010000
00001000
00010000
00001010
00010000
00000100
00110100
00000000
00010000
00000100
,
00001000
00000000
00000001
00000010
00000100
00001000
00000010
00001000
00000100
00010000
00000100
00001000
00010000
00001000
00000100
00010000
,
00001000
00100000
00010000
00001000
00100000
00010000
00001000
00100000
00010000
00001000
00100000
00010000
10100000
01000000
00100000
01000000
,
10000000
00000000
00010000
00100000
00010000
10000000
00010000
00100000
00010000
00100000
01000000
10000000
01000000
00100000
00010000
00001000
,
00010000
00000000
00100000
00001000
00010000
00001000
00010000
00000010
00000100
00000010
00001000
00000001
00001010
00000100
00000010
00000100
,
00001000
00000000
00000001
00000100
00000001
00001000
00000100
00010000
00000100
00001000
00000010
00010000
00001000
00100000
00010000
02000000
,
03110000
00000000
00000000
00000000
00000000
00000000
01000000
00000000
00000000
00000000
00000000
00000000
00001000
00000000
00000000
00100000
00000000
00000000
00010000
00000000
00100000
00000000
00001000
00000000
00100000
00000000
00010000
00000000
10000000
00000000
00010000
00000000
00000000
00100000
00000000
00000000
00010000
00000000
00000000
00000000
00001000
00000000
00000000
00000000
00000001
00000000
00000000
00000000
,
00001000
00000100
00000000
00000001
00000000
00000000
00000100
00000000
00010000
00001000
00000000
00100000
00010000
00100000
00001000
00100000
,
00010000
00000000
01010000
00000000
01100000
00000000
10100000
00000000
00200000
00000000
01300000
00010000
00100000
00010000
01000000
00001000
,
00100000
00000000
00001000
00000000
10000000
00000000
00001000
00010000
00000010
00000100
00000000
00000100
00000002
00000000
00000003
00000000
,
00000010
00000100
00001000
00010000
00000100
00001000
00010000
00100000
10000000
00000000
10010000
00000000
10011000
00000000
00000000
00000000
,
10000000
00100000
00000000
00020000
00000000
00030000
00001000
00010000
00000100
00000010
00000000
00000001
00000100
00000010
00001000
00000100
,
00001000
00000000
00001100
00000000
00010100
00000000
01000100
00000000
00100100
00000000
00200000
00310000
01000000
00010000
10000000
00100000
,
01000000
00000000
01100000
00000000
01010000
00000000
01000000
00001000
00010000
00000100
00000000
00001000
00000001
00000000
00000000
00000000
,
00000010
00000100
00001000
00010000
00000100
00001000
00010000
00100000
10000000
00000000
10010000
00000000
10011000
00000000
00000000
00000000
,
00010000
00000000
00000000
00000000
00000000
00000000
00000000
00000000
00000000
00000000
00000000
00000000
00000000
00000000
00000000
00000000
00000000
00000000
00000000
00000000
00000000
00000000
00000000
00000000
00000000
00000000
00000000
00000000
00000000
00000000
00000000
00000000
00000000
00000000
00000000
00000000
00000000
00000000
00000000
00000000
00000000
00000000
00000000
00000000
00000000
00000000
00000000
00000000
00010000
00000000
00000000
00000000
00000000
00000000
00000000
00000000
00000000
00000000
00000000
00000000
00000000
00000000
00000000
00000000
00000000
00000000
00000000
00000000
00000000
00000000
00000000
00000000
00000000
00000000
00000000
00000000
00000000
00000000
00000000
00000000
00000000
00000000
00000000
00000000
00000000
00000000
00000000
00000000
00000000
00000000
00000000
00000000
00000000
00000000
00000000
00000000
10000000
00000000
00000000
00000000
00000000
00000000
00010000
00000000
00000000
00000000
00100000
00000000
00000000
00000000
00001000
00000000
00000000
00000000
00000000
00100000
00000000
00000000
00000000
00000000
00000000
00001000
00000000
00000000
00000000
00000000
00000000
00000000
00000000
00000000
00000000
00020000
00000000
00000000
00000000
00000000
00000000
00000000
00000000
00000000
00000000
00000000
00000000
00000000
00000000
00000000
00000000
00000000
00000000
00000000
00000000
00000000
00000000
00000000
00000000
00000000
00000000
00000000
00000000
00000000
00000000
00000000
00000000
00000000
00000000
00000000
00000000
00000000
00000000
00000000
00031010
00000000
00000000
00000000
00000000
00000000
00000000
00000000
00000000
00000000
00000000
00000000
00000000
00000000
00000000
00000000
00000000
00000000
00000000
00000000
00000000
00000000
;
