#TITLE:Runaway;
#SUBTITLE:;
#ARTIST:LeeZu;
#TITLETRANSLIT:;
#SUBTITLETRANSLIT:;
#ARTISTTRANSLIT:;
#GENRE:Progressive Rock;
#CREDIT:DJMAX RESPECT;
#MUSIC:Runaway.ogg;
#BANNER:banner.png;
#BACKGROUND:bg.png;
#CDTITLE:CDTITLE.png;
#SAMPLESTART:3.757;
#SAMPLELENGTH:17.143;
#SELECTABLE:YES;
#OFFSET:-0.328;
#BPMS:0.000=140.000;
#STOPS:;
#BGCHANGES:0.000=Runaway.mp4=1.000=0=0=1,
288.000=black.png=1.000=0=0=1,
99999.000=-nosongbg-=1.000=0=0=0=StretchNoLoop====
;
#FGCHANGES:;

//--------------- dance-single - CND9 ----------------
#NOTES:
     dance-single:
     CND9:
     Challenge:
     12:
     0.773408,1.418955,0.722377,1.238361,0.897018,682,557,91,156,91,32,0.773408,1.418955,0.722377,1.238361,0.897018,682,557,91,156,91,32:
0001
0000
0000
0100
0010
1000
0001
0000
0000
0100
0010
1000
0001
0000
0000
0100
0010
1000
0001
0000
0000
0100
0010
1000
,
0001
0000
0000
0100
0010
1000
0001
0000
0000
0100
0010
1000
0001
0000
0000
0100
0010
1000
0001
0000
0000
0100
0000
0000
,
0000
0000
0000
0000
,
1001
0000
0100
0001
0010
0000
0100
0000
0010
0000
0100
0000
0001
0000
0100
0000
,
0010
0000
1000
0001
0100
0010
1000
0010
0001
0100
0010
0100
0001
0100
0010
1000
,
0011
0000
0000
0101
0000
0000
0000
0000
0001
0100
0010
1000
0100
0010
0100
1000
,
1001
0000
0000
0101
0000
0000
0011
0000
1010
0000
0000
1001
0000
0000
0000
0000
,
1000
0000
0001
0100
0010
0000
0100
0000
1000
0000
0100
0000
0001
0000
0010
0000
,
1000
0000
0001
0100
0010
0001
1000
0100
0010
0001
0100
0001
1000
0100
1000
0010
,
0011
0000
0000
0101
0000
0000
0000
0000
0001
0100
0010
1000
0100
1000
0010
0100
,
0110
0000
0000
0101
0000
0000
1010
0000
1100
0000
0000
0110
0000
0000
0000
0000
,
0202
0000
0000
0000
0000
0000
0303
0000
0000
1010
0000
0000
0001
0000
0000
1000
0001
0010
0100
0000
0000
1000
0000
0000
,
0110
0000
0100
0000
0001
0010
0000
0010
0001
0000
0010
1000
0000
0010
0001
0100
,
1000
0000
0100
0000
0001
1000
0000
1000
0001
0000
0010
0001
0000
0000
0010
0000
,
1000
0000
0010
0000
0001
0010
0000
0010
0001
0000
0010
1000
0000
0010
0001
1000
,
0100
0000
0010
0000
0001
0100
0000
0010
MMMM
0000
0000
0000
M222
0000
0000
0333
,
0110
0000
0001
0000
0100
1000
0000
0100
0010
0000
0100
0001
0000
0010
0100
1000
,
0010
0000
1000
0000
0010
1000
0000
0010
0001
0000
0010
0100
0000
0000
1000
0000
,
0100
0000
0001
0000
1000
0010
0000
1000
0001
0000
1000
0100
0000
1000
0010
0100
,
0011
0000
0000
0000
0000
0000
0000
0000
1001
0000
0100
0010
0001
0020
0000
0030
,
222M
0000
3330
0000
0000
0000
0000
0000
M222
0000
0333
2M22
0000
3033
22M2
3303
,
222M
0000
3330
0000
0000
0000
0000
0000
M222
0000
0333
222M
0000
3330
2M22
3033
,
MMM2
0003
M2MM
0300
MM2M
0030
2MMM
3000
,
1001
0000
0000
0010
0001
0000
0100
0010
0000
1000
0001
0000
0110
0000
0000
0100
0010
0000
1000
0100
0000
1000
0001
0000
,
222M
0000
0000
3330
0000
0000
0000
0000
2M22
0000
3033
222M
0000
3330
M222
0000
,
0000
0333
22M2
0000
0000
3303
0000
0000
0001
0000
0100
0000
1000
0000
0100
0000
,
MMM2
0003
2MMM
3000
MM2M
0030
M2MM
0300
,
2M22
0000
0000
0000
0000
0000
3033
0000
0000
222M
0000
0000
0000
0000
0000
3330
0000
0000
22M2
0000
0000
0000
0000
0000
0000
0000
0000
3303
0000
0000
0000
0000
0000
0000
0200
0000
0002
0000
0000
0000
0000
0000
0000
0000
0000
0000
0303
0000
,
1000
0000
0010
0100
0001
0000
0100
0000
22M2
0000
3303
2M22
0000
3033
M222
0000
,
0333
0000
0010
0001
1000
0100
0001
1000
1010
1010
0000
0000
0011
0011
0000
0000
,
0022
0000
0033
2200
0000
3300
0000
0000
0001
0100
0010
0100
1000
0100
0010
1000
,
0011
0000
0000
0000
0011
0000
0000
0000
0011
0000
0000
0000
1010
0000
0000
0000
1100
0000
0000
0000
1001
0000
0000
0000
0011
0000
0000
1000
0000
0000
0001
0000
0000
1000
0000
0000
0010
0000
0000
1000
0000
0000
0001
0000
0000
0100
0000
0000
,
0010
0000
0010
0100
0001
0000
0100
0000
1100
0000
0000
0101
0000
0000
0011
0000
,
0000
0000
222M
0000
3330
22M2
0000
3303
2M22
0000
3033
M222
0000
0333
2222
0000
,
3333
0000
2002
0000
3003
0022
0000
0033
0001
1000
0010
1000
0100
1000
0010
0100
,
0202
0000
0303
0022
0000
0033
2200
3300
2020
0000
3030
2M22
0000
3033
0000
0000
,
2002
0000
0000
0000
0000
0000
0000
0000
0000
0000
0000
0000
0000
0000
0000
3003
0000
0000
0001
0000
0000
0000
0000
0000
0001
0000
0000
0000
0000
0000
0100
0000
0010
0000
1000
0000
0001
0000
0000
0000
0000
0000
0100
0000
0000
0000
0000
0000
,
0010
0000
0000
1000
0100
1000
0010
0000
0000
0100
0000
0000
M2MM
0000
0000
0000
0000
0000
0000
0000
0000
0000
0000
0000
,
0000
0000
M32M
0000
,
MM32
0000
0000
0000
2MM3
0000
0000
32MM
,
0000
M3M2
0000
0000
,
0000
2MM3
3MM2
MM23
2M3M
0000
0000
0000
,
0000
0000
3MM2
0000
,
0000
0000
M2M3
0000
,
0000
0000
0320
0000
,
0000
0000
0000
0000
0000
0000
0000
0030
0002
0000
0003
0200
0000
0000
2300
0000
,
0000
0000
0000
0000
0000
0000
3000
0000
0002
0000
0000
0203
0000
0000
2300
0000
,
0000
3000
1000
0000
0100
0000
0010
0000
2000
0000
0000
3020
0000
0000
0032
0000
,
0000
0000
0000
0000
0000
0000
0003
0000
0000
1000
0100
0010
0002
0000
0000
0000
0000
0000
0000
0000
0000
0000
0000
0000
,
0000
0000
0000
0000
0000
0003
MMMM
0000
0000
0000
0000
0000
0010
0001
0100
0001
1000
0010
0100
0010
1000
0001
0100
0010
,
1000
0001
0100
0001
1000
0010
1000
0100
1000
0010
1000
0100
1000
0010
0100
0010
1000
0001
0100
0001
0010
0100
1000
0100
,
1000
0000
0010
0000
0100
0000
0010
0000
1000
0000
0100
0000
1000
0000
0010
0000
1000
0000
0001
0000
0100
0000
0010
0000
0101
0000
0000
0202
0000
0000
0000
0000
0000
0000
0000
0000
0000
0000
0000
0303
0000
0000
1010
0000
0000
2020
0000
0000
,
0000
0000
0000
0000
0000
0000
0000
0000
0000
3030
0000
0000
0000
0000
0000
0000
0000
0000
1000
0000
0010
0000
0000
0000
0011
0000
0000
2200
0000
0000
0000
0000
0000
0000
0000
0000
0000
0000
0000
3300
0000
0000
0101
0000
0000
2020
0000
0000
,
0000
0000
0000
3030
0000
0000
0000
0000
1000
0000
0001
0000
0010
0001
0000
0001
,
0100
0000
0100
0001
0000
0001
1000
0000
1000
0000
0010
0000
0001
0010
0000
0010
,
1000
0000
0001
0100
0000
0100
0010
0000
1000
0000
0001
0000
0001
0010
0000
0010
,
1000
0000
0010
0001
0000
0001
1000
0000
1000
0000
0010
0000
0100
0001
0000
0010
,
0001
0010
0001
0100
0001
1000
0000
0000
1000
0000
0010
0000
0001
0010
0000
0010
,
0100
0000
0100
0001
0000
0001
1000
0000
1000
0000
0010
0000
0100
0001
0000
0001
,
1000
0000
0100
0001
0000
0100
1000
0000
1000
0000
0001
0000
0001
0100
0000
0001
,
1000
0000
0100
0010
0000
0010
0100
0000
0000
0000
0000
0000
0000
0000
0000
0000
,
0000
0000
0000
0000
0000
0000
0000
0000
1000
0100
0010
1000
0010
0100
0000
0010
,
1000
0000
0010
0001
0000
0010
0100
0000
1000
0010
0100
0010
1000
0001
0000
0001
,
1000
0000
0100
0010
0000
0010
0001
0000
1000
0100
0010
0100
0010
0001
0000
1000
,
0100
0000
1000
0001
0000
0001
0010
0000
1000
0010
0001
0010
0001
0100
0000
0100
,
0001
1000
0100
0001
0100
2000
0000
3000
1000
0010
0100
0001
0100
0001
1000
0010
,
0100
1000
0100
0010
1000
0010
0100
0001
1000
0010
0100
0001
0010
0001
0100
1000
,
0100
0001
0010
0001
1000
0010
0100
0001
1000
0100
0010
0100
0010
0001
1000
0001
,
1000
0010
1000
0001
0100
0010
0001
1000
2002
0000
3003
0000
0000
0000
0000
0000
,
22M2
0000
3303
222M
0000
3330
2M22
0000
3033
0000
0000
0000
0000
0000
0000
0000
,
0011
1100
0000
1010
0101
0000
1M11
0000
22M2
0000
0000
0000
0000
0000
0000
0000
,
0000
0000
0000
0000
3303
MMMM
0000
0000
1111
0000
0000
0000
0000
0000
0000
0000
;

//--------------- dance-double - CND9 ----------------
#NOTES:
     dance-double:
     CND9:
     Challenge:
     12:
     0,0,0,0,0:
00000000
00000000
00000000
00000000
,
00000000
00000000
00000000
00000000
00000000
00000000
00000000
00000000
00000000
00000000
00000000
00000000
00000000
00000000
00000000
00000000
00010000
00000000
00000100
00001000
00000100
00000000
00001000
00000010
00000100
00000000
00000001
00000000
00000100
00000000
00000010
00000000
,
00000000
00000000
00000000
00010010
,
00101000
00000000
00100000
00001000
00010000
00000000
01000000
00000000
00010000
00000000
00001000
00000000
00000010
00000000
00001000
00000000
,
00100000
00000000
00001000
00010000
00001000
00100000
00001000
01000000
00010000
00100000
00010000
10000000
00010000
01000000
00100000
10000000
,
01010000
00000000
00101000
00000000
00100000
00001000
00100000
00000000
00001100
00000000
00001000
00000010
00001000
00000100
00010000
00000000
,
00101000
00000000
00100000
00001000
01001000
00000000
00100000
00010000
00110000
00000000
00100000
00001000
00010000
00000100
00001000
00000010
,
00001010
00000000
00000010
00000100
00000001
00000000
00001000
00000000
00010000
00000000
00001000
00000000
00000100
00000000
00010000
00000000
,
00100000
00000000
00010000
00001000
00100000
00010000
01000000
00010000
10000000
00100000
01000000
00010000
10000000
01000000
10000000
00100000
,
10100000
00000000
01010000
00000000
01000000
00010000
01000000
00000000
00101000
00000000
00001000
00100000
00001000
00010000
00000100
00000000
,
00000100
00000000
00000000
00000010
00000010
00000000
00000011
00000010
00000110
00000000
00010100
00010000
00001000
01000000
00010000
10000000
,
00220000
00000000
00000000
00000000
00000000
00000000
00330000
00000000
00000000
00101000
00000000
00000000
00001000
00000000
00000000
00100000
00010000
10000000
01000000
00000000
00000000
10000000
00000000
00000000
,
01010000
00000000
00010000
00000000
00001000
00010000
00000000
01000000
00001000
00000000
00001000
00010000
00000000
00000000
00000010
00000100
,
00000101
00000000
00000010
00000000
00000011
00000001
00000000
00001000
00001100
00000000
00010000
00000100
00000000
00000000
00100000
00000000
,
00110000
00000000
01000000
00000000
01010000
00010000
00000000
01000000
00001000
00000000
00001000
00100000
00000000
00000000
00000010
00001000
,
00001100
00000000
00000100
00000000
00010100
00010000
00000000
00000000
00101000
00000000
00000000
00000000
00101000
00000000
00000000
00000000
,
00010100
00000000
00010000
00000000
00000100
00001000
00000000
00000100
00010000
00000000
00001000
00010000
00000000
00001000
01000000
00100000
,
01000000
00000000
00010000
00000000
00100000
00001000
00000000
00100000
00010000
00000000
00100000
00001000
00000000
00000000
00000100
00000000
,
00001000
00000000
00100000
00000000
00001000
00010000
00000000
00001000
00100000
00000000
00001000
01000000
00000000
00001000
00010000
00000100
,
00001100
00000000
00000000
00000000
00000000
00000000
00000000
00000000
00000001
00001000
00000010
00010000
00000100
00001000
00000000
00000000
,
00110000
00000000
00100000
00100000
00001000
00001000
00010000
00000100
00010100
00000000
00010000
00011000
00000000
00001000
00100000
00001000
,
00110000
00000000
00010000
00010000
01000000
01000000
00100000
10000000
10100000
00000000
00100000
01100000
00000000
01000000
01010000
00010000
,
00110000
00110000
00011000
00001100
,
00000101
00000000
00000000
00001000
00000001
00000000
00001000
00000010
00000000
00000100
00000001
00000000
00001100
00000000
00000000
00001000
00000100
00000000
00001000
00000001
00000000
00000100
00000001
00000000
,
00010010
00000000
00010000
00010000
00001000
00001000
01000000
00010000
01010000
00000000
10000000
00010000
00000000
01000000
00001000
00010000
,
00000100
00010100
00000000
00000000
00010000
00001000
00000100
00001000
,
00011000
00101000
01010000
00010100
,
00001100
00000000
00000000
00000000
00000000
00000000
00000000
00000000
00000000
00010010
00000000
00000000
00000000
00000000
00000000
00000000
00000000
00000000
00100100
00000000
00000000
00000000
00000000
00000000
00000000
00000000
00000000
00000000
00000000
00000000
00000000
00000000
00000000
00000000
00000010
00000000
00000001
00000000
00000000
00000000
00000000
00000000
00000000
00000000
00000000
00000000
00000000
00000000
,
00001000
00000000
00000010
00001000
00000100
00000000
00010000
00000000
00001100
00000000
00010000
00001100
00000000
00100000
00001100
00000000
,
00000000
00000000
00100000
00001000
00100000
00010000
01000000
00100000
10100000
10100000
00000000
00000000
10010000
10010000
00000000
00000000
,
00202000
00000000
00303000
00220000
00000000
00330000
00000000
00000000
00100000
00001000
00010000
00000100
00001000
00000010
00010000
00001000
,
00011000
00000000
00000000
00000000
00011000
00000000
00000000
00000000
00011000
00000000
00000000
00000000
00010100
00000000
00000000
00000000
00001100
00000000
00000000
00000000
00001010
00000000
00000000
00000000
00001001
00000000
00000000
00001000
00000000
00000000
00000100
00000000
00000000
00010000
00000000
00000000
00000100
00000000
00000000
00001000
00000000
00000000
00000010
00000000
00000000
00010000
00000000
00000000
,
00000100
00000000
00001000
00000100
00001000
00000000
00000010
00000000
00000110
00000000
00000010
00001010
00000000
00001000
00001100
00000000
,
00110000
00000000
00010000
01010000
00000000
01000000
01001000
00000000
00010010
00000000
00000000
00001000
00000000
00000000
00001001
00000000
,
00000000
00000000
00001010
00000000
00001000
00000100
00010100
00000000
00010000
00000000
00011000
00010000
00001000
00100000
00110000
00000000
,
01010000
00000000
01000000
00100000
00010000
00000000
00001000
00100000
00001000
00000000
00010000
00010000
00001000
00100000
00010000
01000000
,
01010000
00000000
00000000
00000000
00000000
00000000
00000000
00000000
00000000
00001100
00000000
00000000
00000001
00000000
00000000
00001000
00000010
00001000
00000100
00000000
00000000
00010000
00000000
00000000
,
00000100
00000000
00000000
00010000
00001000
00100000
00001000
00000000
00000000
01000000
00000000
00000000
02000000
00000000
00000000
00000000
00000000
00000000
00000000
00000000
00000000
00000000
00000000
00000000
,
00000000
00000000
03200000
00000000
,
00320000
00000000
00000000
00000000
00230000
00000000
00000000
02300000
,
00000000
03002000
00000000
00000000
,
00000000
02003000
03020000
00032000
00003200
00000000
00000000
00000000
,
00000000
00000000
00000320
00000000
,
00000000
00000000
00002030
00000000
,
00000000
00000000
00023000
00000000
,
00000000
00000000
00000000
00000000
00000000
00000000
00030000
00000000
00010100
00000000
00000000
00001000
00001100
00000000
00010000
00000100
,
00010000
00000000
00011000
00000000
00101000
00000000
00110000
00000000
00101000
00000000
01000000
00001000
01000000
00000000
00100000
10000000
,
00100000
01000000
00010000
00100000
00110000
00000000
00101000
00000000
00010100
00000000
00000000
00010000
00001000
00000000
00000100
00000000
,
00000001
00000000
00000000
00000000
00001000
00000000
00000001
00001000
00000001
00000000
00000000
00000000
00000101
00000000
00000000
00000000
00000100
00000000
00000000
00000000
00000000
00000000
00000001
00000000
00001000
00000000
00000000
00000000
00000100
00000000
00010000
00000000
,
00000100
00000000
00000000
00000000
00000000
00000000
00001000
00000000
00000000
00000100
00000000
00000000
00010100
00000000
00000000
00000000
00000000
00000000
00011000
00000000
00000000
00000000
00000000
00000000
00010000
00000000
00000100
00000000
00001000
00000000
00000100
00000000
00010000
00000000
00000100
00000000
00001000
00000000
00000010
00000000
00001000
00000000
00000100
00000000
00010000
00000000
00000100
00000000
,
00010000
00001000
00100000
00001000
00100000
00010000
01000000
00100000
01000000
00010000
00100000
00010000
00100000
00001000
00010000
00001000
00010000
00000100
00001000
00000100
00010000
00001000
00100000
00010000
,
01000000
00000000
00010000
00000000
10000000
00000000
00010000
00000000
10000000
00000000
00100000
00000000
10000000
00000000
01000000
00000000
10000000
00000000
00100000
00000000
01000000
00000000
00010000
00000000
01010000
00000000
00000000
02020000
00000000
00000000
00000000
00000000
00000000
00000000
00000000
00000000
00000000
00000000
00000000
03030000
00000000
00000000
10100000
00000000
00000000
20200000
00000000
00000000
,
00000000
00000000
00000000
00000000
00000000
00000000
00000000
00000000
00000000
30300000
00000000
00000000
00000000
00000000
00000000
00000000
00000000
00000000
10000000
00000000
00010000
00000000
00000000
00000000
10010000
00000000
00000000
20020000
00000000
00000000
00000000
00000000
00000000
00000000
00000000
00000000
00000000
00000000
00000000
30030000
00000000
00000000
11000000
00000000
00000000
22000000
00000000
00000000
,
00000000
00000000
00000000
33000000
00010000
00100000
01000000
10000000
01000000
00000000
00000000
00000000
01000000
00000000
00000000
00000000
,
00010000
00010000
00000100
00000100
,
00010000
00000000
00011000
00001100
00011000
00000000
01010000
00000000
,
01010000
00000000
00000000
00000000
00000000
00000000
00000000
00000000
00010000
10000000
00010000
10000000
00010000
10000000
00010000
10000000
00100000
00000000
00000000
00000000
10000000
00000000
00000000
00000000
00010000
00000000
00100000
00000000
00001000
00000000
00000000
00000000
,
00101000
00100000
00000100
00010000
00000100
00001000
00000000
00000000
00010010
00000000
00000010
00000000
00001010
00001000
00000000
00000010
,
00001010
00000000
00000000
00001000
00000100
00000000
00000001
00000100
00001000
00000000
00000010
00000000
00001010
00001000
00000000
00000010
,
00010000
00000000
00000000
00000010
00001000
00000000
00000100
00000000
00101000
00000000
00100000
00000000
00110000
00010000
00000000
01000000
,
00010000
00000000
00000000
00010000
00100000
00000000
00100000
00010000
00001000
00000000
00000000
00000000
00000000
00000000
00000000
00000000
,
00000000
00000000
00000000
00000000
10010000
00000000
00000000
00000000
10000000
01000000
10000000
00010000
00100000
00010000
01000000
00001000
,
00100000
00000000
00100000
00010000
00000000
00010000
01000000
00000000
00100000
10000000
00010000
00100000
00001000
00010000
00000100
00010000
,
00001000
00000000
00010000
00000100
00000000
00001000
00000010
00000000
00010000
00001000
00010000
00000100
00001000
00000010
00000100
00000010
,
00010000
00000000
00010000
00000100
00000000
00001000
00100000
00000000
00010000
01000000
00001000
00010000
00001000
00100000
00000000
00100000
,
00001000
00010000
00000100
00010000
00001000
02000000
00000000
03000000
01000000
00010000
00100000
00001000
00010000
00000100
00001000
00000010
,
00000100
00000001
00000100
00000010
00001000
00000100
00010000
00001000
00100000
00010000
01000000
00100000
10000000
01000000
10000000
00100000
,
01000000
00010000
00100000
00010000
01000000
00001000
00100000
00010000
00100000
00001000
00000100
00001000
00010000
00001000
00000010
00000100
,
00001000
00000100
00010000
00000100
00010000
00001000
00100000
00010000
20020000
00000000
30030000
00000000
00000000
00000000
00000000
00000000
,
10010000
00000000
00000000
00110000
00000000
00000000
00011000
00000000
00000000
00000000
00000000
00000000
00000000
00000000
00000000
00000000
,
00010000
00000010
00000000
00001000
00000010
00000000
00001001
00000000
00002000
00000000
00000000
00000000
00000000
00000000
00000000
00000000
,
00000000
00000000
00113000
00000000
;

//--------------- pump-double - CND9 ----------------
#NOTES:
     pump-double:
     CND9:
     Challenge:
     1:
     1.000214,1.447334,2.198884,0,0.758099,882,587,277,0,0,18,1.000214,1.447334,2.198884,0,0.758099,882,587,277,0,0,18:
0000000000
0000000000
0000000000
0000000000
,
0000000000
0000000000
0000000000
0000000000
0000000000
0000000000
0000000000
0000000000
0000000000
0000000000
0000000000
0000000000
0000000000
0000000000
0000000000
0000000000
0001010000
0000000000
0001000000
0000010000
0001000000
0000000000
0000001000
0000100000
0000000100
0000000000
0000001000
0000000000
0000000010
0000000000
0000000100
0000000000
,
0000000000
0000000000
0000000000
0010010000
,
1010000000
0000000000
1000000000
0001000000
0010100000
0000000000
0000100000
0000000000
0001001000
0000000000
0000000000
0000110000
0000000000
0000000000
0000010100
0000000000
,
0000101000
0000000000
0000000000
0001010000
0000000000
0000000000
0000110000
0000000000
0001001000
0000000000
0000000000
0000000000
0001001000
0000000000
0000000000
0000000000
,
0000100000
0000000000
0000101000
0000000000
0000010000
0000000100
0000010100
0000000000
0000001100
0000000000
0000100100
0000010000
0000100000
0000010000
0010010000
0000000000
,
0011000000
0000000000
0010000000
0000100000
0100100000
0000000000
0010010000
0010000000
0011000000
0000000000
0010000000
0000100000
0001000000
0000010000
0000100000
0000001000
,
0000011000
0000000000
0000010000
0000000100
0000001100
0000000000
0000000100
0000000000
0000000110
0000000000
0000000000
0000010010
0000000000
0000000000
0000100100
0000000000
,
0000110000
0000000000
0000000000
0100010000
0000000000
0000000000
0110000000
0000000000
0100100000
0000000000
0000000000
0000000000
0100100000
0000000000
0000000000
0000000000
,
0100000000
0000000000
0100100000
0000000000
0010000000
0000100000
0001100000
0000000000
0000101000
0000000000
0000110000
0000100000
0000001000
0000010000
0000010100
0000000000
,
0000010010
0000000000
0000000010
0000001000
0000001010
0000000000
0000010100
0000010000
0000011000
0000000000
0001010000
0001000000
0000100000
0100000000
0001000000
1000000000
,
0011000000
0000000000
0000000000
0000001100
0000000000
0000000000
0000000000
0000000000
,
0001000100
0000000000
0001000000
0000000000
0001100000
0000100000
0000000000
0001000000
0001001000
0000000000
0000100000
0000001000
0000000000
0000000000
0000010000
0000000100
,
0000010100
0000000000
0000001000
0000000000
0000001100
0000000100
0000000000
0010000000
0010010000
0000000000
0001000000
0100000000
0000000000
0000000000
0010000000
0000000000
,
1010000000
0000000000
0100000000
0000000000
0101000000
0001000000
0000000000
0100000000
0100100000
0000000000
0000100000
0010000000
0000000000
0000000000
0000001000
0000100000
,
0000110000
0000000000
0000010000
0000000000
0001010000
0001000000
0000000000
0000000000
0000110000
0000000000
0000000000
0000000000
0000100010
0000000000
0000000000
0000000000
,
0000001010
0000000000
0000000100
0000000000
0000010100
0000010000
0000000000
0000001000
0000011000
0000000000
0000010000
0000000010
0000000000
0000000000
0001000000
0000010000
,
0010100000
0000000000
0010000000
0000000000
0011000000
0001000000
0000000000
1000000000
1010000000
0000000000
0001000000
1000000000
0000000000
0000000000
0000100000
0000000000
,
0000101000
0000000000
0000001000
0000000000
0001001000
0001000000
0000000000
0000000100
0000010100
0000000000
0000001000
0000000001
0000000000
0000000000
0000000100
0000000010
,
0000010010
0000000000
0000000000
0000000000
0000000000
0000000000
0000000000
0000000000
0000000110
0000010000
0000001000
0000100000
0000010100
0010100000
0000000000
0000000000
,
0100100000
0000000000
0100000000
0100000000
0001000000
0001000000
0010000000
0000100000
0001001000
0000000000
0001000000
0001001000
0000000000
0000001000
0000101000
0000010000
,
0000010010
0000000000
0000000010
0000000010
0000000100
0000000100
0000001000
0000100000
0000110000
0000000000
0010000000
0000110000
0000000000
0000000100
0000110000
0010000000
,
0010100000
0010100000
0000010100
0000010100
,
0000001010
0000000000
0000000000
0000000000
0000000000
0000000000
0001001000
0000000000
0101000000
0000000000
0000000000
0000000000
0000000000
0000000000
0100000000
0100000000
,
0100100000
0000000000
0000100000
0000100000
0010000000
0010000000
0000010000
0001000000
0001001000
0000000000
0010000000
0001001000
0000000000
0000000100
0001001000
0000100000
,
0000010000
0000000110
0000000000
0000000000
0000000001
0000000000
0000000001
0000000000
,
0000000101
0000010100
0010100000
1010000000
,
1000010000
0000000000
0000000000
1000100000
0000000000
0000000000
1010000000
0000000000
0000000000
0000000000
0000000000
0000000000
0010010000
0000000000
0000000000
0000000000
,
0110000000
0000000000
0100000000
0001000000
0011000000
0000000000
0010000000
0000000000
0000110000
0000000000
0001000000
0000110000
0000000000
0010000000
0000110000
0000000000
,
0000101000
0000000000
0000010100
0000000000
0000000000
0000000000
0000011000
0000000000
0000010010
0000010010
0000000000
0000000000
0000001001
0000001001
0000000000
0000000000
,
0000010100
0000000000
0000001100
0000000000
0000100000
0000010000
0001010000
0000000000
0000101000
0000000000
0010100000
0000010000
0010000000
0000100000
0011000000
0000000000
,
0011000000
0110000000
1010000000
1100000000
1001000000
1000100000
0010100000
0000000000
0000000000
0000000000
0000000000
0000000000
,
0001001000
0000000000
0000000100
0000010000
0000000110
0000000000
0000001000
0000000000
0000001100
0000000000
0000001000
0000011000
0000000000
0000010000
0001010000
0000000000
,
0000110000
0000000000
0001000000
0001100000
0000000000
0010010000
0000010000
0000000000
0001001000
0000000000
0000000000
0000100010
0000000000
0000000000
0000111000
0000000000
,
0000000000
0000000000
0000001000
0000000000
0001000000
0000100000
0001010000
0000000000
0010100000
0000000000
0010010000
0000010000
0001000000
0000000100
0000010100
0000000000
,
0000001100
0000000000
0000001000
0000000010
0000001010
0000000000
0000000101
0000000001
0000000011
0000000000
0000001001
0000001000
0000000100
0000100000
0000010000
0001000000
,
0001001000
0000000000
0000000000
0000110000
0000000000
0000000000
0000000000
0000000000
,
0000000000
0000000000
0000000000
0000000000
0101000000
0000000000
0010000000
0010000000
,
0100100000
0000000000
0001010000
0000000000
0000110000
0000000000
0000001000
0000010000
,
0000010010
0000000000
0000000010
0000000000
0000001000
0000001000
0000000100
0000000000
0000010100
0000000000
0000000000
0000000000
0000001000
0000000000
0000000010
0000000000
,
0000000101
0000000000
0000000000
0000000100
0000010100
0000000000
0000010000
0000001000
0000110000
0000000000
0000000000
0000100000
0000000100
0000000000
0000010000
0000000000
,
0000001100
0000000000
0000000100
0000000000
0000100000
0000100000
0000010000
0000000000
0001001000
0000000000
0000000000
0000000000
0001000000
0000000000
0000000000
0000000000
,
0000011000
0000000000
0000000000
0000000000
0000100000
0000000000
0000100000
0000000000
0001010000
0000000000
0001000000
0001100000
0000000000
0000100000
0010100000
0000000000
,
0100000000
0000000000
0000000000
0000100000
0100100000
0100000000
0001000000
0010000000
0011000000
0000000000
0000000000
0000000000
0010000000
0000000000
0000000000
0000000000
,
0010100000
0000000000
0000000000
0000000000
0000110000
0000000000
0000000000
0000000000
0001001000
0001001000
0000100000
0000000000
0000000000
0000000000
0001001000
0001001000
,
0000010000
0000000000
0000000000
0000000000
0000100100
0000000000
0000000000
0000000000
0001010000
0000000000
0000000000
0000100000
0000110000
0000000000
0001010000
0000010000
,
0001000000
0000000000
0001100000
0000000000
0010100000
0000000000
0011000000
0000000000
0110000000
0000000000
0100000000
0001000000
0101000000
0000000000
1010000000
1000000000
,
1000000000
0001000000
0010000000
0000100000
0001100000
0000000000
0001010000
0000000000
0000101000
0000000000
0000000000
0000001000
0000011000
0000000000
0000010010
0000000010
,
0000000100
0000000000
0000000000
0000000000
0000001010
0000000000
0000001000
0000000010
0000001000
0000000000
0000000000
0000000000
0000010100
0000000000
0000000000
0000000000
0000010001
0000000000
0000000000
0000000000
0000000001
0000000000
0000000100
0000000000
0000000101
0000000000
0000000000
0000000000
0000010001
0000000000
0000010000
0000000000
,
0000010000
0000000100
0000100000
0000001000
0000101000
0000000000
0000101000
0000000000
0000101000
0000000000
0000000000
0000010000
0001010000
0000000000
0010100000
0010000000
,
0000100000
0000000000
0011000000
0000000000
0011000000
0000000000
0110000000
0000000000
0100100000
0000000000
0100000000
0001000000
0101000000
0000000000
1001000000
1000000000
,
1000000000
0001000000
0010000000
0000100000
0001100000
0000000000
0001001000
0000000000
0000101000
0000101000
0000000000
0000000000
0000000000
0000000000
0000110000
0000110000
,
0000000000
0000000000
0000000000
0000100000
0000100100
0000000000
0000000000
0000000000
0000001100
0000001100
0000000000
0000000000
0000000000
0000000000
0000010010
0000010010
,
0000000000
0000000000
0000000000
0000000000
0000010000
0000001000
0000000100
0000000010
0000000101
0000000000
0000000000
0000000000
0000000110
0000000000
0000000000
0000000000
,
0000000110
0000010100
0000010100
0001010000
,
0001010000
0000000000
0010100000
0001010000
0010100000
0000000000
0101000000
0000000000
,
0101000000
0000000000
0000000000
0000000000
0000000000
0000000000
0000000000
0000000000
1000100000
1000000000
0000100000
1000000000
0000100000
1000000000
0000100000
1000000000
0010100000
0000000000
0000000000
0000000000
1000000000
0000000000
0000000000
0000000000
0001000000
0000000000
0010000000
0000000000
0000100000
0000000000
0000000000
0000000000
,
0010100000
0010000000
0000010000
0001000000
0000110000
0001000000
0000000000
0000000000
0001001000
0000000000
0000001000
0000000000
0000101000
0000100000
0000000000
0000000100
,
0000010100
0000000000
0000000000
0000010000
0000010010
0000000000
0000000010
0000000100
0000000110
0000000000
0000001000
0000000000
0000001100
0000000100
0000000000
0000001000
,
0000001001
0000000000
0000000000
0000000001
0000010001
0000000000
0000010000
0000000000
0000011000
0000000000
0000001000
0000000000
0000101000
0000100000
0000000000
0000010000
,
0010010000
0000000000
0000000000
0010000000
0010100000
0000000000
1000100000
1000000000
0000000000
0000000000
0000000000
0000000000
0000000000
0000000000
0000000000
0000000000
,
0000000000
0000000000
0010000100
0000000000
0001000100
0001000000
0001001000
0000001000
,
0000101000
0000000000
0000100000
0000000000
0000100100
0000000000
0000010000
0000000100
0000010100
0000000000
0000000100
0000000000
0000001100
0000000000
0000001000
0000000000
,
0000001001
0000000001
0000000011
0000000010
0000000110
0000000100
0001000100
0001000000
,
0001010000
0000000000
0000010000
0000000000
0010010000
0000000000
0010000000
0001000000
0011000000
0000000000
0001000000
0000000000
1001000000
0000000000
1000000000
0000000000
,
0001000000
0010000000
0000100000
0001000000
0000010000
0010100000
0000000000
0000000000
0000010100
0000100000
0000010000
0001000000
0000110000
0010000000
0001000000
0010000000
,
0001001000
0100000000
0010000000
1000000000
0011000000
0100000000
0001000000
0010000000
0000110000
0001000000
0000010000
0000100000
0000010100
0000100000
0000000100
0000001000
,
0000000110
0000001000
0000000001
0000010000
0000000101
0000010000
0000000010
0000010000
0000001100
0000100000
0000001000
0000100000
0000010100
0001000000
0000100000
0010000000
,
0000110000
0010000000
0001000000
0100000000
0011000000
0100000000
0010000000
1000000000
1010000000
0000000000
0000000000
0000000000
0000000000
0000000000
0000000000
0000000000
,
1001000000
0000000000
0000000000
0011000000
0000000000
0000000000
0001100000
0000000000
0000000000
0000000000
0000000000
0000000000
0000000000
0000000000
0000000000
0000000000
,
0001100000
0000001000
0000000000
0000101000
0000000100
0000000000
0000010100
0000000000
0000010010
0000000000
0000000000
0000000000
0000000000
0000000000
0000000000
0000000000
,
0000000000
0000000000
1100000000
0000000000
;
