#TITLE:Overtime;
#SUBTITLE:(Live Band Session);
#ARTIST:KNOWER;
#TITLETRANSLIT:;
#SUBTITLETRANSLIT:;
#ARTISTTRANSLIT:;
#GENRE:Funk;
#CREDIT:;
#BANNER:banner.png;
#BACKGROUND:bg.jpg;
#LYRICSPATH:;
#CDTITLE:CDTITLE.png;
#MUSIC:Overtime (Live Band Session).ogg;
#OFFSET:0.194;
#SAMPLESTART:42.231998;
#SAMPLELENGTH:12.000000;
#SELECTABLE:YES;
#BPMS:0.000000=143.000000
,29.000000=144.000000
,33.000000=143.000000
,40.000000=137.000000
,41.000000=142.000000
,45.000000=141.000000
,49.000000=142.000000
,53.000000=144.000000
,77.000000=142.000000
,80.000000=134.000000
,81.000000=143.000000
,85.000000=142.000000
,87.000000=141.000000
,88.000000=145.000000
,90.000000=140.000000
,93.000000=145.000000
,94.000000=143.000000
,95.000000=141.000000
,96.000000=143.000000
,100.000000=147.000000
,101.000000=141.000000
,103.000000=146.000000
,105.000000=144.000000
,106.000000=143.000000
,107.000000=142.000000
,109.000000=143.000000
,113.000000=141.000000
,117.000000=139.000000
,121.000000=143.000000
,129.000000=142.000000
,136.000000=144.000000
,137.000000=143.000000
,138.000000=141.000000
,140.000000=144.000000
,141.000000=143.000000
,142.000000=142.000000
,144.000000=143.000000
,145.000000=147.000000
,146.000000=143.000000
,147.000000=141.000000
,151.000000=144.000000
,152.000000=141.000000
,154.000000=139.000000
,155.000000=141.000000
,156.000000=148.000000
,157.000000=140.000000
,159.000000=141.000000
,160.000000=146.000000
,161.000000=143.000000
,163.000000=142.000000
,164.000000=145.000000
,165.000000=142.000000
,166.000000=143.000000
,167.000000=140.000000
,168.000000=146.000000
,169.000000=143.000000
,171.000000=138.000000
,172.000000=146.000000
,173.000000=145.000000
,174.000000=142.000000
,175.000000=141.000000
,176.000000=143.000000
,178.000000=140.000000
,180.000000=145.000000
,181.000000=137.000000
,183.000000=136.000000
,185.000000=142.000000
,193.000000=143.000000
,195.000000=144.000000
,196.000000=143.000000
,201.000000=145.000000
,204.000000=144.000000
,208.000000=149.000000
,209.000000=147.000000
,214.000000=140.000000
,215.000000=137.000000
,217.000000=143.000000
,220.000000=140.000000
,221.000000=150.000000
,222.000000=141.000000
,223.000000=143.000000
,224.000000=144.000000
,225.000000=147.000000
,226.000000=140.000000
,227.000000=141.000000
,228.000000=142.000000
,229.000000=143.000000
,232.000000=144.000000
,233.000000=143.000000
,234.000000=142.000000
,236.000000=146.000000
,237.000000=148.000000
,238.000000=145.000000
,242.000000=143.000000
,244.000000=141.000000
,245.000000=146.000000
,247.000000=131.000000
,248.000000=143.000000
,249.750000=142.000000
,253.000000=144.000000
,256.000000=145.000000
,258.000000=142.000000
,260.000000=140.000000
,261.000000=141.000000
,263.000000=147.000000
,264.000000=142.000000
,267.000000=144.000000
,268.000000=140.000000
,269.000000=144.000000
,270.000000=142.000000
,272.000000=144.000000
,274.000000=141.000000
,275.000000=142.000000
,276.000000=141.000000
,277.000000=142.000000
,279.000000=147.000000
,279.750000=138.000000
,282.000000=136.000000
,285.000000=137.000000
,288.000000=139.000000
,289.000000=132.000000
,290.000000=145.000000
,291.000000=140.000000
,292.000000=143.000000
,293.000000=144.000000
,294.000000=142.000000
,296.000000=143.000000
,297.000000=144.000000
,298.000000=142.000000
,300.000000=145.000000
,301.000000=142.000000
,302.750000=141.000000
,304.000000=144.000000
,305.000000=143.000000
,306.000000=142.000000
,308.000000=145.000000
,309.000000=139.000000
,310.000000=140.000000
,311.000000=144.000000
,311.750000=145.000000
,313.000000=142.000000
,313.750000=141.000000
,315.000000=140.000000
,316.000000=143.000000
,319.000000=151.000000
,320.000000=139.000000
,321.000000=138.000000
,322.000000=135.000000
,323.000000=142.000000
,323.750000=146.000000
,324.000000=148.000000
,325.000000=141.000000
,326.000000=144.000000
,327.000000=140.000000
,328.000000=144.000000
,329.000000=141.000000
,329.833344=139.000000
,331.000000=142.000000
,332.000000=143.000000
,333.000000=141.000000
,334.000000=140.000000
,335.000000=141.000000
,336.000000=146.000000
,337.000000=139.000000
,338.000000=140.000000
,339.000000=144.000000
,340.750000=142.000000
,341.000000=143.000000
,342.000000=142.000000
,344.000000=146.000000
,345.000000=141.000000
,347.000000=138.000000
,348.000000=146.000000
,349.000000=136.000000
,351.000000=138.000000
,352.000000=144.000000
,353.000000=140.000000
,354.000000=137.000000
,355.000000=136.000000
,357.000000=140.000000
,358.000000=139.000000
,360.000000=151.000000
,361.000000=143.000000
,362.000000=141.000000
,363.000000=140.000000
,366.000000=141.000000
,368.000000=140.000000
,369.000000=145.000000
,370.000000=144.000000
,371.000000=147.000000
,372.000000=146.000000
,373.000000=145.000000
,375.000000=146.000000
,376.000000=148.000000
,377.000000=144.000000
,379.000000=146.000000
,380.000000=148.000000
,382.000000=144.000000
,384.000000=138.000000
,385.000000=147.000000
,386.000000=138.000000
,387.000000=151.000000
,388.000000=150.000000
,389.000000=137.000000
,390.000000=134.000000
,391.000000=141.000000
,392.000000=139.000000
,393.000000=145.000000
,397.000000=143.000000
,398.000000=141.000000
,399.000000=142.000000
,401.000000=144.000000
,402.000000=142.000000
,404.000000=141.000000
,406.000000=140.000000
,407.000000=142.000000
,409.000000=144.000000
,410.000000=142.000000
,412.000000=141.000000
,413.000000=143.000000
,414.750000=144.000000
,418.000000=141.000000
,419.000000=146.000000
,420.000000=147.000000
,421.000000=140.000000
,422.000000=138.000000
,423.000000=134.000000
,424.000000=142.000000
,425.000000=151.000000
,426.000000=144.000000
,427.000000=155.000000
,428.000000=152.000000
,429.000000=147.000000
,431.000000=144.000000
,432.000000=150.000000
,433.000000=146.000000
,434.000000=145.000000
,435.000000=148.000000
,436.000000=146.000000
,437.000000=147.000000
,438.000000=146.000000
,439.000000=148.000000
,442.000000=146.000000
,445.000000=147.000000
,446.000000=146.000000
,448.000000=147.000000
,449.000000=151.000000
,450.000000=144.000000
,451.000000=147.000000
,453.000000=148.000000
,455.000000=139.000000
,456.000000=146.000000
,457.000000=151.000000
,458.000000=147.000000
,459.000000=152.000000
,460.000000=146.000000
,462.000000=144.000000
,463.000000=149.000000
,464.000000=148.000000
,465.000000=149.000000
,467.000000=150.000000
,468.000000=145.000000
,469.000000=150.000000
,472.000000=147.000000
,473.000000=149.000000
,474.000000=147.000000
,475.000000=149.000000
,476.000000=148.000000
,479.000000=152.000000
,480.000000=151.000000
,482.000000=148.000000
,483.000000=147.000000
,484.000000=149.000000
,485.000000=152.000000
,486.000000=161.000000
,487.000000=135.000000
,489.000000=137.000000
,490.000000=146.000000
,492.000000=153.000000
,493.000000=149.000000
,494.000000=147.000000
,495.000000=145.000000
,496.000000=150.000000
,499.000000=146.000000
,500.000000=152.000000
,502.000000=145.000000
,506.000000=147.000000
,507.000000=148.000000
,508.000000=153.000000
,510.000000=144.000000
,512.000000=148.000000
,513.000000=149.000000
,514.000000=150.000000
,515.000000=146.000000
,516.000000=160.000000
,517.000000=149.000000
,518.000000=146.000000
,519.000000=152.000000
,521.000000=148.000000
,522.000000=149.000000
,523.000000=147.000000
,524.000000=144.000000
,526.000000=137.000000
,527.000000=148.000000
,528.000000=163.000000
,529.000000=234.000000
,533.000000=161.000000
,536.000000=152.000000
,537.000000=154.000000
,539.000000=156.000000
,540.000000=155.000000
,541.000000=160.000000
,542.000000=155.000000
,545.000000=154.000000
,547.000000=159.000000
,548.000000=154.000000
,551.000000=150.000000
,552.000000=153.000000
,553.000000=156.000000
,554.000000=155.000000
,556.000000=151.000000
,557.000000=157.000000
,558.000000=151.000000
,559.000000=160.000000
,560.000000=153.000000
,564.000000=149.000000
,565.000000=151.000000
,566.000000=154.000000
,567.000000=156.000000
,568.000000=152.000000
,569.000000=153.000000
,570.000000=151.000000
,572.000000=154.000000
,573.000000=156.000000
,574.000000=151.000000
,575.000000=153.000000
,577.000000=154.000000
,578.000000=150.000000
,579.000000=151.000000
,580.000000=155.000000
,582.000000=148.000000
,583.000000=150.000000
,584.000000=153.000000
,585.000000=157.000000
,586.000000=152.000000
,587.000000=156.000000
,589.000000=150.000000
,591.000000=151.000000
,592.000000=153.000000
,593.000000=155.000000
,596.000000=152.000000
,597.000000=151.000000
,599.000000=154.000000
,600.000000=149.000000
,601.000000=153.000000
,602.000000=151.000000
,603.000000=156.000000
,605.000000=154.000000
,605.750000=152.000000
,608.000000=148.000000
,609.000000=156.000000
,610.000000=151.000000
,611.000000=156.000000
,612.000000=155.000000
,613.000000=153.000000
,615.000000=148.000000
,616.000000=152.000000
,617.000000=154.000000
,618.000000=156.000000
,619.000000=159.000000
,620.000000=157.000000
,621.000000=155.000000
,622.000000=153.000000
,624.000000=151.000000
,625.000000=152.000000
,626.000000=157.000000
,628.000000=153.000000
,628.750000=155.000000
,629.000000=156.000000
,630.000000=161.000000
,631.000000=162.000000
,632.000000=155.000000
,633.000000=160.000000
,634.000000=157.000000
,635.000000=156.000000
,637.000000=157.000000
,640.000000=156.000000
,642.000000=155.000000
,644.000000=153.000000
,645.000000=156.000000
,648.000000=155.000000
,649.000000=157.000000
,651.000000=152.000000
,652.000000=148.000000
,653.000000=157.000000
,656.000000=144.000000
,657.000000=153.000000
,658.000000=154.000000
,659.000000=155.000000
,660.000000=144.000000
,661.000000=139.000000
,662.000000=151.000000
,663.000000=149.000000
;
#STOPS:
;
#BGCHANGES:0.500=Overtime (Live Band Session).mp4=1.000=0=0=1=====,
99999=-nosongbg-=1.000=0=0=0 // don't automatically add -songbackground-
;
#KEYSOUNDS:;
#ATTACKS:;

//---------------dance-single - (fuck it just cmod it)----------------
#NOTES:
     dance-single:
     CND9 (fuck it just cmod it):
     Challenge:
     14:
     0.955270,1.424264,0.349688,0.463872,1.457627,1874.000000,1776.000000,98.000000,130.000000,20.000000,0.000000,0.955270,1.424264,0.349688,0.463872,1.457627,1874.000000,1776.000000,98.000000,130.000000,20.000000,0.000000:
// measure 0
0000
0000
0000
0000
,  // measure 1
0000
0000
0000
0000
,  // measure 2
0000
0000
0000
0000
,  // measure 3
0000
0000
0000
0000
,  // measure 4
0000
0000
0000
0000
1001
0000
0000
0001
0000
0000
1000
0000
0000
1000
0000
0000
,  // measure 5
0010
0000
0000
0010
0000
0000
0100
0000
0000
2000
0000
0000
0000
0000
0100
3000
,  // measure 6
0000
0001
0000
0000
0010
0000
0000
0010
0000
0000
1000
0000
0000
1000
0000
0000
,  // measure 7
0001
0000
0000
0001
0000
0000
0100
0000
0000
0200
0000
0000
0000
0000
1300
0000
,  // measure 8
0000
0001
0000
0000
1010
0000
0000
1000
0000
0000
0100
0000
0000
0100
0000
0000
,  // measure 9
0001
0000
0000
0100
0000
0000
1000
0000
0000
2000
0000
0000
0000
0000
0001
3000
,  // measure 10
0000
0010
0000
0000
0011
0000
0000
0010
0000
0000
0100
0000
0000
0100
0000
0000
,  // measure 11
0001
0000
0000
0001
0000
0000
0100
0000
0000
0100
0000
0000
2000
0000
0000
0000
,  // measure 12
0000
0000
3000
0000
1001
0000
1000
0100
1000
0000
0001
0100
0001
0000
1000
0010
,  // measure 13
1000
0000
0001
0010
0001
0000
1000
0010
0100
0000
0001
0100
0010
0000
1000
0001
,  // measure 14
0010
0000
0001
0100
0110
0000
0010
0100
0010
0000
1000
0010
1000
0000
0001
0010
,  // measure 15
0001
0000
1000
0100
0010
0000
0010
0100
1000
0000
0001
0010
0100
0000
0011
0000
,  // measure 16
0000
1100
0000
0000
1001
0000
1000
0001
0100
0000
0001
0100
0010
0000
1000
0010
,  // measure 17
0100
0000
0010
0100
0001
0000
0100
0010
1000
0000
0100
0010
0001
0000
0010
0100
,  // measure 18
1000
0000
0001
1000
1100
0000
1000
0100
0001
0000
0001
0100
1000
0000
1000
0010
,  // measure 19
0001
0000
0001
0010
1000
0000
0000
0000
0000
0000
0000
0000
0000
0000
0000
0000
,  // measure 20
1001
0000
0000
0000
1000
0100
0010
0100
1000
0010
1000
0010
1000
0100
0010
0100
,  // measure 21
1000
0100
0010
0001
0010
0100
0010
0001
0010
0100
0010
0001
0000
0000
0011
0000
,  // measure 22
0220
0000
0000
0330
0010
0001
0100
0010
1000
0100
0010
0001
0100
0010
1000
0100
,  // measure 23
0010
0001
0010
1000
0010
0001
0100
0010
1000
0010
0100
0001
0000
0000
1001
0000
,  // measure 24
1001
0000
0000
0000
1000
0010
0100
0010
1000
0010
0100
0001
0010
0100
1000
0100
,  // measure 25
0010
0100
1000
0100
1000
0001
0010
0100
1000
0010
0100
0010
1000
0001
0010
0001
,  // measure 26
0100
0010
1000
0001
0010
0100
0010
0001
1000
0010
0100
0010
0100
0010
1000
0001
,  // measure 27
0010
0100
1000
0010
0001
0010
1000
0010
0100
0001
0010
0001
0100
0001
0010
0100
,  // measure 28
1000
0100
0010
0000
0011
0000
0000
0000
0000
0000
0000
0000
0000
0000
0000
0000
,  // measure 29
0000
0000
0000
0000
0000
0000
1001
0000
0000
0000
0000
0000
0000
0000
0000
0000
0000
0000
0000
0000
0000
1000
0100
0000
,  // measure 30
0000
0000
0000
0001
0010
0000
0000
0000
0000
0000
0000
0000
1100
0000
0000
0000
0000
0000
0100
0000
0000
0010
0000
0000
0001
0000
0000
0000
0000
0000
0001
0000
0000
0000
0000
0000
0022
0000
0000
0000
0000
0000
0033
0000
0000
0011
0000
0000
,  // measure 31
0000
0000
0000
0000
0101
0000
0100
0010
1000
0000
1000
0000
2020
0000
3030
1010
,  // measure 32
0000
0000
0000
0000
1100
0000
1000
0010
0100
0000
0100
0000
0202
0000
0303
0101
,  // measure 33
0001
0000
1000
0001
1001
0000
1000
0010
0100
0000
0100
0000
0220
0000
0330
0110
,  // measure 34
1000
0010
0100
0001
0202
0000
0000
0303
0001
0010
0001
0100
0020
0000
0030
0010
,  // measure 35
0000
1000
0010
0000
1000
0100
0010
0100
1000
0000
0100
0000
0001
0000
0000
0100
,  // measure 36
1000
0001
1000
0001
0101
0000
0000
0001
0011
0000
0100
0000
1000
0000
0000
1000
,  // measure 37
0100
0000
0000
0010
0000
0000
0100
0000
0000
0010
0000
0000
0011
0000
0000
0000
0000
0000
0000
0000
0000
0000
0000
0000
0000
0000
0000
0000
0000
0000
0000
0000
0000
0000
0000
0000
0000
0000
0000
0000
0000
0000
1000
0000
0010
0000
0000
0000
,  // measure 38
0000
0000
0000
0001
0100
0000
0000
0000
0000
0000
0000
0000
0110
0000
0000
0000
0000
0000
1000
0000
0000
0100
0000
0000
0010
0000
0000
0001
0000
0000
0010
0000
0000
0100
0000
0000
2000
0000
0000
0000
0000
0000
0000
0000
0000
3002
0000
0000
,  // measure 39
0100
0000
0013
0000
0011
0000
0010
0001
1000
0100
1000
0010
2000
0000
0000
3200
,  // measure 40
0001
0000
0010
0300
0110
0000
0100
0010
0001
0010
0100
0010
0002
0000
0000
0203
,  // measure 41
0001
0000
1000
0300
0101
0000
0001
1000
0010
0100
0001
0100
0020
0000
0000
2030
,  // measure 42
0100
0000
3100
0000
1100
0000
0100
0010
0100
1000
0001
0010
0100
0010
0001
0100
,  // measure 43
0010
0000
0000
0000
1010
0000
1000
0001
0100
0010
1000
0001
1000
0100
0010
0001
,  // measure 44
0100
0000
0000
0000
0110
0000
0010
0001
1000
0010
0100
0010
1000
0001
0100
0001
,  // measure 45
1000
0010
0100
0001
0202
0000
0000
0300
0100
0000
0000
0000
0100
0000
0000
0000
,  // measure 46
0103
0000
0000
0000
1100
0000
0000
1000
0000
0000
0010
0000
0000
0010
0000
0000
,  // measure 47
0001
0000
0000
0010
0000
0000
1000
0000
0000
0100
0000
0000
0000
0000
0010
0000
,  // measure 48
0000
0001
0000
0000
0011
0000
0000
0001
0000
0000
0010
0000
0000
0010
0000
0000
,  // measure 49
0100
0000
0000
1000
0000
0000
0100
0000
0000
0001
0000
0000
0000
0000
0100
0000
,  // measure 50
0000
1000
0000
0000
1001
0000
1000
0010
1000
0000
0001
0010
0001
0000
1000
0100
,  // measure 51
0010
0000
0001
0010
0100
0000
1000
0010
0100
0000
0001
0100
0010
0000
1000
0010
,  // measure 52
1000
0000
0001
1000
1001
0000
1000
0010
0100
0000
0100
0010
0001
0000
0001
0010
,  // measure 53
1000
0000
0001
1000
0001
0000
0000
0000
2000
0000
0100
3000
0020
0000
0100
0030
,  // measure 54
0002
0000
0100
0003
0110
0100
0010
1000
0010
0100
0001
0010
0001
1000
0100
0010
,  // measure 55
0001
0010
0100
0010
0001
0010
0100
1000
0001
0100
0010
0100
0001
1000
0002
0000
,  // measure 56
0200
0000
0000
0303
0101
0100
0010
1000
0100
0010
0001
0010
0100
1000
0010
0100
,  // measure 57
0001
0010
0001
0100
0010
0100
0001
0010
0100
1000
0010
1000
0001
0100
0001
0010
,  // measure 58
0100
0010
0100
1000
1100
0100
0010
0001
0100
0010
0001
0010
1000
0010
0100
0001
,  // measure 59
0010
0100
1000
0001
0000
0001
0000
0010
0000
0010
0100
0001
0100
1000
0100
0010
,  // measure 60
0001
1000
0100
0010
0001
0100
0010
1000
0001
0010
0001
1000
0100
0010
0100
1000
,  // measure 61
0010
1000
0001
1000
0100
0010
0011
0000
0002
2000
0000
0000
0000
0000
0000
0000
,  // measure 62
3003
0000
0000
1000
0100
0010
0100
0010
0001
0010
0100
0010
0001
0010
0100
0010
,  // measure 63
0001
0010
0100
0010
0001
0010
0001
0010
0001
0100
0001
0100
0010
1000
0010
1000
,  // measure 64
0100
0010
0200
0000
0300
0000
0000
0000
0000
0010
0001
1000
0100
0010
0100
0010
,  // measure 65
1000
0010
0100
1000
1000
0100
0010
0001
1000
0100
0010
0001
0010
0001
0100
0001
,  // measure 66
0010
0100
1000
0010
0010
0100
0100
0010
0200
0000
0000
0000
0000
0000
0000
0300
,  // measure 67
0001
0100
0001
0200
0000
0300
0010
1000
0010
2000
0000
3000
0001
0100
0001
0200
0000
0300
0001
0100
0010
2000
0000
3000
,  // measure 68
1000
0000
0100
0000
0010
0000
0002
0000
0000
0000
0000
0000
0000
0000
0003
0000
1000
0000
0010
0000
0100
0000
0001
0000
1000
0000
0000
0100
0000
0000
0010
0000
0000
0001
0000
0000
0010
0000
0001
0000
0010
0000
0001
0000
0100
0000
0001
0000
,  // measure 69
0100
0000
0000
0000
0000
0000
0000
0000
0001
0000
0000
0000
0000
0000
0000
0000
0100
0000
0000
0000
0000
0000
0000
0000
0010
0000
0000
0000
0000
0000
0000
0000
0100
0000
0000
0000
0000
0000
0000
0000
0010
0000
0000
0000
0000
0000
0000
0000
1000
0000
0000
0000
0000
0000
0000
0000
0010
0000
0000
0000
0000
0000
0000
0000
1000
0000
0000
0000
0000
0000
0000
0000
0010
0000
0000
0000
0000
0000
0000
0000
1000
0000
0000
0000
0000
0000
0000
0000
0100
0000
0000
0000
0000
0000
0000
0000
1000
0000
0000
0000
0000
0000
0000
0000
0100
0000
0000
0000
0000
0000
0000
0000
1000
0000
0000
0000
0000
0000
0000
0000
0001
0000
0000
0000
0000
0000
0000
0000
1000
0000
0000
0000
0000
0000
0000
0000
0001
0000
0000
0000
0000
0000
0000
0000
1000
0000
0000
0000
0000
0000
0000
0000
0010
0000
0000
0000
0000
0000
0000
0000
0100
0000
0000
0000
0000
0000
0000
0000
0001
0000
0000
0000
0000
0000
0010
0000
0000
0000
0000
0000
0001
0000
0000
0000
0000
0000
0010
0000
0000
0000
0000
0000
,  // measure 70
0001
0020
0032
0023
0032
0023
0032
0023
0031
0000
0000
0000
0000
0000
0000
0000
0000
0000
0000
0000
0000
0000
0000
0000
0000
0000
0000
0000
0000
0000
0000
0000
,  // measure 71
0000
0000
0000
0000
0000
0000
0000
0000
0000
0000
0000
0000
1MM1
0MM0
0MM0
0MM0
0MM0
0MM0
0MM0
0000
0000
0000
0MM0
0000
0000
0000
0000
0000
0000
0000
0000
0000
0000
0000
0000
0000
0000
0000
0000
0000
0000
0000
1000
0000
0001
0000
0000
0000
,  // measure 72
0000
0000
0000
0001
1000
0000
0000
0000
0000
0000
0000
0000
1010
0000
0000
0000
0000
0000
0010
0000
0000
0100
0000
0000
0001
0000
0000
0000
0000
0000
0100
0000
0000
0000
0000
0000
2000
0000
0000
0000
0000
0000
3000
0000
0000
0000
0000
0000
,  // measure 73
0100
0000
0000
0000
0101
0000
0001
0010
0100
0000
0001
0000
0200
0000
0300
1000
,  // measure 74
0000
0000
0010
0000
0110
0000
0100
0000
0010
0000
1000
0010
0000
1000
0010
0100
,  // measure 75
0001
0000
0000
0001
0000
0010
0100
0000
0000
1000
0000
0000
0010
0000
0000
1000
0000
0000
2000
0000
0000
3000
0000
0000
,  // measure 76
1001
1000
0010
0001
0020
0000
0000
1030
0100
0000
0010
0000
0002
0000
0003
0000
,  // measure 77
0101
0100
0000
0000
1010
0000
1000
0000
0010
1000
0100
0010
0001
0000
0001
0000
,  // measure 78
1000
0100
0010
0001
0002
0000
0013
0100
1000
0000
1000
0000
0020
0100
0030
0010
,  // measure 79
0000
0000
0000
1000
0000
0000
0000
0000
0000
0001
0000
0000
0011
0000
0000
0000
0000
0000
0000
0000
0000
0000
0000
0000
0000
0000
0000
0000
0000
0000
0000
0000
0000
0000
0000
0000
0000
0000
0000
0000
0000
0000
1000
0000
0100
0000
0000
0000
,  // measure 80
0000
0000
0000
0000
0000
0010
0000
0000
0001
0000
0000
0000
0000
0000
0000
0000
2020
0000
0000
0000
0000
0000
0000
0000
0000
0000
0000
0000
0030
0000
0000
0000
3010
0000
0000
0000
0000
0000
0000
0000
0100
0000
0000
0000
0010
0000
0000
0000
1000
0000
0000
0000
0010
0000
0000
0000
1000
0000
0000
0000
0001
0000
0000
0000
,  // measure 81
1000
0010
0100
0001
0001
0010
0010
0100
0000
1000
0100
0010
0001
0010
0100
0010
,  // measure 82
0100
1000
0100
1000
1010
0000
1000
0000
1001
0000
0100
0000
0002
0000
0003
0001
,  // measure 83
0010
0001
0100
0010
1000
0100
0010
0100
2000
3000
1000
0000
2000
0000
3100
1000
,  // measure 84
0010
0000
0010
0000
2002
0000
3003
1000
0100
0000
0100
0000
1000
0100
0000
1000
,  // measure 85
0000
0010
0000
0001
0000
0010
1000
0000
0010
0100
0010
1000
0100
0010
0001
0100
,  // measure 86
0101
0000
0001
0000
0022
0000
0033
0000
0001
0000
0001
0000
0200
0000
0310
1000
,  // measure 87
0100
0010
0002
0000
1000
0000
0000
0000
1000
0000
0000
0000
1000
0000
0000
0000
,  // measure 88
0010
0000
0000
0003
1000
0000
0000
0000
0010
0000
0000
0000
0001
0000
0000
0000
0000
0000
0000
0000
0000
0001
0000
0000
0000
0000
0000
0000
0000
0000
0100
0000
0000
0000
0000
0000
0000
0000
0000
1000
0000
0000
0000
0000
0000
0000
0000
0000
,  // measure 89
0100
0000
0000
0100
0000
0000
0010
0000
0000
0010
0000
0000
0000
0000
0001
0000
,  // measure 90
0000
0010
0000
0000
1000
0000
0000
0100
0000
0000
0010
0000
0000
0100
0000
0000
,  // measure 91
1000
0000
0000
0010
0000
0000
0001
0000
0000
0010
0000
0000
0000
0000
0001
0000
,  // measure 92
0000
0010
0000
0000
1001
0000
1000
0100
1000
0000
1000
0010
1000
0000
1000
0001
,  // measure 93
1000
0000
0001
1000
0001
0000
0001
0100
0001
0000
0001
0010
0001
0000
1000
0010
,  // measure 94
0100
0000
0001
0100
0010
0000
1000
0010
0001
0000
0001
0010
1000
0000
1000
0100
,  // measure 95
0001
0000
0001
0100
1000
0000
1000
0001
0020
0000
0130
0000
2000
0000
3010
0000
,  // measure 96
1001
0000
0000
0000
0000
0000
1000
0010
1000
0010
0100
0001
0100
0001
1000
0010
1000
0010
1000
0100
0010
0001
0010
0100
,  // measure 97
1000
0010
0000
0000
0000
0100
0001
0000
0000
0000
0000
0000
2000
0000
0000
3100
0000
0000
0020
0000
0000
0130
0000
0000
,  // measure 98
0002
0000
0103
0000
0010
0100
0010
0100
0001
0010
0001
0010
0001
0100
0010
0100
,  // measure 99
0001
0100
0010
0100
0001
0100
0010
1000
0010
1000
0001
0010
0000
0000
1010
0000
,  // measure 100
0220
0000
0000
0330
0010
1000
0100
0010
0001
0100
0010
1000
0100
0010
0001
0100
,  // measure 101
0010
1000
0100
1000
0010
1000
0100
0010
0001
0010
0100
1000
0000
0000
1010
0000
,  // measure 102
0011
0000
0000
0000
0010
0001
0100
0001
0100
0010
1000
0001
0010
0100
1000
0001
,  // measure 103
0010
0001
1000
0100
0010
0100
1000
0001
0100
0010
0100
0010
1000
0001
0100
0001
,  // measure 104
0100
0001
0100
0001
0010
0100
1000
0100
1000
0001
0100
0001
0010
0100
1000
0010
,  // measure 105
1000
0100
1000
0100
0010
0001
0011
0000
0001
2002
0000
0000
0000
0000
0000
3003
,  // measure 106
MMMM
0000
0000
0000
0000
0000
2020
0000
0000
0000
0000
0000
0000
0000
0000
3000
0000
0000
1030
0010
1000
0010
1000
0000
,  // measure 107
0002
0000
0000
0000
0000
0000
0013
0100
0010
0001
0010
0001
0100
0002
0000
0003
,  // measure 108
0000
0000
0000
0000
0000
0000
1000
0100
0010
0001
0001
0100
0010
0010
1000
0100
,  // measure 109
0100
1000
0100
0010
0001
0010
0001
0100
0001
0010
0001
1000
0001
0010
0100
1000
,  // measure 110
0001
0010
0001
0100
0020
0000
0000
0000
0030
0000
1000
0010
0002
0000
0013
0000
,  // measure 111
1000
0100
0010
0001
1000
0010
0100
0001
1000
0001
0010
0100
1000
0001
1000
0001
,  // measure 112
1000
0000
0000
0010
0000
0000
2000
0000
0000
0000
0000
0000
0000
0000
0000
3000
0000
0000
1000
0000
0001
0000
1000
0000
0001
0000
1000
0000
0100
0000
1000
0000
0100
0000
1000
0000
0010
0000
1000
0000
0010
0000
1000
0000
0000
0100
0000
0000
,  // measure 113
0010
0001
0000
0000
0000
0000
1000
0100
0001
0100
1000
0100
0001
0100
0001
0100
,  // measure 114
1000
0100
1000
0100
1000
0100
0020
0030
0002
0000
0000
0200
0303
0000
0000
0000
,  // measure 115
0000
0000
0010
0001
0100
0001
0010
0000
0000
0000
0000
0000
0010
0010
0001
0000
,  // measure 116
0000
0000
0000
0020
0000
0000
0000
0000
,  // measure 117
0000
0000
0130
0010
0001
0100
0001
0100
0010
1000
0010
1000
0001
0100
0001
0010
,  // measure 118
0001
0100
0010
1000
0010
0100
0010
0100
0010
1000
0010
1000
0001
0010
0000
0000
,  // measure 119
0000
0000
0000
0000
0000
0000
0001
0000
0000
0100
0000
0000
0010
0000
1000
0000
0001
0000
1000
0000
0001
0000
1000
0000
0010
0000
1000
0000
0010
0000
1000
0000
0100
0000
1000
0000
0100
0000
0000
1000
0100
0000
1000
0000
0000
0001
0000
0000
,  // measure 120
0010
0100
1000
0100
1000
0100
0010
0001
1000
0100
0010
0001
0010
0001
0010
0001
,  // measure 121
1000
0000
0001
0000
1000
0000
0001
0000
1000
0000
0000
0000
1001
0000
0000
0000
0000
0000
1001
0000
0000
0000
0000
0000
1000
0000
0000
0100
0000
0000
0010
0000
0000
0001
0000
0000
0010
0000
0001
0000
0010
0000
0001
0000
0010
0000
0100
0000
,  // measure 122
1000
0200
0000
0000
0000
0000
0000
0000
0000
0000
0000
0000
0302
0000
0000
0000
0000
0000
0000
0000
0000
0000
0000
0000
,  // measure 123
0000
0000
0000
0000
0000
0000
0000
0000
0000
0000
0000
0000
0000
0000
0000
0000
0000
0000
0000
0000
1000
0003
0000
0000
0010
0000
0000
0000
0001
0000
0000
0000
0010
0000
0000
0000
0001
0000
0000
0000
0010
0000
0000
0000
0100
0000
0000
0000
,  // measure 124
0010
0100
1000
0100
0001
0100
1000
0010
0001
0010
1000
0000
,  // measure 125
0001
0010
0001
0000
1000
0001
0000
1000
0100
0000
0100
0010
,  // measure 126
0100
0000
1000
0000
0000
0000
1000
0000
0100
0000
0010
0000
0001
0010
0001
0010
0001
0000
0010
0000
0100
0000
2000
0000
,  // measure 127
0000
0000
0000
0000
0000
0000
3010
0000
1000
0000
0100
0000
0010
0000
0000
0000
0000
0000
0001
0010
0100
0000
0001
1000
,  // measure 128
0001
0000
1000
0100
0010
0000
1000
0100
0010
0001
0010
0100
1000
0000
0001
0100
0010
0000
1000
0010
0100
0000
0001
0010
,  // measure 129
0001
0000
1000
0000
0100
0000
0010
0000
0001
0000
0100
0000
0001
0010
0001
0000
0100
0000
0010
1000
0010
0000
0100
0010
,  // measure 130
1000
0100
0010
0000
0001
0000
0010
0001
0100
0000
0010
1000
0100
1000
0010
0100
0001
0010
0001
1000
0100
1000
0100
0000
,  // measure 131
0000
0000
0000
0000
0000
0000
0020
0000
0000
0000
0000
0000
0000
0000
0000
0000
0000
0000
0000
0000
0000
0000
0000
0000
0000
0000
0000
0000
0000
0000
0030
0000
0000
0000
0000
0000
0100
0000
0000
0000
0000
0000
0010
0000
0000
0000
0000
0000
0001
0000
0000
0000
0000
0000
0000
0000
0000
0000
0000
0000
0000
0000
0000
0000
0001
0000
0000
0000
0000
0000
0000
0000
0010
0000
0000
0000
0000
0000
0000
0000
0001
0000
0000
0000
0000
0000
0000
0000
0010
0000
0000
0000
0000
0000
0000
0000
0001
0000
0000
0000
0000
0000
0000
0000
0010
0000
0000
0000
0000
0000
0000
0000
0002
0000
0000
0000
0000
0000
0000
0000
0000
0000
0000
0000
0000
0000
0000
0000
0000
0000
0000
0000
0000
0000
0000
0000
0000
0000
0000
0000
0000
0000
0000
0000
0000
0000
0000
0000
0000
0000
0000
0000
0003
0000
0000
0000
0000
0000
0000
0000
0000
0000
0000
0000
0000
0000
0000
0000
0000
0000
0000
0000
0000
0000
0001
0000
0000
0000
0000
0000
0100
0000
0000
0000
0000
0000
0001
0000
0000
0000
0000
0000
,  // measure 132
0100
0000
0010
0000
0000
1000
0010
1000
0040
0000
4000
0000
0000
0000
0000
0000
0000
0000
0000
0000
0000
0000
0000
0000
0000
0000
0000
0000
0000
0000
0000
0000
,  // measure 133
0000
3030
0000
0000
0020
0002
0000
0000
,  // measure 134
0000
0000
0000
0000
0000
0033
0010
1000
0001
0010
0001
0010
0100
1000
0010
0100
,  // measure 135
0001
0010
0100
1000
0010
0001
0010
1000
0100
0010
0100
1000
0001
0010
0001
0100
,  // measure 136
0001
1000
0100
0010
0001
0010
0002
0000
0000
1003
0100
0010
0001
1000
0200
0000
,  // measure 137
1300
0001
0100
0000
0001
0010
0000
0001
1000
0100
0010
0001
1000
0001
0010
0100
,  // measure 138
0010
0100
1000
0001
0100
0001
0001
0010
0001
0001
1000
0100
0010
0100
0010
0001
,  // measure 139
1000
0100
1000
0100
0010
0001
0010
0001
1000
0010
0100
0001
0100
0010
1000
0100
,  // measure 140
0010
0100
0010
0001
0020
0000
0031
0010
0100
1000
0001
1000
0001
0010
0001
0100
,  // measure 141
0001
0001
1000
1000
1001
0000
0000
0000
0002
0000
0000
0000
0023
0000
0000
0000
,  // measure 142
0032
0000
2003
0000
3020
0230
0320
0032
,  // measure 143
0023
0000
0000
0000
0130
0010
0100
0001
0010
0100
1000
0010
0100
0010
1000
0100
,  // measure 144
0010
0001
0010
0100
1000
0001
1000
0010
1000
0001
1000
0001
0010
0100
1000
0010
,  // measure 145
0100
0001
0100
0001
1001
0000
0000
0000
0002
0000
0000
0000
0023
0000
0000
0000
,  // measure 146
0032
0000
2003
0000
3200
0302
0203
2300
,  // measure 147
3020
0000
0000
0000
0130
0001
0100
0100
0010
1000
0010
1000
1000
0001
0010
0001
,  // measure 148
0100
0001
0010
0001
1000
0010
0100
0001
1001
0000
1010
0000
1100
0000
1001
0000
,  // measure 149
0110
0000
0110
0000
1002
0003
2001
0000
3001
0010
0001
1000
0100
1000
0001
0100
,  // measure 150
0010
1000
0010
0100
0010
1000
0001
1000
0100
0010
0001
0100
0010
1000
0010
0100
,  // measure 151
0010
1000
0100
0010
0001
0010
0001
0010
0001
0010
0100
0010
0100
0010
0100
0010
,  // measure 152
0100
1000
0100
1000
0100
0010
0001
1000
0001
0100
0001
0010
0001
0010
0100
0010
,  // measure 153
0001
1000
0001
1000
1000
0010
1000
0010
0010
0100
0001
0010
0100
0010
0001
1000
,  // measure 154
0100
0010
0100
1000
0100
1000
0010
0100
0001
0010
0100
0010
0001
0100
0001
0010
,  // measure 155
0001
0010
0100
1000
2020
0000
3030
2020
0000
3030
0220
0000
0330
0220
0000
0330
,  // measure 156
0202
0000
0303
0202
0000
0303
1001
0000
1001
0000
1001
0000
1001
0000
1001
0000
,  // measure 157
1001
0000
0000
0000
1000
0010
1000
0000
0001
0010
0001
0000
1000
0010
1000
0000
,  // measure 158
0001
0010
0001
0000
1000
0100
1000
0000
0001
0100
0001
0000
1000
0100
1000
0000
,  // measure 159
0001
0100
0001
0000
1000
0100
0001
0000
0001
0100
1000
0000
1000
0100
0001
0000
,  // measure 160
0001
0100
1000
0000
1000
0010
0001
0000
0001
0010
1000
0000
1000
0010
0001
0000
,  // measure 161
0001
0010
1000
0000
1000
0100
0010
0000
0001
0010
0100
0000
1000
0100
0010
0000
,  // measure 162
0001
0010
0100
0000
1000
0010
0100
0000
0001
0100
0010
0000
1000
0010
0100
0000
,  // measure 163
0001
0100
0010
0000
1100
0100
0000
0000
0000
0000
0101
0100
0000
0000
0000
0000
,  // measure 164
0011
0001
0000
0000
1000
0100
1000
0010
0001
0010
1000
0100
0010
0010
0001
0010
,  // measure 165
0100
0100
1000
0100
0010
0010
1000
0010
0001
0100
0020
0000
1030
0100
0010
0002
,  // measure 166
0000
0000
0000
0000
0000
0003
0000
0000
0000
0000
0000
0000
0000
0000
0000
0000
;
