#VERSION:0.83;
#TITLE:おにいちゃんハイテック;
#SUBTITLE:;
#ARTIST:立秋 feat.ちょこ;
#TITLETRANSLIT:;
#SUBTITLETRANSLIT:Oniichan Hi-Tech;
#ARTISTTRANSLIT:Risshu feat. Choko;
#GENRE:HI-TECH FULL ON;
#ORIGIN:;
#CREDIT:;
#BANNER:banner.png;
#BACKGROUND:bg.png;
#PREVIEWVID:;
#JACKET:jacket.png;
#CDIMAGE:;
#DISCIMAGE:;
#LYRICSPATH:;
#CDTITLE:CDTITLE.png;
#MUSIC:Oniichan Hi-Tech.ogg;
#OFFSET:0.744000;
#SAMPLESTART:55.542999;
#SAMPLELENGTH:13.000000;
#SELECTABLE:YES;
#DISPLAYBPM:150.000000;
#BPMS:0.000=150.000;
#STOPS:;
#DELAYS:;
#WARPS:;
#TIMESIGNATURES:0.000=4=4;
#TICKCOUNTS:0.000=4;
#COMBOS:0.000=1;
#SPEEDS:0.000=1.000=0.000=0;
#SCROLLS:0.000=1.000;
#FAKES:;
#LABELS:0.000=Song Start;
#BGCHANGES:;
#KEYSOUNDS:;
#ATTACKS:
;

//---------------dance-single - CND9----------------
#NOTEDATA:;
#CHARTNAME:Oniichan Mash-Tech;
#STEPSTYPE:dance-single;
#DESCRIPTION:Secret Simfile Santa 2017;
#CHARTSTYLE:;
#DIFFICULTY:Challenge;
#METER:11;
#RADARVALUES:0.863790,1.052680,0.546373,1.019897,1.024450,664.000000,604.000000,60.000000,112.000000,88.000000,5.000000,4.000000,0.000000,0.000000,0.863790,1.052680,0.546373,1.019897,1.024450,664.000000,604.000000,60.000000,112.000000,88.000000,5.000000,4.000000,0.000000,0.000000;
#CREDIT:CND9;
#DISPLAYBPM:150.000000;
#NOTES:
// measure 0
0000
0000
0000
0000
MMMM
0000
M000
000M
,  // measure 1
M00M
0000
0000
0000
0000
0000
0000
0000
0MM0
0000
0000
0000
0000
0000
0000
0000
M000
0M00
00M0
000M
0000
0000
0000
0000
000M
00M0
0M00
M000
0000
0000
0000
0000
,  // measure 2
1000
0010
0001
0010
2000
3200
2300
3200
2300
0000
0100
0000
0001
0000
0010
3000
,  // measure 3
1000
0100
0010
0001
0000
0000
0200
0000
0000
0000
0300
0000
1001
0000
0000
0000
0000
0000
1000
0000
0000
0000
0000
0000
,  // measure 4
0001
0010
0100
1000
0001
0010
1000
0010
0002
0000
0010
0000
0100
0000
1000
0000
,  // measure 5
1003
0000
0010
0000
1000
0000
0010
0000
0000
0000
0000
0000
0110
0000
0000
0000
0000
0000
0000
0000
0000
0010
0000
0000
0010
0000
0000
1000
0000
0000
0010
0000
0000
0100
0000
0000
0001
0000
0000
0010
0000
0000
0001
0000
0000
1000
0000
0000
,  // measure 6
0100
0010
0001
0010
0100
0010
0001
0000
0210
0000
0000
0000
1300
0000
0000
0000
,  // measure 7
1000
0000
0001
0000
1000
0000
0001
0000
0000
0000
0000
0000
0202
0000
0000
0000
0000
0000
0000
0000
0000
0300
0000
0000
2003
0000
0000
0000
0000
0000
0010
0000
0000
0000
0000
0000
3001
0000
0000
0010
0000
0000
0100
0000
0000
0000
0000
0000
,  // measure 8
2200
0000
0000
3300
1000
0010
0001
0010
0020
0000
0000
0000
2230
0000
0000
3300
,  // measure 9
1000
0000
0010
0000
1000
0000
0010
0000
0000
0000
0000
0000
2002
0000
0000
0000
0000
0000
0000
0000
0000
3003
0000
0000
0004
0000
0000
0000
0000
0000
0003
0000
0000
0004
0000
0000
0000
0000
0000
0003
0000
0000
0004
0000
0000
0003
0000
0000
,  // measure 10
1000
0010
0100
0010
1000
0100
0010
0000
0020
0000
0000
0000
0232
0000
0000
0000
,  // measure 11
1303
0000
0010
0000
0100
0000
0001
0000
0000
0000
0000
0000
1000
0000
0000
0010
0000
0000
1000
0000
0000
0010
0000
0000
1000
0000
0000
0001
0000
0000
1000
0000
0000
0100
0000
0000
1000
0000
0000
0001
0000
0000
0010
0000
0000
0100
0000
0000
,  // measure 12
2200
0000
0000
3000
1300
0001
0100
0001
0202
0000
0000
0000
0313
0000
0000
0000
,  // measure 13
1000
0000
0010
0000
0100
0000
0001
0000
0000
0000
0000
0000
0202
0000
0000
0000
0000
0000
0000
0000
0000
0003
0000
0000
0301
0000
0000
0100
0000
0000
0001
0000
0000
0100
0000
0000
0010
0000
0000
1000
0000
0000
0100
0000
0000
0010
0000
0000
,  // measure 14
0001
0100
0010
0100
0001
0010
0100
1000
2020
0000
0000
0000
3030
0000
0000
0000
,  // measure 15
1000
0000
0100
0000
0010
0000
0001
0000
0000
0000
0000
0000
0022
0000
0000
0000
0000
0000
0000
0000
0000
0030
0000
0000
1003
0000
0000
0001
0000
0000
1000
0000
0000
0001
0000
0000
1000
0000
0000
1000
0000
0000
0010
0000
0000
0010
0000
0000
,  // measure 16
0100
0001
1000
0010
0100
0010
1000
0010
0220
0030
0310
0100
0001
0100
0001
0010
,  // measure 17
0100
0000
0010
0000
0100
0000
0010
0000
0000
0000
0000
0000
2002
0000
0000
0000
0000
0000
0000
0000
0000
3000
0000
0000
1003
0000
0000
1000
0000
0000
0001
0000
0000
0001
0000
0000
0100
0000
0000
0100
0000
0000
0010
0000
0000
1000
0000
0000
,  // measure 18
0200
0000
0000
1000
0000
0000
1000
0000
1000
0000
0000
0000
1000
0000
0000
0300
,  // measure 19
1000
0010
0100
0001
0000
0000
0020
0000
0000
0000
0000
0000
0032
0000
0000
0000
0000
0000
2103
0000
0000
0100
0000
0000
,  // measure 20
3200
0000
0000
0010
0010
0000
1000
0000
,  // measure 21
1300
0000
0100
0000
1000
0000
0001
0000
0000
0000
0000
0000
0200
0000
0000
0000
0000
0000
0010
0000
0000
0300
0000
0000
0120
0000
0000
0000
0000
0000
0000
0000
0000
1000
0000
0000
0000
0000
0000
0000
0000
0000
1000
0000
0000
0030
0000
0000
,  // measure 22
0120
0000
0000
0000
0000
0000
0100
0030
0120
0000
0000
0100
0000
0000
0100
0030
,  // measure 23
0100
0000
0010
0000
0100
0000
0001
0000
0000
0000
0000
0000
0220
0000
0000
0000
0000
0000
0030
0000
0000
0000
0000
0000
0320
0000
0000
0000
0000
0000
0000
0000
0000
0000
0000
0000
0000
0000
0000
0000
0000
0000
0100
0000
0000
0130
0000
0000
,  // measure 24
0210
0000
0000
0000
0000
0000
0001
0300
0102
0000
0000
0000
0010
0000
0000
0003
,  // measure 25
1000
0000
0100
0000
0010
0000
0001
0000
0000
0000
0000
0000
0001
0000
0000
0000
0000
0000
0000
0000
0000
0000
0000
0000
1001
0000
0000
0000
0000
0000
0000
0000
0000
1010
0000
0000
0000
0000
0000
0000
0000
0000
1100
0000
0000
0000
0000
0000
,  // measure 26
1000
0000
0100
0000
0010
0000
0100
0000
1000
0000
0000
0010
0000
0000
0001
0000
,  // measure 27
0010
1000
0010
1000
0000
0000
0001
0000
0000
0100
0000
0000
0010
0000
0000
0100
0000
0000
0001
0000
0000
0100
0000
0000
,  // measure 28
0010
0000
1000
0000
0100
0000
0010
0000
0001
0000
0000
0100
0000
0000
0001
0000
,  // measure 29
0100
0000
0001
0000
0100
0000
0001
0000
0000
0000
0000
0000
0001
0000
0000
0000
0000
0000
1000
0000
0000
0000
0000
0000
0010
0000
0000
0000
0000
0000
0000
0000
0000
0001
0000
0000
0000
0000
0000
0000
0000
0000
0010
0000
0000
0000
0000
0000
,  // measure 30
1000
0000
1000
0000
0010
0000
0010
0000
0100
0000
0000
0100
0000
0000
0100
0000
,  // measure 31
0001
0000
0010
0000
0001
0000
0010
0000
0000
0000
0000
0000
0010
0000
0000
0000
0000
0000
0100
0000
0000
0100
0000
0000
1000
0000
0000
0000
0000
0000
1000
0000
0000
0100
0000
0000
1000
0000
0000
0000
0000
0000
1000
0000
0000
0010
0000
0000
,  // measure 32
1000
0100
1000
0010
1000
0001
1000
0010
0100
0001
0010
0100
1000
0010
0100
0001
,  // measure 33
0010
0000
0000
0000
0000
0000
0000
0000
0000
0000
0000
0000
0100
0000
0000
0000
0000
0000
0000
0000
0000
0000
0000
0000
1000
0000
0000
0000
0000
0000
0000
0000
0000
0000
0000
0000
0010
0000
0000
0000
0000
0000
0000
0000
0000
0000
0000
0000
1000
0000
0000
0000
0000
0000
0000
0000
0000
0000
0000
0000
0010
0000
0000
0000
0000
0000
0000
0000
0000
0000
0000
0000
0100
0000
0000
0000
0000
0000
0000
0000
0000
0000
0000
0000
0001
0000
0000
0000
0000
0000
0000
0000
0000
0000
0000
0000
M00M
0000
0000
0000
0000
0000
M00M
0000
0000
0000
0000
0000
M00M
0000
0000
0000
0000
0000
MMMM
0000
0000
0000
0000
0000
M00M
0000
0000
0000
0000
0000
M00M
0000
0000
0000
0000
0000
M00M
0000
0000
0000
0000
0000
0000
0000
0000
0000
0000
0000
M00M
0000
0000
0000
M00M
0000
0000
0000
M00M
0000
0000
0000
0000
0000
0000
0000
0MM0
0000
0000
0000
0MM0
0000
0000
0000
0MM0
0000
0000
0000
M00M
0000
0000
0000
M00M
0000
0000
0000
M00M
0000
0000
0000
M00M
0000
0000
0000
0000
0000
0000
0000
,  // measure 34
2002
0000
0000
0003
3001
0010
0100
1000
0001
0010
0001
0010
0001
0100
0001
1000
,  // measure 35
2002
0000
0000
0003
3001
0100
0001
1000
1000
0001
0001
0010
0004
0000
0000
0003
,  // measure 36
2002
0000
0000
0003
3001
0010
0100
0010
0001
0100
0001
0100
0010
1000
0010
1000
,  // measure 37
2002
0000
0000
3000
0013
0001
0010
0001
1000
0100
0010
0001
1000
1000
0001
0001
,  // measure 38
2002
0000
0000
0003
3001
0010
0100
1000
0001
0010
0001
0010
0001
0100
0001
1000
,  // measure 39
2002
0000
0000
3000
0103
0001
0100
0010
1000
0100
0010
0001
0010
0010
0001
0001
,  // measure 40
2002
0000
0000
0003
3001
0100
0100
0000
0010
1000
1000
0100
0010
0001
0010
0001
,  // measure 41
2002
0003
3020
0000
0130
0100
0010
0010
,  // measure 42
2002
0000
0000
3003
1100
0000
1010
0000
1001
0000
0101
0000
0011
0000
1010
0000
,  // measure 43
2002
0000
0000
3003
1001
0001
0010
0000
1000
0000
0001
0000
M2M0
0000
0000
0300
,  // measure 44
2002
0000
0003
3000
1001
0000
1010
0000
1100
0000
1000
0010
0100
0010
1000
0100
,  // measure 45
0020
0000
0000
0000
0031
0010
0001
0100
0001
1000
0010
1000
0100
0010
0001
0010
,  // measure 46
2002
0000
3000
0003
1010
0000
0101
0000
0011
0000
0000
1100
0100
0000
0100
0000
,  // measure 47
2002
0000
0000
3003
0011
0000
1001
0000
0101
0000
0100
0100
0001
0000
0010
0000
,  // measure 48
2002
0000
3003
0000
1001
0000
0100
0000
0022
0000
0000
0033
0101
0000
0010
0000
,  // measure 49
1000
0000
0100
0000
0010
0000
0001
0000
1000
0100
0010
0001
1000
0010
0100
0001
,  // measure 50
0020
0000
0000
0000
0001
0000
0100
0030
0020
0000
0000
0000
0001
0001
0001
0030
,  // measure 51
0200
0000
0000
0000
0000
0000
0320
0000
0000
0000
0000
0000
0230
0000
0000
0000
0000
0000
0302
0000
0000
0000
0000
0000
0023
0000
0000
0000
0000
0000
0000
0000
0000
0000
0000
0000
0001
0000
0000
0000
0001
0000
0000
0000
0001
0030
0000
0000
,  // measure 52
0020
0000
0230
2300
3020
0000
0001
0100
,  // measure 53
2030
0000
0000
0000
0000
0000
3200
0000
0000
0000
0000
0000
0320
0000
0000
0000
0000
0000
0032
0000
0000
0000
0000
0000
1003
0000
0100
0000
0010
0000
0001
0000
0000
0000
0000
0000
0001
0000
0000
0001
0000
0000
0001
0000
0000
0000
0000
0000
,  // measure 54
0020
0000
0000
0000
0001
0000
0100
0030
0020
0000
0000
0000
0100
0100
0100
0030
,  // measure 55
0200
0000
0000
0000
0000
0000
2300
0000
0000
0000
0000
0000
3200
0000
0000
0000
0000
0000
2300
0000
0000
0000
0000
0000
3020
0000
0000
0000
0000
0000
0000
0000
0000
0000
0000
0000
0100
0000
0000
0000
0100
0000
0000
0000
0100
0030
0000
0000
,  // measure 56
0020
0000
0000
0030
1000
0000
0100
0000
0020
0000
0001
0000
1000
0000
0001
0000
,  // measure 57
0100
0000
0000
0000
0001
0000
0000
0000
1000
0000
0000
0000
0130
0000
0000
0000
MMMM
MMMM
MMMM
MMMM
MMMM
MMMM
MMMM
MMMM
0100
0000
0100
0000
0100
0000
0000
0000
,  // measure 58
2100
0000
0000
0000
0010
0000
0000
0000
0001
0000
0000
0000
0100
0100
0100
0000
,  // measure 59
3020
0000
0000
0000
0000
0000
0000
0000
0000
0100
0000
0000
0000
0000
0000
0000
0000
0000
0100
0000
0000
0000
0000
0000
0230
0000
0000
0000
0000
0000
0000
0000
0000
0000
0000
0000
0010
0000
0000
0000
0010
0000
0000
0000
0010
0000
0000
0000
,  // measure 60
0302
0000
0000
0000
1000
0000
0000
0000
0023
0000
0000
0030
0001
0010
0001
0000
,  // measure 61
1000
0100
1000
0010
1000
0100
0010
0001
,  // measure 62
0010
0000
0010
0000
0010
0000
0010
0000
0001
0010
0001
0000
1000
0000
0010
0000
,  // measure 63
1000
0001
1000
0000
0001
0000
0000
0100
0001
0010
0001
0000
0001
0000
0000
0001
,  // measure 64
1000
0010
0100
0010
1000
0010
0100
0001
1000
0100
1000
0010
1000
0100
0010
0001
,  // measure 65
1000
0000
0100
0000
1000
0000
0001
0000
0010
0000
0001
0000
1000
0000
0100
0000
1000
0000
0001
0010
0001
0100
0001
0010
0002
0000
0000
0000
0000
0000
0000
0000
,  // measure 66
0000
0000
0000
0000
,  // measure 67
0000
0000
0000
0000
,  // measure 68
0003
0000
0000
0000
;
