#VERSION:0.83;
#TITLE:Nevermind;
#SUBTITLE:;
#ARTIST:Paul Bazooka;
#TITLETRANSLIT:;
#SUBTITLETRANSLIT:;
#ARTISTTRANSLIT:;
#GENRE:Epic Trance;
#ORIGIN:;
#CREDIT:DJMAX Respect;
#BANNER:banner.png;
#BACKGROUND:bg.png;
#PREVIEWVID:;
#JACKET:jacket.png;
#CDIMAGE:;
#DISCIMAGE:black.png;
#LYRICSPATH:;
#CDTITLE:CDTITLE.png;
#MUSIC:nevermind.ogg;
#OFFSET:-0.845000;
#SAMPLESTART:70.140999;
#SAMPLELENGTH:18.591999;
#SELECTABLE:YES;
#BPMS:0.000=142.000;
#STOPS:;
#DELAYS:;
#WARPS:;
#TIMESIGNATURES:0.000=4=4;
#TICKCOUNTS:0.000=4;
#COMBOS:0.000=1;
#SPEEDS:0.000=1.000=0.000=0;
#SCROLLS:0.000=1.000;
#FAKES:;
#LABELS:0.000=Song Start;
#BGCHANGES:0.000=nevermind.mkv=1.000=0=0=1=====,
302.000=black.png=1.000=0=0=0=StretchNoLoop====,
99999=-nosongbg-=1.000=0=0=0 // don't automatically add -songbackground-
;
#KEYSOUNDS:;
#ATTACKS:
;

//---------------dance-single - ----------------
#NOTEDATA:;
#CHARTNAME:Neverjack;
#STEPSTYPE:dance-single;
#DESCRIPTION:;
#CHARTSTYLE:;
#DIFFICULTY:Challenge;
#METER:13;
#RADARVALUES:1.044057,1.437306,0.327464,0.595389,1.533126,982.000000,922.000000,44.000000,80.000000,0.000000,35.000000,0.000000,0.000000,0.000000,1.044057,1.437306,0.327464,0.595389,1.533126,982.000000,922.000000,44.000000,80.000000,0.000000,35.000000,0.000000,0.000000,0.000000;
#CREDIT:CND9;
#OFFSET:-0.845000;
#BPMS:0.000000=142.000000
;
#STOPS:;
#DELAYS:;
#WARPS:303.000000=8.000000
;
#TIMESIGNATURES:0.000000=4=4
;
#TICKCOUNTS:0.000000=4
;
#COMBOS:0.000000=1
;
#SPEEDS:0.000000=0.000000=0.000000=0
,0.020833=0.300000=4.000000=0
,7.000000=1.000000=1.000000=0
,70.000000=0.500000=0.000000=0
,71.020836=1.000000=1.000000=0
,96.000000=1.100000=0.250000=0
,96.500000=0.750000=0.250000=0
,97.000000=1.100000=0.250000=0
,97.500000=0.750000=0.250000=0
,98.000000=1.100000=0.250000=0
,98.500000=0.750000=0.250000=0
,99.000000=1.100000=0.250000=0
,99.500000=1.000000=0.500000=0
,102.000000=0.250000=0.000000=0
,104.000000=1.000000=2.000000=0
,296.000000=0.000000=0.000000=0
,296.020844=2.000000=8.000000=0
;
#SCROLLS:0.000000=1.000000
,7.000000=0.500000
,8.000000=1.000000
,38.000000=0.000000
,38.125000=2.000000
,38.250000=0.000000
,38.375000=2.000000
,38.500000=0.000000
,38.625000=2.000000
,38.750000=0.000000
,38.875000=2.000000
,39.000000=0.000000
,39.125000=2.000000
,39.250000=0.000000
,39.375000=2.000000
,39.500000=0.000000
,39.625000=2.000000
,39.750000=0.000000
,39.875000=2.000000
,40.000000=1.000000
,164.000000=0.000000
,164.125000=2.000000
,164.250000=0.000000
,164.375000=2.000000
,164.500000=0.000000
,164.625000=2.000000
,164.750000=0.000000
,164.875000=2.000000
,165.000000=0.000000
,165.125000=2.000000
,165.250000=0.000000
,165.375000=2.000000
,165.500000=0.000000
,165.625000=2.000000
,165.750000=0.000000
,165.875000=2.000000
,166.000000=0.000000
,166.125000=2.000000
,166.250000=0.000000
,166.375000=2.000000
,166.500000=0.000000
,166.625000=2.000000
,166.750000=0.000000
,166.875000=2.000000
,167.000000=0.000000
,167.125000=2.000000
,167.250000=0.000000
,167.375000=2.000000
,167.500000=0.000000
,167.625000=2.000000
,167.750000=0.000000
,167.875000=2.000000
,168.000000=1.000000
,264.000000=0.500000
,264.250000=1.000000
,264.500000=0.500000
,264.750000=1.000000
,265.000000=0.500000
,265.250000=1.000000
,265.500000=0.500000
,265.750000=1.000000
,266.000000=0.500000
,266.250000=1.000000
,266.500000=0.500000
,266.750000=1.000000
,267.000000=0.500000
,267.250000=1.000000
,267.500000=0.500000
,267.750000=1.000000
,268.000000=0.500000
,268.250000=1.000000
,268.500000=0.500000
,268.750000=1.000000
,269.000000=0.500000
,269.250000=1.000000
,269.500000=0.500000
,269.750000=1.000000
,270.000000=0.500000
,270.250000=1.000000
,270.500000=0.500000
,270.750000=1.000000
,271.000000=0.500000
,271.250000=1.000000
,271.500000=0.500000
,271.750000=1.000000
,280.000000=0.500000
,280.250000=1.000000
,280.500000=0.500000
,280.750000=1.000000
,281.000000=0.500000
,281.250000=1.000000
,281.500000=0.500000
,281.750000=1.000000
,282.000000=0.500000
,282.250000=1.000000
,282.500000=0.500000
,282.750000=1.000000
,283.000000=0.500000
,283.250000=1.000000
,283.500000=0.500000
,283.750000=1.000000
,284.000000=0.500000
,284.250000=1.000000
,284.500000=0.500000
,284.750000=1.000000
,285.000000=0.500000
,285.250000=1.000000
,285.500000=0.500000
,285.750000=1.000000
,286.000000=0.500000
,286.250000=1.000000
,286.500000=0.500000
,286.750000=1.000000
,287.000000=0.500000
,287.250000=1.000000
,287.500000=0.500000
,287.750000=1.000000
,288.000000=0.000000
,288.125000=2.000000
,288.250000=0.000000
,288.375000=2.000000
,288.500000=0.000000
,288.625000=2.000000
,288.750000=0.000000
,288.875000=2.000000
,289.000000=0.000000
,289.125000=2.000000
,289.250000=0.000000
,289.375000=2.000000
,289.500000=0.000000
,289.625000=2.000000
,289.750000=0.000000
,289.875000=2.000000
,290.000000=0.000000
,290.125000=2.000000
,290.250000=0.000000
,290.375000=2.000000
,290.500000=0.000000
,290.625000=2.000000
,290.750000=0.000000
,290.875000=2.000000
,291.000000=0.000000
,291.125000=2.000000
,291.250000=0.000000
,291.375000=2.000000
,291.500000=0.000000
,291.625000=2.000000
,291.750000=0.000000
,291.875000=2.000000
,292.000000=0.000000
,292.125000=2.000000
,292.250000=0.000000
,292.375000=2.000000
,292.500000=0.000000
,292.625000=2.000000
,292.750000=0.000000
,292.875000=2.000000
,293.000000=0.000000
,293.125000=2.000000
,293.250000=0.000000
,293.375000=2.000000
,293.500000=0.000000
,293.625000=2.000000
,293.750000=0.000000
,293.875000=2.000000
,294.000000=0.000000
,294.125000=2.000000
,294.250000=0.000000
,294.375000=2.000000
,294.500000=0.000000
,294.625000=2.000000
,294.750000=0.000000
,294.875000=2.000000
,295.000000=0.000000
,295.125000=2.000000
,295.250000=0.000000
,295.375000=2.000000
,295.500000=0.000000
,295.625000=2.000000
,295.750000=0.000000
,295.875000=2.000000
,296.000000=1.000000
;
#FAKES:;
#LABELS:0.000000=Song Start
;
#NOTES:
0000
0000
0000
0000
,
0000
0000
0000
0000
,
1001
0000
0001
0100
0001
0100
0001
1000
0200
0000
0302
0000
0203
0000
0300
0000
,
1000
1000
0010
0010
0100
0100
0001
0001
0010
0010
0100
0100
1000
0100
0010
0001
,
1000
0100
0001
1000
0010
0002
0000
0003
0100
0001
0010
0100
1000
0020
0000
0030
,
0100
1000
0001
0010
1000
2000
0000
3000
0010
0010
0100
0100
0001
0010
0100
1000
,
1010
0010
0100
0001
0100
0001
0010
1000
0020
0000
0230
0000
0320
0000
0030
0000
,
0100
0100
0010
0010
0001
1000
0100
1000
0010
0010
0100
0100
0001
1000
0010
1000
,
1000
0010
0100
0010
0001
1000
0001
0010
0100
0010
1000
0001
0100
0001
0010
0001
,
0022
0000
1000
0033
2200
0000
0010
3300
2002
0100
0100
0100
3103
0100
0100
0100
,
1200
0000
0000
0320
0000
0000
0032
0000
0000
0003
2000
0000
3200
0000
0320
0000
,
0031
0010
0000
0001
0100
0000
0001
0100
0010
0100
0000
0010
1000
0000
1000
0100
,
0200
0000
0000
0320
0000
0000
0032
0000
0000
0003
2000
0000
3200
0000
0320
0000
,
0031
0100
0010
0100
0001
0100
0010
0100
0001
0010
0001
1000
0010
0100
0010
1000
,
0100
0200
0000
0320
0000
0000
0032
0000
0000
0003
2000
0000
3200
0000
0320
0000
,
0031
0100
0000
0100
0001
0000
0001
0010
0010
0100
0000
0100
0000
0000
1000
0000
,
1000
0200
0000
0320
0000
0000
0031
0000
0000
0000
2000
0000
3200
0000
0320
0000
,
0031
0000
0000
0100
0000
0000
1000
0000
0010
0000
0000
0000
2002
0000
0000
3003
,
0001
0000
0100
0010
0000
1000
0010
0000
1000
0000
0001
0100
0000
1000
0100
0000
,
0010
0000
1000
0100
0000
0010
0001
0000
1000
0000
0100
0001
0000
0100
1000
0000
,
1000
0100
0010
0001
0000
0100
0001
0000
1000
0000
0001
0100
0000
1000
0100
0000
,
1000
0010
0100
0010
0000
0001
0010
0000
1000
0000
0001
0010
0000
1000
0010
0000
,
0200
0000
0000
0320
0000
0000
0032
0000
2003
0000
0000
3200
0000
0000
0320
0000
,
0230
0000
0000
0320
0000
0000
0032
0000
2003
0000
0000
3200
0000
0000
0320
0000
,
2032
0000
0100
3003
0202
0000
0010
0303
2020
0000
0100
3030
0220
0000
0001
0330
,
2002
0100
0100
0100
0100
0100
0100
0100
3103
0000
0000
0000
0000
0000
0000
0000
,
2000
0000
0000
0000
0000
0000
3020
0000
0000
0000
0000
0000
1030
0100
0010
0001
,
0020
0000
0000
0000
0000
0000
0032
0000
0000
0000
0000
0000
1003
0100
0010
0001
,
1000
0010
1000
0010
1000
0010
0100
0001
0100
0001
0100
0001
1000
0100
1000
0100
,
1000
0100
0010
0100
0010
0100
0010
0100
1000
0010
1000
0010
1000
0010
0001
0010
,
1000
0100
1000
0100
1000
0100
0010
0100
0010
0100
0010
0100
1000
0100
0010
0001
,
0100
0001
0100
0001
0100
0010
0100
0010
0100
0010
0100
0010
1000
0100
0010
0001
,
0010
0001
0010
0001
0010
0001
1000
0100
1000
0100
1000
0100
0010
0100
0010
0100
,
0010
0100
0010
0001
0010
0001
0010
0001
1000
0001
1000
0001
1000
0001
1000
0010
,
0001
0010
1000
0000
0001
0010
0000
0010
0100
0000
0100
1000
0000
1000
0100
0010
,
0001
0010
0100
0000
0100
1000
0000
1000
0010
0000
0010
1000
0000
1000
0100
0010
,
0001
0010
0001
0000
1000
0001
0000
0100
0001
0000
0010
0001
0000
0001
0010
0001
,
0100
0010
0100
0001
0010
0001
1000
0010
0100
0010
1000
0100
0001
0100
1000
0010
,
1000
0100
1000
0100
1000
0100
1000
0100
1000
0010
1000
0010
1000
0100
0010
0001
,
0010
0001
0010
0001
0100
0001
0100
0001
0100
0001
0100
0001
1000
0100
0010
0001
,
1000
0100
0001
0100
1000
0010
0100
0001
0010
0001
1000
0100
1000
0100
0010
0001
,
0100
0100
0100
0100
0100
0100
0100
0100
0200
0000
0000
0000
0000
0000
0000
0000
,
0310
1000
0010
1000
0010
0000
0200
0000
0301
0010
0001
0010
0002
0000
0103
0001
,
0010
0001
0100
0000
0001
0100
1000
0001
0020
0000
1030
0100
1000
0010
1000
0001
,
0010
0100
0100
0100
0100
0100
1000
0100
0100
0100
0100
0100
0010
0100
0100
0100
,
0100
0100
1000
0100
0100
0100
0100
0100
0010
0100
0100
0100
0100
0100
0010
0000
,
0001
1000
0001
1000
0001
0000
0200
0000
0310
1000
0010
1000
0020
0000
0130
0001
,
0100
0001
0200
0000
0301
0010
1000
0010
0002
0000
1003
0100
1000
0010
2000
0000
,
3010
0100
0100
0100
0100
0100
0001
0100
0100
0100
0100
0100
0010
0100
0100
0100
,
0100
0100
0010
0100
0001
0010
0100
1000
0100
0010
0002
2000
0000
0000
3000
0000
,
1003
0010
0001
0010
1000
0010
1000
0100
1000
0010
0001
0010
1000
0010
0100
0010
,
0100
0001
0010
0100
1000
0010
0100
0010
1000
0100
0010
0100
1000
0010
0100
0001
,
1000
0010
0001
0010
1000
0100
1000
0100
1000
0010
1000
0001
1000
0100
0010
0001
,
1000
0100
0010
0100
1000
0001
0010
0100
0010
0001
0001
0100
0100
0010
0010
0000
,
1000
0010
0001
0010
1000
0010
0100
0010
1000
0001
0100
0010
0100
0010
1000
0001
,
0100
0010
0100
0010
0100
0001
0100
0001
0100
0010
0100
0001
0100
0010
1000
0001
,
0010
0001
1000
0100
1000
0010
0100
0001
0100
0100
0010
0010
1000
1000
0100
0010
,
0001
0010
0100
1000
0001
0010
0100
1000
0002
2000
0000
0000
0000
0000
0000
0003
,
3010
0100
0100
0100
1000
0100
0100
0100
0010
0100
0100
0100
0010
1000
0001
0100
,
0001
0100
0100
0100
0001
0100
0100
0100
0001
0100
0100
0100
0001
0100
0100
0100
,
0001
0100
0010
1000
0001
0010
0100
1000
0010
0100
0001
0010
0001
0100
0100
0100
,
0010
0100
0100
0100
1000
0100
0100
0100
0010
0100
0100
0100
1000
0100
0100
0100
,
0001
0010
0100
1000
0100
0100
0100
0100
0001
0100
0010
1000
0100
0100
0100
0100
,
0010
1000
0001
0010
0100
0100
0100
0100
0001
0010
0001
1000
0001
0010
0100
1000
,
0001
0100
0100
0100
0010
0100
0100
0100
0001
0100
0100
0100
1000
0100
0100
0100
,
0010
1000
0010
1000
0001
0100
0001
0100
0001
0010
0001
0100
0001
1000
0001
0100
,
1010
1010
0110
0110
0101
0101
0110
0110
,
1010
1010
1100
1100
1001
1001
0101
0101
,
0001
0010
0100
1000
0100
0100
0100
0100
0001
0100
0010
1000
0100
0100
0100
0100
,
0001
0100
0001
0010
0001
1000
0100
0010
0001
1000
0100
0001
1000
0010
0001
1000
,
1011
1011
1110
1110
0111
0111
1011
1011
,
1101
1101
1110
1110
1011
1011
1110
1110
,
1000
0100
0001
0100
1000
0010
0100
0001
0010
0001
0100
1000
0100
0001
1000
0100
,
1000
0010
1000
0001
1000
0010
1000
0100
1000
0100
0001
1000
0010
0001
1000
0001
,
2000
0000
0000
0000
,
0000
0000
0000
0000
,
0000
0000
0000
0000
,
0000
3000
0000
0000
;

//---------------dance-double - CND9----------------
#NOTEDATA:;
#CHARTNAME:CND9;
#STEPSTYPE:dance-double;
#DESCRIPTION:CND9;
#CHARTSTYLE:;
#DIFFICULTY:Hard;
#METER:12;
#RADARVALUES:0.980265,0.961553,0.528408,0.528408,1.294971,922.000000,851.000000,71.000000,71.000000,4.000000,4.000000,0.000000,0.000000,0.000000,0.980265,0.961553,0.528408,0.528408,1.294971,922.000000,851.000000,71.000000,71.000000,4.000000,4.000000,0.000000,0.000000,0.000000;
#CREDIT:CND9;
#OFFSET:-0.845000;
#BPMS:0.000000=142.000000
;
#STOPS:;
#DELAYS:299.000000=4.000000
;
#WARPS:299.000000=8.000000
;
#TIMESIGNATURES:0.000000=4=4
;
#TICKCOUNTS:0.000000=4
;
#COMBOS:0.000000=1
;
#SPEEDS:0.000000=0.000000=0.000000=0
,0.020833=1.000000=8.000000=0
,102.000000=10.000000=0.000000=0
,102.020836=0.500000=2.000000=0
,104.000000=1.000000=4.000000=0
,228.000000=0.000000=3.000000=0
,231.000000=1.000000=0.250000=0
,296.000000=0.000000=0.000000=0
,296.020844=2.000000=4.000000=0
;
#SCROLLS:0.000000=1.000000
,32.000000=0.500000
,32.250000=1.000000
,32.500000=0.500000
,32.750000=1.000000
,33.000000=0.500000
,33.250000=1.000000
,33.500000=0.500000
,33.750000=1.000000
,34.000000=0.500000
,34.250000=1.000000
,34.500000=0.500000
,34.750000=1.000000
,35.000000=0.500000
,35.250000=1.000000
,35.500000=0.500000
,35.750000=1.000000
,36.000000=0.500000
,36.250000=1.000000
,36.500000=0.500000
,36.750000=1.000000
,37.000000=0.500000
,37.250000=1.000000
,37.500000=0.500000
,37.750000=1.000000
,38.000000=0.500000
,39.000000=0.000000
,39.125000=2.000000
,39.250000=0.000000
,39.375000=2.000000
,39.500000=0.000000
,39.625000=2.000000
,39.750000=0.000000
,39.875000=2.000000
,40.000000=1.000000
,96.250000=2.000000
,96.500000=0.000000
,96.750000=2.000000
,97.000000=0.000000
,97.250000=2.000000
,97.500000=0.000000
,97.750000=2.000000
,98.000000=0.000000
,98.250000=2.000000
,98.500000=0.000000
,98.750000=2.000000
,99.000000=0.000000
,99.250000=2.000000
,99.500000=0.000000
,99.750000=2.000000
,100.000000=1.000000
,164.000000=0.000000
,164.125000=2.000000
,164.250000=0.000000
,164.375000=2.000000
,164.500000=0.000000
,164.625000=2.000000
,164.750000=0.000000
,164.875000=2.000000
,165.000000=0.000000
,165.125000=2.000000
,165.250000=0.000000
,165.375000=2.000000
,165.500000=0.000000
,165.625000=2.000000
,165.750000=0.000000
,165.875000=2.000000
,166.000000=0.000000
,166.125000=2.000000
,166.250000=0.000000
,166.375000=2.000000
,166.500000=0.000000
,166.625000=2.000000
,166.750000=0.000000
,166.875000=2.000000
,167.000000=0.000000
,167.125000=2.000000
,167.250000=0.000000
,167.375000=2.000000
,167.500000=0.000000
,167.625000=2.000000
,167.750000=0.000000
,167.875000=2.000000
,168.000000=1.000000
,198.500000=0.000000
,198.625000=2.000000
,198.750000=0.000000
,198.875000=2.000000
,199.000000=0.000000
,199.125000=2.000000
,199.250000=0.000000
,199.375000=2.000000
,199.500000=1.000000
,264.000000=0.500000
,264.250000=1.000000
,264.500000=0.500000
,264.750000=1.000000
,265.000000=0.500000
,265.250000=1.000000
,265.500000=0.500000
,265.750000=1.000000
,266.000000=0.500000
,266.250000=1.000000
,266.500000=0.500000
,266.750000=1.000000
,267.000000=0.500000
,267.250000=1.000000
,267.500000=0.500000
,267.750000=1.000000
,268.000000=0.500000
,268.250000=1.000000
,268.500000=0.500000
,268.750000=1.000000
,269.000000=0.500000
,269.250000=1.000000
,269.500000=0.500000
,269.750000=1.000000
,270.000000=0.500000
,270.250000=1.000000
,270.500000=0.500000
,270.750000=1.000000
,271.000000=0.500000
,271.250000=1.000000
,271.500000=0.500000
,271.750000=1.000000
,272.000000=0.500000
,272.250000=1.000000
,272.500000=0.500000
,272.750000=1.000000
,273.000000=0.500000
,273.250000=1.000000
,273.500000=0.500000
,273.750000=1.000000
,274.000000=0.500000
,274.250000=1.000000
,274.500000=0.500000
,274.750000=1.000000
,275.000000=0.500000
,275.250000=1.000000
,275.500000=0.500000
,275.750000=1.000000
,276.000000=0.500000
,276.250000=1.000000
,276.500000=0.500000
,276.750000=1.000000
,277.000000=0.500000
,277.250000=1.000000
,277.500000=0.500000
,277.750000=1.000000
,278.000000=0.500000
,278.250000=1.000000
,278.500000=0.500000
,278.750000=1.000000
,279.000000=0.500000
,279.250000=1.000000
,279.500000=0.500000
,279.750000=1.000000
,280.000000=0.500000
,280.250000=1.000000
,280.500000=0.500000
,280.750000=1.000000
,281.000000=0.500000
,281.250000=1.000000
,281.500000=0.500000
,281.750000=1.000000
,282.000000=0.500000
,282.250000=1.000000
,282.500000=0.500000
,282.750000=1.000000
,283.000000=0.500000
,283.250000=1.000000
,283.500000=0.500000
,283.750000=1.000000
,284.000000=0.500000
,284.250000=1.000000
,284.500000=0.500000
,284.750000=1.000000
,285.000000=0.500000
,285.250000=1.000000
,285.500000=0.500000
,285.750000=1.000000
,286.000000=0.500000
,286.250000=1.000000
,286.500000=0.500000
,286.750000=1.000000
,287.000000=0.500000
,287.250000=1.000000
,287.500000=0.500000
,287.750000=1.000000
,288.000000=0.000000
,288.125000=2.000000
,288.250000=0.000000
,288.375000=2.000000
,288.500000=0.000000
,288.625000=2.000000
,288.750000=0.000000
,288.875000=2.000000
,289.000000=0.000000
,289.125000=2.000000
,289.250000=0.000000
,289.375000=2.000000
,289.500000=0.000000
,289.625000=2.000000
,289.750000=0.000000
,289.875000=2.000000
,290.000000=0.000000
,290.125000=2.000000
,290.250000=0.000000
,290.375000=2.000000
,290.500000=0.000000
,290.625000=2.000000
,290.750000=0.000000
,290.875000=2.000000
,291.000000=0.000000
,291.125000=2.000000
,291.250000=0.000000
,291.375000=2.000000
,291.500000=0.000000
,291.625000=2.000000
,291.750000=0.000000
,291.875000=2.000000
,292.000000=0.000000
,292.125000=2.000000
,292.250000=0.000000
,292.375000=2.000000
,292.500000=0.000000
,292.625000=2.000000
,292.750000=0.000000
,292.875000=2.000000
,293.000000=0.000000
,293.125000=2.000000
,293.250000=0.000000
,293.375000=2.000000
,293.500000=0.000000
,293.625000=2.000000
,293.750000=0.000000
,293.875000=2.000000
,294.000000=0.000000
,294.125000=2.000000
,294.250000=0.000000
,294.375000=2.000000
,294.500000=0.000000
,294.625000=2.000000
,294.750000=0.000000
,294.875000=2.000000
,295.000000=0.000000
,295.125000=2.000000
,295.250000=0.000000
,295.375000=2.000000
,295.500000=0.000000
,295.625000=2.000000
,295.750000=0.000000
,295.875000=2.000000
;
#FAKES:;
#LABELS:0.000000=Song Start
;
#NOTES:
// measure 0
00000000
00000000
00000000
00000000
,  // measure 1
00000000
00000000
00000000
00000000
,  // measure 2
01001000
00000000
01000000
01000000
00001000
00010000
00000100
00000010
00000002
00000000
00000203
00000000
00002300
00000000
00003000
00000000
,  // measure 3
00100000
00100000
00001000
00001000
00100000
00010000
01000000
00100000
10000000
10000000
00010000
00010000
01000000
00100000
00010000
00001000
,  // measure 4
00010000
00000100
00001000
00000100
00010000
00000100
00020000
00000000
00031000
00010000
00001000
00100000
02000000
00000000
13000000
00000000
,  // measure 5
10000000
01000000
00100000
00010000
01000000
00002000
00000000
00000000
00013000
00000100
00010000
00000100
00001000
00001000
00000001
00000001
,  // measure 6
00020000
00000000
00031000
00001000
00100000
00010000
01000000
01000000
20000000
00000000
32000000
00000000
03020000
00000000
00030000
00000000
,  // measure 7
10000000
00100000
01000000
00010000
10000000
00100000
01000000
00010000
00100000
00001000
00010000
00000100
00100000
00001000
00010000
00000100
,  // measure 8
00010000
00010000
00000010
00000010
00001000
00001000
00000001
00000001
,  // measure 9
00000101
00000000
00000100
00000000
00010100
00000000
00010000
00000000
10010000
00000000
00000000
00000000
10000000
10000000
10000000
10000000
,  // measure 10
00020000
00000000
00000000
00230000
00000000
00000000
01300000
00000000
00000000
00000000
20000000
00000000
30020000
00000000
01030000
00000000
,  // measure 11
00001000
00000000
00000000
0M001000
00000000
00000000
00000100
00000000
00001000
00000000
00000000
00001M00
00000000
00000000
00100000
00000000
,  // measure 12
02000000
00000000
00000000
03020000
00000000
00000000
00030100
00000000
00000000
00000000
00000010
00000000
00000100
00000000
00001000
00000000
,  // measure 13
00000010
00001000
00000000
00000010
00010000
00000000
00001000
00010000
00001000
00100000
00000000
00010000
01000000
00000000
00100000
10000000
,  // measure 14
00100000
00200000
00000000
02300000
00000000
00000000
03010000
00000000
00000000
00000000
00100000
00000000
00001000
00000000
00010000
00000000
,  // measure 15
00000010
00000000
00000000
0000M010
00000000
00000000
00000001
00000000
00000100
00000000
00000000
0000010M
00000000
00000000
00010000
00000000
,  // measure 16
00001000
00010000
00000000
01000000
00000000
00000000
00100000
00000000
00000000
00000000
02000000
00000000
03200000
00000000
00310000
00000000
,  // measure 17
01010000
00000000
00000000
01010000
00000000
00000000
00010000
00000000
00011000
00000000
00000000
00010000
00002000
00000000
00000000
00003000
,  // measure 18
00010010
00000000
00000000
00010010
00000000
00010000
00000100
00000000
00001100
00000000
00000100
00000001
00000000
00000001
00000100
00000000
,  // measure 19
00001100
00000000
00000100
00010000
00000000
00001000
00100000
00000000
00101000
00000000
00100000
10000000
00000000
10000000
00100000
00000000
,  // measure 20
00100000
00001000
00010000
00000100
00000000
00010000
00000010
00000000
00010010
00000000
00010000
01000000
00000000
01000000
00010000
00000000
,  // measure 21
00010000
00000100
00001000
00000010
00000000
00000010
00000100
00000000
00000110
00000000
00000010
00010000
00000000
00001000
01000000
00000000
,  // measure 22
21000000
00000000
00000000
30200000
00000000
00000000
01300000
00000000
00002000
00000000
00000000
00023000
00000000
00000000
01030000
00000000
,  // measure 23
20000000
00000000
00000000
30200000
00000000
00000000
00310000
00000000
00002000
00000000
00000000
00023000
00000000
00000000
00030010
00000000
,  // measure 24
00001010
00001000
00010100
00000100
00101000
00100000
10010000
00010000
,  // measure 25
10000000
00100000
01000000
00010000
00100000
00001000
00010000
00000100
00000020
00000000
00000000
00000000
00000000
00000000
00000000
00000000
,  // measure 26
00000032
00000000
00000000
00000000
00000000
00000000
00002003
00000000
00000000
00000000
00000000
00000000
00003001
00000010
00000100
00001000
,  // measure 27
00000020
00000000
00000000
00000000
00000000
00000000
00020030
00000000
00000000
00000000
00000000
00000000
00030010
00000100
00001000
00010000
,  // measure 28
00000010
00010000
00000010
00010000
00000010
00010000
00001000
00010000
00001000
00010000
00001000
00010000
00001000
00100000
00001000
00100000
,  // measure 29
00001000
00100000
00010000
01000000
00010000
01000000
00010000
01000000
00100000
01000000
00100000
01000000
00100000
01000000
00020000
00000000
,  // measure 30
20030000
00000000
30100000
10000000
00100000
10000000
00010000
10000000
00010000
10000000
00010000
10000000
00100000
01000000
00001000
00010000
,  // measure 31
00000200
00000000
00010300
00000100
00010000
00000100
00001000
00000100
00001000
00000100
00001000
00000100
00001000
00000010
00000100
00000001
,  // measure 32
00000010
00000001
00000010
00000001
00000010
00000001
00001000
00000100
00001000
00000100
00001000
00000100
00010000
00001000
00010000
00001000
,  // measure 33
00010000
00001000
00100000
00010000
00100000
00010000
00100000
00010000
01000000
00100000
01000000
00100000
01000000
00100000
01000000
00010000
,  // measure 34
10000000
01000000
00100000
00000000
00100000
01000000
00000000
10000000
00100000
00000000
01000000
00100000
00000000
10000000
01000000
00000000
,  // measure 35
01000000
00100000
00010000
00000000
00100000
00010000
00000000
00010000
01000000
00000000
01000000
00100000
00000000
01000000
00010000
00000000
,  // measure 36
00001000
00000100
00000010
00000000
00000100
00001000
00000000
00001000
00000010
00000000
00001000
00000100
00000000
00000100
00000010
00000000
,  // measure 37
00000001
00000010
00000100
00000000
00000100
00000010
00000000
00000001
00000100
00000000
00000010
00000100
00000000
00000100
00000001
00000000
,  // measure 38
00000001
00000100
00000001
00000100
00000010
00001000
00000010
00001000
00000001
00000010
00000001
00000010
00000100
00001000
00000100
00001000
,  // measure 39
00010000
01000000
00010000
01000000
00100000
10000000
00100000
10000000
00010000
00100000
00010000
00100000
00010000
00100000
01000000
10000000
,  // measure 40
00100000
10000000
00010000
01000000
00001000
00100000
00000100
00010000
00000010
00001000
00000001
00000100
00000001
00000010
00000100
00001000
,  // measure 41
00200000
00302000
00003200
00020300
00230000
02300000
03020000
00000000
,  // measure 42
00032100
00000000
00013000
00001000
00100000
00010000
00200000
00000000
00301000
00010000
00000100
00001000
00000020
00000000
00001030
00010000
,  // measure 43
00001000
00000100
00002000
00000000
00003100
00010000
00100000
00010000
00000200
00000000
00100300
00000100
00100000
00000100
00200000
00000000
,  // measure 44
00301020
00000000
00010030
00000100
00001000
00000001
00000200
00000000
00000310
00010000
00001000
00100000
02000000
00000000
13000000
00100000
,  // measure 45
00010000
00100000
20000000
00000000
30010000
00100000
00001000
00010000
00000200
00000000
00001300
00000010
00000001
00000010
00002000
00000000
,  // measure 46
00003021
00000000
00010030
00001000
00010000
00001000
00200000
00000000
00310000
00100000
01000000
10000000
00020000
00000000
00130000
00000100
,  // measure 47
00010000
00000010
00002000
00000000
00003100
00000001
00000100
00010000
00200000
00000000
10300000
00100000
10000000
00100000
20000000
00000000
,  // measure 48
32010000
00000000
13000000
00100000
01000000
00010000
00200000
00000000
00300100
00001000
00000010
00000100
00000002
00000000
00000103
00000001
,  // measure 49
00000100
00000001
00000200
00000000
00000310
00010000
00001000
00100000
00020000
00000000
10030000
10000000
10000000
10000000
00020000
00000000
,  // measure 50
10030000
10000000
00010000
00010000
00100000
00001000
00010000
00000100
00001000
00001000
00000001
00000001
00000010
00000001
00000100
00000001
,  // measure 51
00001000
00001000
00000100
00000100
00010000
00010000
00001000
00001000
00010000
00000010
00001000
00000100
00010000
00001000
00100000
00010000
,  // measure 52
10000000
10000000
00010000
00010000
01000000
00010000
00100000
00001000
00100000
00100000
00001000
00001000
00010000
00000100
00001000
00000100
,  // measure 53
00010000
00001000
00100000
00010000
00100000
00001000
00010000
00001000
00010000
00000100
00001000
00001000
00000010
00000010
00000200
00000000
,  // measure 54
00000301
00000001
00001000
00001000
00000010
00001000
00000100
00010000
00001000
00100000
00001000
01000000
00010000
01000000
00100000
10000000
,  // measure 55
00010000
00010000
00100000
00100000
00001000
00001000
00010000
00010000
00000100
00001000
00000010
00000100
00000010
00001000
00000001
00000010
,  // measure 56
00000001
00000001
00000010
00000010
00000100
00000100
00001000
00001000
00000010
00001000
00000100
00010000
00001000
00100000
00010000
10000000
,  // measure 57
20000000
00000000
00000000
00000000
00000000
00000000
00000000
00000000
00000000
00000000
00000000
00000000
00000000
00000000
00000000
30000000
,  // measure 58
00010000
00100000
01000000
10000000
00100000
01000000
00010000
00100000
00001000
00010000
00000100
00001000
00000001
00000010
00000100
00001000
,  // measure 59
00000010
00001000
00000010
00001000
00000100
00010000
00000100
00010000
00001000
00100000
00001000
00100000
00010000
01000000
00010000
01000000
,  // measure 60
00010000
00100000
01000000
10000000
01000000
10000000
00100000
10000000
00010000
01000000
00001000
00100000
00000100
00010000
00000010
00001000
,  // measure 61
00000001
00000010
00000100
00001000
00000010
00010000
00000100
00010000
00001000
00100000
00010000
00100000
00001000
00010000
00000010
00001000
,  // measure 62
00000001
00000010
00000100
00000010
00000001
00000010
00000001
00000010
00000001
00001000
00000100
00010000
00001000
00100000
00001000
00100000
,  // measure 63
00010000
00100000
01000000
10000000
00100000
01000000
00100000
01000000
00010000
01000000
00001000
00100000
00001000
00010000
00000100
00001000
,  // measure 64
00000001
00000010
00000100
00001000
00000010
00001000
00000100
00010000
00001000
00100000
00010000
01000000
00100000
10000000
00100000
01000000
,  // measure 65
00100000
01000000
00010000
01000000
00010000
00100000
00010000
00100000
00001000
00100000
00001000
00010000
00001000
00010000
00000100
00010000
,  // measure 66
00010100
00010100
00001010
00001010
00000101
00000101
00001100
00001100
,  // measure 67
00101000
00101000
00110000
00110000
10100000
10100000
11000000
11000000
,  // measure 68
10010000
10010000
10100000
10100000
10010000
10010000
01010000
01010000
,  // measure 69
00101000
00101000
00010100
00010100
00001010
00000101
00001001
00001001
,  // measure 70
00010010
00010100
00010010
00001010
00010010
00001001
00001010
00101000
,  // measure 71
00110000
00101000
01010000
10100000
11000000
10100000
01010000
10010000
,  // measure 72
10000000
00100000
01000000
00010000
00100000
01000000
10000000
01000000
00100000
00001000
00010000
00000100
00001000
00000100
00000010
00000001
,  // measure 73
00000100
00001000
00000100
00000001
00001000
00000100
00010000
00001000
00100000
00010000
00100000
10000000
00100000
00001000
00010000
00000100
,  // measure 74
00002000
00000000
00000000
00000000
,  // measure 75
00000000
00000000
00000000
00000000
,  // measure 76
00003000
00000000
00000000
00000000
;
