#TITLE:LOVE B.B.B.;
#SUBTITLE:;
#ARTIST:SWAN K feat. Asuka M;
#TITLETRANSLIT:;
#SUBTITLETRANSLIT:;
#ARTISTTRANSLIT:;
#GENRE:DRUM'N'BASS;
#CREDIT:Beatmania IIDX 19 Lincle;
#MUSIC:LOVE B.B.B.ogg;
#BANNER:banner.png;
#BACKGROUND:bg.png;
#CDTITLE:CDTITLE.png;
#SAMPLESTART:44.746;
#SAMPLELENGTH:14.222;
#SELECTABLE:YES;
#OFFSET:-0.347;
#BPMS:0.000=172.975;
#STOPS:;
#DISPLAYBPM:173.000;
#LASTSECONDHINT:115.508;
#BGCHANGES:0.000=19po.mp4=1.000=0=0=0=StretchNoLoop====,
321.000=bg.png=1.000=0=0=1=Centered====,
99999.000=-nosongbg-=1.000=0=0=0=StretchNoLoop====
;
#FGCHANGES:;

//--------------- dance-single - CND9 ----------------
#NOTES:
     dance-single:
     CND9:
     Challenge:
     15:
     1,1,0.591,0.125,1:
1000
0010
0100
0001
1001
0000
0000
0000
0000
0000
0000
0000
0000
0000
0000
0000
,
0000
0000
0000
0101
,
0000
1001
0000
0000
,
0000
1010
0000
0000
,
1000
0100
0010
0001
0010
0000
0000
0000
0000
0000
0000
0000
0000
0000
0000
0000
,
0000
0000
0000
0101
,
0000
1010
0000
0000
,
0000
1100
0000
0000
,
1000
0010
1000
0010
1000
0000
0100
0000
0100
0000
0001
0000
0010
0100
1000
0000
,
0100
0000
1000
0000
0100
0000
0100
0000
0001
0000
0010
0100
1000
0000
1001
0000
,
1000
0100
0010
0001
1000
0000
0010
0000
0010
0000
0001
0010
1000
0000
0010
0000
,
0001
0000
1000
0000
0010
0000
0010
0000
0001
0000
0010
0000
0001
0100
0010
0000
,
1000
0100
0010
0001
1000
0000
0001
0000
0010
0000
0100
0000
1000
0100
0010
0000
,
0001
0000
0100
0000
0010
0000
1000
0000
0001
0000
0100
0010
0002
0000
0000
0000
,
0000
0000
0000
1003
0100
0001
1000
0010
0001
1000
0100
0001
,
1000
0010
0001
2000
0000
0000
0000
0000
0000
0000
0000
3000
,
MMMM
0000
0010
0000
0000
1100
0000
0000
,
0011
0000
0000
1101
0000
0001
1010
0000
,
0101
0000
1100
0000
0000
0101
0000
0000
,
1100
0000
0000
0011
0000
0011
1011
0000
,
MMMM
0000
1010
0000
0000
0101
0000
0000
,
1010
0000
0000
1100
0000
0010
0101
0000
,
0000
0000
1010
0000
0000
0101
0000
1000
,
0001
0000
0000
0000
0000
0000
1001
0000
0000
0000
1000
0100
0010
0000
0010
0000
,
0001
0000
1000
1000
0010
0010
0100
0100
,
0001
0001
0010
0010
1000
1000
0010
0001
,
0200
0300
0010
0010
1000
1000
0001
0001
,
0100
0100
0010
0001
0010
1000
0010
0001
,
0020
0030
0100
0100
0010
0010
0001
0001
,
1000
1000
0100
0100
0001
0100
1000
0100
,
0020
0030
2002
0000
0000
0000
0000
0000
,
0000
0000
0000
3003
1000
0001
1000
0001
1000
0001
1000
0001
1000
0001
1000
0001
,
1111
0000
0000
0000
1000
0010
0100
0001
1000
0010
0100
0001
1000
0100
0010
0001
,
1000
0100
0010
0001
0010
0001
0010
0001
0010
0100
0010
0100
1000
0100
1000
0100
,
1000
0100
0010
0001
2000
0000
0000
0000
3000
0000
0010
0100
0002
0000
0000
0003
,
0000
0000
0000
0000
0000
0000
1010
0000
0000
1110
0000
0000
0101
0000
0000
0111
,
0000
0000
0000
0000
0000
0000
1001
0000
0000
0000
0000
0000
1000
0000
0000
0100
0000
0000
0010
0000
0000
0100
0000
0000
1000
0000
0000
0100
0000
0000
0010
0000
0000
0100
0000
0000
1000
0000
0010
0000
0000
0000
0000
0000
0000
0100
0001
0000
,
0000
0000
0000
0000
0000
0000
0010
0000
1000
0000
0000
0000
0000
0000
0000
0000
0000
0000
0001
0000
0000
0010
0000
0000
0100
0000
0000
0010
0000
0000
0001
0000
0000
0000
0000
0000
0001
0000
0010
0000
0000
0000
0000
0000
0000
0100
1000
0000
,
0000
0000
0000
0000
0000
0000
0010
0000
0001
0000
0000
0000
1000
0000
0000
0010
0000
0000
1000
0000
0000
0010
0000
0000
1000
0000
0000
0010
0000
0000
1100
0000
0000
0010
0000
0000
1100
0000
0000
0010
0000
0000
0100
0000
0000
0001
0000
0000
,
1000
0010
0100
0001
1000
0010
1000
0001
0010
0100
1000
0000
1000
0100
0001
0000
,
0001
0100
1000
0000
1000
0010
1000
0001
0010
0100
1000
0010
1000
0001
0100
0010
,
1000
0100
0001
0100
1000
0010
1000
0001
0010
0100
1000
0010
1000
0001
0100
0010
,
1000
0010
0001
0010
0100
0001
0010
0100
1000
0100
0010
0001
0010
0001
0100
0010
,
1000
0100
0010
0001
0010
0001
0010
0000
0100
0010
0100
0000
0100
1000
0100
0000
,
1000
0000
0000
0010
0000
0000
1000
0000
0000
0000
0000
0000
1000
0000
0000
0000
0010
0000
0000
0000
1000
0000
0000
0000
0100
0000
0000
0000
0010
0000
0000
0000
0100
0000
0000
0000
0010
0000
0000
0000
0001
0000
0000
0000
0010
0000
0000
0000
,
0001
0010
0100
1000
0100
1000
0100
0010
0001
1000
0010
0100
,
0001
0000
0000
0000
0100
0000
0000
0000
1000
0000
0000
0000
0200
0000
0000
0000
0300
0000
0001
0000
0000
0000
0000
0000
0100
0000
0000
0000
0000
0000
0000
0000
0000
0010
0000
0000
0000
0000
0000
0000
0000
0000
1000
0000
0000
0000
0000
0000
,
0000
0001
0000
0000
0100
0000
0000
1000
0000
0000
0001
0000
0010
0000
0000
1000
,
0000
0000
0100
0000
1000
0001
0100
0001
0010
0001
0100
0011
1000
0010
1100
0001
,
0010
0100
1010
0001
0100
0010
1000
0100
0010
0001
0010
0001
0010
0001
1000
0100
,
0010
0001
0010
0100
1000
0010
1100
0001
1100
0010
1000
0101
0010
0001
1100
0010
,
0100
0001
1010
0001
0010
0001
1000
0010
0100
0001
1000
0100
0001
0100
1000
0100
,
0001
0100
1000
0100
0010
0001
0100
0001
0100
0001
0100
0010
0001
0010
1000
0010
,
0001
0010
1000
0100
0010
0001
0100
0010
0100
0001
1000
0001
0100
0010
0100
0010
,
0100
0010
0100
0010
0100
1000
0100
1000
0100
1000
0100
1000
0100
0001
0010
0100
,
1000
0010
0100
0001
0100
0010
0100
0001
1000
0010
0100
0001
1000
0010
1000
0010
,
0100
0001
0100
0001
1111
0000
0000
0000
0001
0000
0000
0000
0111
0000
0000
0000
,
1000
0000
0000
0000
0000
0000
0100
0000
0000
0000
0000
0000
0001
0000
0000
0000
0000
0000
0100
0000
0000
0000
0000
0000
1000
0000
0000
0000
0000
0000
0001
0000
0100
0000
0001
0000
0010
0000
0000
0000
0000
0000
0001
0000
0000
0100
0000
0000
,
0000
0000
0001
1000
0001
1000
0000
0010
1000
0000
1000
0010
1110
0000
0000
1000
,
0000
0000
0000
0000
0000
0000
0010
0000
0000
0000
0000
0000
1000
0000
0000
0010
0000
0000
1000
0000
0000
0010
0000
0000
0100
0000
0000
0001
0000
0000
0100
0000
0000
0001
0000
0000
1000
0000
0000
0000
0100
0000
0000
0000
0001
0000
0000
0000
,
0100
0000
0000
0000
1000
0000
0000
0000
0000
0000
0000
0000
1011
0000
0000
0000
0000
0000
0000
0000
0000
0000
0000
0000
0001
0000
0000
0000
0000
0000
0001
0000
0000
0000
0000
0000
0101
0000
0000
0000
0000
0000
0000
0000
0000
0010
0000
0000
,
0101
0000
0010
0000
1000
0100
0010
0001
1000
0100
0010
0001
2000
0000
0000
0000
,
0000
0000
0000
3100
0001
1000
0010
0001
1000
0100
0001
1000
,
0010
0001
1000
0200
0000
0000
0000
0000
0000
0000
0000
0300
,
MMMM
0000
0000
0000
1000
0010
0100
0001
1000
0001
1000
0001
0100
0001
0100
0001
,
0010
0100
1000
0100
0010
0001
0010
0001
0100
0001
0100
0001
1000
0100
0010
0001
,
0010
1000
0010
0001
0010
0100
1000
0001
0100
0010
1000
0001
0100
0010
1000
0100
,
0010
0100
1000
0010
1000
0100
0010
0001
0100
0010
1000
0001
0100
0010
1000
0100
,
1000
0100
0010
0001
0010
0001
1000
0001
0100
0010
1000
0100
1000
0010
0100
0010
,
1000
0001
0100
0001
1000
0010
0100
0001
0100
0010
1000
0100
0010
0001
0010
0100
,
1000
0100
0010
0100
1010
0100
1010
0100
1000
0011
0100
0011
0100
0011
0100
0011
,
1000
0100
0010
0001
1100
0010
1100
0010
0100
0001
1010
0001
1010
0001
1010
0001
,
1000
0100
0010
0001
1000
0010
0100
0001
1000
0100
0010
0001
1000
0010
1000
0010
,
0100
0001
0100
0001
1000
0001
1000
0001
0100
0001
0010
0001
0100
0001
1000
0001
,
1000
0100
0010
0001
0010
0001
0010
0001
1000
0010
1000
0010
1000
0010
0100
0001
,
1000
0010
0100
0001
1000
0001
0100
0001
1000
0010
0100
0001
0100
0010
1000
0010
,
0100
0001
0010
0100
0010
0001
1000
0010
1000
0100
1000
0001
0010
0100
0010
0001
,
0100
0010
1000
0001
0010
0001
0010
0100
1000
0010
0100
0001
1000
0001
0010
0001
,
1000
0010
1000
0001
0200
0000
0000
0000
0000
0000
0000
0000
0020
0000
0000
0000
,
0000
0000
0000
0300
0130
0010
0100
0010
1000
0001
1000
0001
1000
0100
0001
0100
,
1010
0101
1010
0101
1111
0000
0000
0000
0000
0000
0000
0000
0000
0000
0000
0000
;
