#VERSION:0.83;
#TITLE:Kill the Beat;
#SUBTITLE:;
#ARTIST:lapix;
#TITLETRANSLIT:;
#SUBTITLETRANSLIT:;
#ARTISTTRANSLIT:;
#GENRE:Jazz Funk;
#CREDIT:DANCERUSH STARDOM;
#MUSIC:lapix - Kill the Beat.ogg;
#BANNER:banner.png;
#BACKGROUND:bg.png;
#CDTITLE:CDTITLE.png;
#SAMPLESTART:27.490;
#SAMPLELENGTH:17.000;
#SELECTABLE:YES;
#OFFSET:0.000;
#BPMS:0.000=120.000;
#STOPS:;
#SPEEDS:0.000=1.000=0.000=0;
#SCROLLS:0.000=1.000;
#TICKCOUNTS:0.000=4;
#TIMESIGNATURES:0.000=4=4;
#LABELS:0.000=Song Start;
#COMBOS:0.000=1;
#ORIGIN:;
#PREVIEWVID:;
#JACKET:jacket.jpg;
#CDIMAGE:;
#DISCIMAGE:;
#BGCHANGES:;
#FGCHANGES:;

//--------------- dance-single - CND9 ----------------
#NOTEDATA:;
#STEPSTYPE:dance-single;
#DESCRIPTION:CND9;
#DIFFICULTY:Challenge;
#METER:11;
#RADARVALUES:0.940837,0.986349,0.723832,0.214091,1.294743,646,543,71,21,10,35,0,0,13,0.940837,0.986349,0.723832,0.214091,1.294743,646,543,71,21,10,35,0,0,13;
#BPMS:0.000=120.000;
#SPEEDS:0.000=1.000=0.000=0,
49.750=2.000=2.000=0,
51.000=1.000=0.500=0,
51.500=4.000=0.500=0,
52.000=1.000=0.000=0,
80.000=0.000=3.000=0,
83.500=1.000=0.000=0,
111.000=4.000=1.000=0,
112.000=1.000=0.000=0
;
#SCROLLS:0.000=1.000,
3.000=0.700,
4.000=1.000,
44.000=0.000,
44.250=2.000,
44.500=0.000,
44.750=2.000,
45.000=0.000,
45.250=2.000,
45.500=0.000,
45.750=2.000,
46.000=0.000,
46.250=2.000,
46.500=0.000,
46.750=2.000,
47.000=0.000,
47.250=2.000,
47.500=0.000,
47.750=1.000,
50.500=0.000,
50.625=1.000,
50.750=0.000,
50.875=1.000,
51.000=0.000,
51.125=1.000,
75.500=0.000,
75.625=3.000,
75.750=0.000,
75.875=3.000,
76.000=1.000
;
#TICKCOUNTS:0.000=4;
#TIMESIGNATURES:0.000=4=4;
#LABELS:0.000=Song Start;
#COMBOS:0.000=1;
#CHARTNAME:;
#CHARTSTYLE:;
#CREDIT:CND9;
#NOTES:
1010
0000
1000
0001
0101
0000
0001
1000
1100
0000
1000
0001
1011
0000
0000
0000
,
1000
0010
0100
0010
0001
0000
0001
0010
1000
0010
0100
0010
0110
0000
0110
0000
,
0010
0100
0001
1000
0010
0000
0010
1000
0100
0001
0100
1000
1010
0000
1010
0000
,
1000
0100
1000
0010
0100
0000
0100
0001
0010
0001
0100
0010
1000
0100
0001
1000
,
0010
0001
0100
0010
0100
0000
0010
1000
0100
1000
0001
1000
1010
0000
1101
0000
,
0001
0100
1000
0100
0010
0000
1000
0010
0100
0010
1000
0100
1000
0010
0100
0010
,
0000
0000
0100
0001
0010
0000
0100
0010
0001
1000
0010
1000
0100
0001
1000
0010
,
0001
0100
0010
0100
0001
1000
0100
1000
0010
1000
0100
1000
0010
0100
0001
0100
,
0010
0100
0010
0100
0001
0100
0001
0100
0010
1000
0010
1000
0001
0010
0100
1000
,
0100
1000
0100
0000
1100
0000
0110
0000
0101
0000
0100
0001
0000
0010
0001
0000
,
1000
0100
1000
0000
1100
0000
0110
0000
0011
0000
0010
0001
1000
0100
0010
0001
,
1101
1101
0111
0111
1011
1011
1111
1111
,
1000
0100
0010
0100
0001
1000
0100
1000
0000
0000
1000
1000
1000
0000
1011
0000
,
1001
0001
0010
0001
1000
0000
1001
0001
0100
0010
0100
0000
1100
0000
1011
0000
,
1001
0010
0100
0010
0100
0000
1001
0100
0010
0100
0010
0000
1110
0000
0100
0100
,
1001
0010
0001
1000
0100
0000
1001
0001
0100
0010
0100
0000
0101
0000
1110
0000
,
1001
0000
0000
0000
0100
0000
0000
0000
0001
0000
0000
0000
0010
0000
0000
0000
0100
0000
0000
0000
0000
0000
0000
0000
2001
0000
0000
0000
0000
0000
0000
0000
0000
0000
0000
0000
0000
0000
0000
0000
3010
0000
0000
0000
0010
0000
0000
0000
0111
0000
0000
0000
0000
0000
0000
0000
M000
0M00
00M0
000M
0000
0000
0000
0000
,
1010
0010
0100
0001
1000
0000
0101
0001
0010
0001
1000
0000
1010
0000
0111
0000
,
1100
0100
1000
0010
0100
0000
0011
0010
0001
1000
0010
0000
1001
0000
0010
0010
,
1011
0001
0100
0010
1000
0000
1101
0100
0001
1000
0100
0000
1110
0000
0111
0000
,
20M2
00M0
0000
0M00
0M00
0000
00M0
0M00
3003
0001
0010
0100
1000
0000
0000
0000
,
0011
0010
0100
0200
1000
0000
0001
0001
0000
1000
1000
0000
1310
0000
0111
0000
,
0101
0001
0010
0020
0000
0001
0000
1000
0000
0001
1000
0000
1030
0100
0001
0100
,
1010
1000
0010
0200
1000
0000
0001
1000
0000
0001
0001
0000
0301
0100
0001
1000
,
0001
0100
1000
0000
0001
0010
1000
0000
0010
0100
0010
0001
1000
0001
0010
1000
,
1110
0100
0001
0020
0000
1000
0000
0001
0000
1000
0001
0000
0130
0010
0100
0010
,
0111
0001
1000
0200
0000
1000
0000
1000
0000
1000
1000
0001
1300
0001
0100
0001
,
1011
0000
0000
0000
1000
0000
0000
0000
0010
0000
0000
0000
0200
0000
0000
0000
0000
0000
0000
0000
0010
0000
0000
0000
1000
0000
0000
0000
1000
0000
0000
0000
0000
0000
0000
0000
0001
0000
0000
0000
0001
0000
0000
0000
0000
0000
0000
0000
F000
00F0
000F
00F0
F000
00F0
000F
00F0
F000
00F0
000F
00F0
F300
0000
0000
0000
,
0100
0100
0000
0010
0100
0000
0001
0100
0000
0001
0010
0100
1110
0000
1000
0010
,
0100
0000
0001
0100
0000
0001
1000
0000
1000
0010
0000
0101
0000
0111
0000
1101
,
0000
0000
0001
0100
0001
0010
0001
0100
0010
0000
1000
0010
1000
0001
1000
0001
,
0200
0000
0310
0000
0000
0000
1000
0100
0020
0000
0130
0000
0000
0000
1000
0100
,
0002
0000
0103
0000
0000
0000
1000
0010
0100
0010
1000
0100
0001
1000
0010
0001
,
0000
0001
0010
0100
0010
0100
1000
0100
1000
0001
1000
0001
0010
0100
1000
0100
,
0010
0000
0000
0001
0000
0000
0001
1000
0000
0000
1000
0100
0001
0100
1000
0010
,
0001
0010
0000
0010
1000
0000
1000
0010
0000
1000
0001
0000
0001
0010
0100
1000
,
0020
0000
0130
0000
0000
0000
0100
0010
1000
0010
0100
0001
0010
0001
0100
0001
,
0010
0001
0100
0010
1000
0100
1000
0000
1000
0010
0000
0101
0000
1011
0000
1110
,
0000
0000
0010
0100
0001
0100
0010
1000
0100
1000
0010
0100
0001
0010
0100
1000
,
0022
0000
0133
0000
0000
0000
1000
0010
0202
0000
0313
0000
0000
0000
0100
0010
,
0100
0001
0010
0001
0100
0001
1000
0100
1000
0010
1000
0100
0001
1000
0010
0001
,
0000
1000
0100
1000
0001
0010
0001
1000
0010
1000
0001
0100
0001
1000
0100
0010
,
0001
0000
0000
0111
0000
0000
0001
1000
0000
0000
1000
0010
0100
0010
1000
0001
,
0010
0001
0000
0001
0100
0000
0010
0100
0000
0100
0001
0000
1000
0001
0100
0001
,
0022
0000
0133
0000
2200
0000
3310
1000
0010
0100
0001
0100
0001
0010
0001
0100
,
1000
0000
0000
0000
;

//--------------- dance-single - GUEST CHART ----------------
#NOTEDATA:;
#STEPSTYPE:dance-single;
#DESCRIPTION:GUEST CHART;
#DIFFICULTY:Edit;
#METER:12;
#RADARVALUES:0,0,0,0,0;
#CHARTNAME:GUEST CHART;
#CREDIT:Wari;
#NOTES:
2100
3000
1000
0000
0102
0003
0001
0000
2010
3000
0001
0010
0100
M0M0
0100
0000
,
0010
0001
0010
0001
1000
0000
0100
0001
0010
0000
0100
0010
0001
0000
1002
0000
,
1003
0000
0010
0000
0001
0000
0010
0000
0100
M0M0
0100
0000
1000
0000
0100
0000
0010
0000
0000
0000
0100
0000
1000
0000
0020
0000
0000
0030
0011
0000
0000
0000
,
0001
0010
1000
0100
0010
0000
1000
0010
0001
0000
1000
0010
0001
1000
0001
0010
,
0100
0001
0010
0100
0001
0000
0001
0100
1000
0000
0001
0000
0101
0000
0100
0000
,
0120
0000
1030
0000
1100
0000
1000
0100
0010
0000
0010
0100
0001
0100
0001
0100
,
1000
0000
0001
0200
0010
0000
1300
0100
0001
0000
1000
0100
0010
1000
0010
1000
,
0001
0000
0100
0000
1001
0000
1000
0010
0100
0000
0001
0000
0021
0000
1000
0000
,
0130
1000
0000
1000
0010
0000
0010
0100
0000
0100
0001
0010
1000
0000
0001
0100
,
1000
0001
1000
0000
0010
0000
0100
0000
0010
0000
0100
0001
0000
0100
0001
1000
,
1100
0100
0010
0000
0011
0000
0001
0010
0100
0000
0010
1000
0000
1000
0010
0001
,
0100
0010
0100
0001
1000
0100
0010
0100
0001
0100
0010
0100
1000
0010
0100
0010
,
0001
0010
1000
0010
0001
0010
0100
1000
0001
0010
0010
0010
1000
0000
1001
0000
,
0011
MMMM
0010
0100
1000
0000
1010
MMMM
0010
0100
0001
0000
0101
0000
1001
0000
,
1010
MMMM
1000
0001
0100
0000
1010
MMMM
0001
1000
0100
0010
0100
1000
0010
0001
,
0011
MMMM
0001
0010
1000
0000
1001
MMMM
1000
0100
0002
0003
0102
0003
1002
0003
,
1010
MMMM
1000
0010
0001
0000
0011
0010
0000
0010
0001
0100
0010
0000
0110
0000
,
1002
0000
0000
0000
1003
0000
0100
0000
0001
0000
0000
0000
0101
0000
0000
0000
0100
0000
1000
0000
0020
0000
0000
0000
0100
0000
0000
0030
1000
0000
0000
0000
,
2100
0000
3001
0010
1000
0000
1010
0000
0010
0001
0100
0000
1001
1000
0001
0002
,
1010
0003
0010
0100
2000
0000
0011
0000
3010
0100
0001
0000
0020
0000
0130
1000
,
0001
0100
0000
1000
0001
0000
0010
1000
0000
0001
0100
0001
2020
0M0M
3030
0000
,
1001
0000
0001
0000
0021
0030
0010
1000
0000
1000
0010
1000
0001
0100
1000
0100
,
0010
0000
0110
0000
1001
0000
1000
0010
0000
0010
0001
0010
0100
0001
0010
0100
,
0001
0100
1000
M000
0101
0000
1000
0100
0000
1000
0100
1000
0010
0001
0010
1000
,
0100
0000
0000
0000
0010
0000
0000
0000
1001
0000
0000
0000
0001
0000
1000
0000
0100
0000
0010
0M0M
0010
0000
0100
0000
0001
0000
0010
0000
0100
0000
0000
0000
,
1001
0000
0110
0000
1001
0000
0001
0100
0000
1000
0100
0010
1000
0100
0010
0100
,
0001
0000
0100
0000
1001
0000
0001
0010
0000
0100
1000
0001
0100
1000
0001
0010
,
1010
0000
1001
0000
0012
0003
0001
0010
0000
1000
0010
0001
2000
0000
0000
0000
,
3001
0001
0000
1000
1000
0000
0001
0001
0000
0010
0100
2000
0011
3000
1000
0100
,
0010
0000
0001
0100
0000
1000
0001
0000
0010
1000
0000
0100
0000
0001
0000
0200
,
0000
0000
0310
0001
1000
0010
0001
0000
0001
0010
0100
0001
0010
0100
0001
0100
,
1000
1000
0010
0000
0101
0000
0001
1000
0001
0001
0010
0000
1100
0000
1000
0100
,
0002
0000
0203
0300
1100
0000
0100
0100
1000
0010
0001
1000
0001
0010
1000
0001
,
0000
0010
1000
0001
1000
0010
0001
1000
0010
0001
1000
0100
0010
1000
0100
0010
,
0011
0000
0000
1001
0000
0000
1000
0001
0010
0000
0001
1000
0010
0100
0001
0010
,
1000
0001
0000
0100
1000
0000
0010
0100
0001
1000
0100
0000
0001
0100
0000
2000
,
0000
0000
3010
0000
1001
0000
0001
0100
0010
1000
0001
0010
1000
0001
0100
1000
,
0010
0000
0100
0001
0010
0001
1000
0010
0100
0010
1000
0001
0010
0000
1000
0000
,
0010
0000
0001
1000
0010
0100
0001
1000
0100
0001
1000
0010
0001
0000
0100
0000
,
1000
0000
0100
0001
1000
0010
1000
0001
0010
0100
0010
0100
1000
0010
0100
0010
,
0001
0000
0001
0010
1000
0000
0001
0010
1000
0001
1000
0010
0100
1000
0010
0001
,
0010
1000
0010
0100
0001
0010
0100
1000
0010
0001
0010
0001
1000
0100
1000
0100
,
0001
0000
0010
1000
0001
0000
0100
1000
0010
0000
0100
0010
1000
0100
0001
0100
,
0010
0001
0000
1000
0010
0000
0100
0010
0100
1000
0100
0010
1000
0100
0001
0100
,
1100
0000
0010
0000
1001
0000
0001
1000
1010
0010
0001
1000
0100
0001
1000
0100
,
0001
0000
0000
0000
;

//--------------- dance-double - Dip DOWN on Mines ----------------
#NOTEDATA:;
#STEPSTYPE:dance-double;
#DESCRIPTION:Dip DOWN on Mines;
#DIFFICULTY:Medium;
#METER:8;
#RADARVALUES:0.289824,0.344075,0.050974,1.019482,0,199,194,5,100,92,3,0,0,0,0.289824,0.344075,0.050974,1.019482,0,199,194,5,100,92,3,0,0,0;
#CHARTNAME:DRS Normal;
#CHARTSTYLE:DANCE RUSH STARDOM;
#CREDIT:CND9;
#NOTES:
M002200M
M000000M
M000300M
00031000
,
00000010
00000100
00020000
M003010M
,
00000010
00001000
00020000
M000100M
,
00001000
00000100
00100000
00032000
,
00010000
00100000
00000010
00013000
,
00002000
00020000
M000000M
M003300M
,
00020000
00002000
M000000M
M003300M
,
00000200
00001000
02000300
00010000
,
03000200
00000010
M002030M
00001000
,
M000000M
00001000
00000000
00002000
,
M003000M
00010000
00000000
00020000
,
M000300M
00001000
M000000M
00031000
,
M000000M
00000000
M000000M
00000000
M000000M
00000100
00020000
00031000
,
00000020
00001030
00200000
00310000
00000020
00001030
M000000M
00000000
,
00200000
00310000
00000020
00001030
00020000
00002000
M003300M
00000000
,
00000020
00001030
00200000
00310000
00000020
00001030
M000000M
00000000
,
00000020
00001030
00200000
00310000
00000020
00001030
00010000
00001000
,
00200000
00000000
00300020
00002030
00000000
00020000
M003300M
00000000
,
00000020
00001030
00200000
00310000
00002000
00020000
M000000M
00033000
,
00000200
00000000
00020300
00032000
00000000
00000200
M000330M
00000000
,
00000020
00001030
00200000
00310000
00002000
00100000
00203000
00310000
,
00000200
00000000
00001000
00000000
00000020
00000030
M000130M
00000000
,
00200000
00000000
00002000
00000000
M001300M
00000000
00301000
00010000
,
00000200
00000000
00001000
00000000
00000020
00000030
M000130M
00000000
,
00020000
00002000
M000000M
M003300M
,
00000010
00000000
00020000
00032000
00000010
00000000
00003020
00000000
,
00010030
00000000
00000020
00002030
00100000
00000000
00203000
00310000
,
00000100
00000000
00020000
00032000
00000200
00000000
M000330M
00000000
,
00000020
00001030
00200000
00310000
00000020
00001030
M000000M
00000000
,
00000002
00001003
00000002
00001003
00000002
00001003
00000002
00002003
,
00000001
00000010
00010000
00003200
,
00020300
M000000M
00032000
M002300M
,
00032000
M000000M
00020000
M003300M
,
00000020
00001030
00200000
00310000
00000020
00001030
00200000
00320000
,
00001000
00100000
00001000
M003100M
,
00020000
00100000
00032000
00000010
,
00023000
00001000
00100000
M003100M
,
20000000
30010000
20000000
30010000
20000000
30010000
20000000
30020000
,
10000000
10000000
00100000
20030000
,
30002000
M000000M
00023000
M003000M
,
00011000
00011000
00022000
M000300M
,
M000002M
00000000
00000000
M000103M
00000000
00000000
M003020M
00000000
,
M020000M
00000000
00000000
M031000M
00000000
00000000
M001030M
00000000
,
00000010
00000100
00001000
00010000
00100000
00010000
00001000
00000100
,
00000020
00010030
00022000
00000000
,
M003300M
00000000
00000000
00000000
;

//--------------- dance-double - CND9 ----------------
#NOTEDATA:;
#STEPSTYPE:dance-double;
#DESCRIPTION:CND9;
#DIFFICULTY:Challenge;
#METER:11;
#RADARVALUES:0.750048,0.665212,0.234481,0.244676,1.019482,515,492,23,24,16,1,1,0,0,0.750048,0.665212,0.234481,0.244676,1.019482,515,492,23,24,16,1,1,0,0;
#BPMS:0.000=120.000;
#SPEEDS:0.000=1.000=0.000=0,
0.500=0.000=0.250=0,
1.000=2.000=0.000=0,
1.500=0.000=0.250=0,
2.000=3.000=0.000=0,
2.500=0.000=0.250=0,
3.000=1.000=2.000=0,
49.750=4.000=1.000=0,
50.500=1.000=0.000=0,
67.000=4.000=1.000=0,
67.750=1.000=0.000=0
;
#SCROLLS:0.000=1.000,
75.000=2.000,
75.500=0.000,
75.625=2.000,
75.750=0.000,
75.875=2.000,
76.000=1.000,
111.000=0.250,
111.750=0.600,
112.000=1.000
;
#TICKCOUNTS:0.000=4;
#TIMESIGNATURES:0.000=4=4;
#LABELS:0.000=Song Start;
#COMBOS:0.000=1;
#CHARTNAME:CND9;
#CHARTSTYLE:;
#CREDIT:CND9;
#NOTES:
00000000
00000000
00000000
00000000
,
00001000
00010000
00000100
00001000
00000000
00000000
00001000
00000100
00010000
00001000
00100000
00010000
01000000
00000000
01000000
00000000
,
00001000
00010000
00001000
01000000
00010000
00000000
01000000
00010000
00100000
00000100
00010000
00000010
00000100
00000000
00000100
00000000
,
00000100
00000010
00000100
00000001
00000100
00000000
00000001
00000010
00000100
00000010
00000001
00001000
00000100
00010000
00001000
00000000
,
00100000
01000000
00100000
10000000
00100000
00000000
00100000
01000000
10000000
01000000
00100000
00000000
00110000
00000000
00010000
00000000
,
00000000
00100000
00001000
00010000
00000000
00000000
00010000
00000100
00001000
00000000
00001000
00000000
00000001
00001000
00000001
00001000
,
00000100
00010000
00000100
00100000
00000000
00000000
00100000
00001000
00100000
00000000
00100000
01000000
10000000
00010000
10000000
00010000
,
00000000
00000000
00010000
00100000
00001000
00000000
00010000
00000100
00001000
00000000
00000100
00000000
00000010
00000001
00000010
00000001
,
00000100
00000001
00000100
00000001
00001000
00000010
00001000
00000010
00010000
00000100
00010000
00000100
00100000
00001000
01000000
00010000
,
02000000
00010000
00010000
00010000
,
03001020
00000000
00001000
00000000
00001000
00000000
00001000
00000030
,
00200100
00000100
00000100
00000100
00000100
00000100
00000100
00000100
,
00300100
00010000
00001000
00100000
00010000
01000000
00100000
10000000
MMMMMMMM
00000000
00100000
00100000
00100000
00000000
00110000
00000000
,
00100000
00001000
00010000
00001000
01000000
00000000
00001000
00010000
00000010
00010000
00000100
00000000
00010010
00000000
00001100
00000000
,
00000001
00001000
00000010
00001000
00000100
00000000
00010000
00000100
00010000
00001000
00010000
00000000
00101000
00000000
00000000
00000000
,
00001000
01000000
00010000
10000000
00100000
00000000
01000000
00010000
00100000
00001000
00010000
00000000
00010100
00000000
00101000
00000000
,
00001000
00100000
00010000
01000000
00100000
00000000
20000000
00000000
30000000
10000000
10000000
10000000
10001000
00000000
MMMMMMMM
00000000
,
10000000
00010000
00100000
00000100
00001000
00000000
00000001
00001000
00000100
00100000
00010000
00000000
00100100
00000000
00100100
00000000
,
00100000
00001000
00000100
00001000
00100000
00000000
00000100
00010000
00100000
00010000
00000100
00000000
00200000
00000000
00310000
00010000
,
10000000
00010000
00100000
00000100
00001000
00000000
00000001
00001000
00000100
00100000
00010000
00000000
01000010
00000000
01000010
00000000
,
01000000
01000000
00000000
00001000
00001000
00000000
00010000
00010000
00000000
00000100
00000100
00000000
00001100
00000000
00000000
00000000
,
00001010
00001000
00010000
00001000
00000200
00000000
00010300
00001000
00000000
00001000
00001000
00000000
00101000
00000000
00101000
00000000
,
00001000
00100000
01000000
00100000
00002000
00000000
00103000
00010000
00000000
00010000
00010000
00000000
00100000
00001000
00010000
00000100
,
00001000
00000100
00000001
00000100
00002000
00000000
00003100
00010000
00000000
00010000
00010000
00000000
00010100
00000000
00010100
00000000
,
00000100
00010000
00001000
00100000
00002000
00000000
01003000
00010000
02000000
00000000
03001000
00200000
00000000
00310000
10000000
00000000
,
10010000
00000000
00010000
00000000
00000000
00010000
00100000
00001000
00000000
00010000
00010000
00000000
00010000
00000000
00011000
00000000
,
00010000
00000010
00000100
00000001
00000100
00000010
00000000
00000010
00000000
00000100
00000010
00001000
00000100
00010000
00000010
00000100
,
00000010
00001000
00000100
00010000
00001000
00100000
00000000
00100000
00000000
00010000
01000000
00000000
00040000
00000000
00000000
00000000
,
00130000
00100000
00000000
00000100
00000100
00000000
00001000
00001000
00000000
00000010
00000010
00000000
00001001
00000000
00000001
00000010
,
00000100
00000000
00000000
00001000
00000000
00000000
00000100
00000000
00001000
00000100
00000000
00000010
00000000
00000001
00000000
00000100
,
00000000
00000000
00000100
00000010
00001000
00000100
00010000
00002000
00000000
00000000
00013000
00001000
00100000
00010000
01000000
00100000
,
02000000
00000000
13000000
00000000
00000000
00000000
01000000
00010000
00200000
00000000
10300000
00000000
00000000
00000000
00100000
00001000
,
00000200
00000000
00001300
00000000
00000000
00000000
00010000
00000100
00001000
00000010
00001000
00000001
00000100
00000010
00001000
00000100
,
00000000
00010000
00001000
00010000
00000100
00001000
00000100
00100000
00010000
01000000
00100000
10000000
01000000
00100000
00010000
00001000
,
00000100
00000000
00001000
00000010
00000000
00000000
00000010
00000100
00000000
00000000
00000010
00010000
00000100
00001000
00000010
00000100
,
00000001
00000010
00000000
00000100
00010000
00000000
00001000
00010000
00000000
00010000
00000100
00000000
00001000
00100000
00010000
01000000
,
00020000
00000000
10030000
00000000
00000000
00000000
10000000
01000000
00100000
00010000
01000000
00010000
00100000
00001000
00010000
00000100
,
00001000
00000000
00000100
00010000
00000000
00001000
00010000
00000000
00010000
00000100
00000000
00001000
00000000
00000010
00000000
00001000
,
00000000
00000000
00001000
00000100
00010000
00001000
00100000
00010000
10000000
00000000
10000000
00100000
01000000
00010000
00100000
00001000
,
00000200
00000000
00000301
00000000
00000000
00000000
00001000
00000010
00000002
00000000
00000013
00000000
00000000
00000000
00010000
00001000
,
00200000
00000000
10300000
00000000
00020000
00000000
01030000
10000000
01000000
10000000
00100000
10000000
00010000
01000000
00001000
00000000
,
00010000
00001000
00010000
00000010
00001000
00000010
00000100
00000001
00000100
00000001
00001000
00000100
00010000
00001000
00010000
00000010
,
00001000
00000000
00001000
00000001
00000000
00000000
00000001
00000010
00000000
00000000
00000001
00001000
00000010
00001000
00000001
00000010
,
00000100
00001000
00000000
00001000
00000100
00000000
00000100
00010000
00000000
00010000
00000010
00000000
00000010
01000000
00000000
01000000
,
00020000
00030100
00002000
00013000
02000000
13000000
00200000
01300000
,
00001000
00000000
00000000
00000000
;
