#TITLE:Initiation;
#SUBTITLE:;
#ARTIST:BEMANI Sound Team "謎の勢力";
#TITLETRANSLIT:;
#SUBTITLETRANSLIT:;
#ARTISTTRANSLIT:BEMANI Sound Team Nazo no seiryoku;
#GENRE:00's TECHNO;
#CREDIT:from Beatmania IIDX 25 CANNON BALLERS;
#BANNER:banner.png;
#BACKGROUND:bg.png;
#LYRICSPATH:;
#CDTITLE:CDTITLE.png;
#MUSIC:Initiation.ogg;
#OFFSET:-0.001000;
#SAMPLESTART:14.249000;
#SAMPLELENGTH:12.750000;
#LASTBEATHINT:340.000000;
#SELECTABLE:YES;
#BPMS:0.000000=160.000000
;
#STOPS:
;
#BGCHANGES:0.000=initiation.mp4=1.000=0=0=1=====,
99999=-nosongbg-=1.000=0=0=0 // don't automatically add -songbackground-
;
#KEYSOUNDS:;
#ATTACKS:;

//---------------dance-single - FOR EVER----------------
#NOTES:
     dance-single:
     CND9:
     Challenge:
     13:
     0.978078,1.164062,0.172287,0.269667,1.505641,914.000000,891.000000,23.000000,36.000000,0.000000,15.000000,0.978078,1.164062,0.172287,0.269667,1.505641,914.000000,891.000000,23.000000,36.000000,0.000000,15.000000:
0000
0000
0000
0000
,
0001
0000
0000
0100
0100
0000
1000
0000
0001
0000
0000
0001
0010
0001
0100
0010
,
1000
0000
0000
0010
1000
0000
0010
0000
0100
0100
0000
0001
0010
0001
0100
0100
,
0001
0000
0000
0100
0100
0000
1000
0000
0001
0000
0000
0001
0010
0001
0100
0010
,
1000
0000
0000
1000
0010
0000
1000
0000
0010
0010
0000
0001
0010
0001
0100
0010
,
1010
0000
0000
1000
0010
0000
0010
0000
0001
0000
0000
0001
0010
0001
1000
0100
,
0100
0000
0000
0001
1000
0000
0100
0000
1000
0100
0000
1000
0001
0100
0001
1000
,
0010
0000
0000
0000
0000
0000
1000
0000
0000
0100
0000
0000
1000
0000
0000
0001
0000
0000
0010
0000
0000
0001
0000
0000
0011
0000
0000
0000
0000
0000
0000
0000
0000
1001
0000
0000
0000
0000
0000
0000
0011
0000
0000
0000
0011
0000
0000
0000
,
0011
0000
0000
0000
0000
0000
0000
0000
0000
1001
0000
0000
0000
0000
0000
0000
0011
0000
0000
0000
0011
0000
0000
0000
0011
0000
0000
0000
1010
0000
0000
0000
1100
0000
0000
0000
1010
0000
0000
0000
1001
0000
0000
0000
0101
0000
0000
0000
,
0011
0000
0000
0000
,
1000
0010
0100
0010
1000
0100
0010
0001
1000
0010
0100
0010
1000
0100
0010
0001
,
1000
0010
0100
0010
1000
0100
0010
0001
1000
0010
0100
0010
1000
0100
0010
0001
,
1000
0010
0100
0010
1000
0100
0010
0001
1000
0010
0100
0010
1000
0100
0010
0001
,
1000
0010
0100
0010
1000
0100
0010
0001
1000
0010
0100
0010
1000
0100
0010
0001
,
1000
0001
0100
0001
0010
0001
0100
0010
1000
0001
0100
0001
0010
0001
0100
0010
,
1000
0001
0100
0001
0010
0001
0100
0010
1000
0001
0100
0001
0010
0001
0100
0010
,
1000
0001
0100
0001
0010
0001
0100
0010
1000
0001
0100
0001
0010
0001
0100
0010
,
1000
0001
0100
0001
0010
0001
0100
0010
1000
0001
0100
0001
0010
0001
0100
0010
,
1000
0001
1000
0100
1000
0010
0100
0010
1000
0001
1000
0100
1000
0010
0100
0010
,
1000
0001
1000
0100
1000
0010
0100
0010
1000
0001
1000
0100
1000
0100
0010
0001
,
0100
0001
0100
0010
1000
0001
1000
0010
0100
0001
0100
0010
1000
0001
1000
0010
,
0100
0001
0100
0010
1000
0001
1000
0010
0100
0001
0100
0010
1000
0001
1000
0001
,
1000
0001
1000
0100
1000
0010
0100
0010
1000
0001
1000
0100
1000
0100
0010
0001
,
1000
0001
1000
0100
1000
0010
0100
0010
1000
0001
1000
0100
1000
0100
0010
0000
,
1000
0100
0010
0000
1000
0100
0010
0000
1000
0100
0010
0000
1000
0100
0010
0000
,
1000
0100
1000
0100
1000
0100
1000
0100
1000
1000
1000
1000
2000
0000
0000
0000
,
3010
0000
0000
0000
1010
0000
0000
1000
0001
0010
0000
0010
0000
1000
0100
0000
,
0000
0010
0010
0000
0100
0000
0001
0000
1000
0000
0000
0100
0000
0100
0001
0000
,
1000
0000
0000
0000
1001
0000
0000
0001
0100
0100
0000
1000
0000
0010
1000
0000
,
0000
0010
0010
0000
0001
0000
0100
0000
0010
0000
0000
0010
0000
0000
0010
0000
,
2010
0000
0000
3000
1200
0000
0000
0300
0100
1000
0010
0100
0001
0100
0100
1000
,
0000
0010
1000
0001
0100
0100
1000
0000
1010
0000
0000
0010
0000
1000
0001
0000
,
1200
0000
0000
0300
0201
0000
0000
0301
0010
0010
0000
1000
0000
0010
0200
0000
,
0000
0300
0000
0000
0000
0000
0000
0000
0000
0000
0000
0000
0000
0000
0000
0000
,
1000
0001
1000
0100
1000
0010
0100
0010
1000
0001
1000
0100
1000
0010
0100
0010
,
1000
0001
1000
0100
1000
0010
0100
0010
1000
0001
1000
0100
1000
0001
1000
0001
,
1000
0001
1000
0100
1000
0001
1000
0001
1000
0001
1000
0100
1000
0001
1000
0001
,
1000
0001
1000
0100
1000
0001
1000
0001
1000
0001
1000
0100
1000
0001
1000
0010
,
1000
0001
1000
0100
1000
0001
1000
0010
1000
0001
1000
0100
1000
0001
1000
0010
,
1000
0001
1000
0100
1000
0001
1000
0010
1000
0001
0010
0001
1000
0100
1000
0010
,
1000
0001
1000
0100
1000
0001
1000
0010
1000
0001
0010
0001
1000
0100
1000
0010
,
1000
0001
1000
0100
1000
0001
1000
0010
1000
0001
0010
0001
1000
0100
1000
0010
,
1000
0000
0010
0000
0100
0100
0100
0000
1000
0000
0010
0000
0100
0100
0100
0000
,
1000
0000
0010
0000
0100
0100
0100
0000
1000
0000
0010
0000
1000
0100
0010
0000
,
1000
0000
0010
0000
0100
0100
0100
0000
1000
0000
0010
0000
0100
0100
0100
0000
,
1000
0000
0010
0000
0100
0100
0100
0000
1000
0000
0010
0000
1000
0001
1000
0001
,
1000
0000
0010
0000
0100
0100
0100
0000
1000
0000
0010
0000
1000
0100
0010
0000
,
1000
0000
0010
0000
0100
0100
0100
0000
1000
0000
0010
0000
1000
0100
0010
0000
,
1000
0100
0010
0000
1000
0100
0010
0000
1000
0100
0010
0000
1000
0100
0010
0000
,
1000
0100
1000
0100
1000
0100
1000
0100
1000
1000
1000
1000
2000
0000
0000
0000
,
3020
0000
0000
0000
,
0200
0000
0000
0000
0000
0000
0000
0000
0032
0000
0000
0000
0000
0000
0000
0300
,
0200
0000
2003
0000
,
0320
0000
3200
0000
,
2030
0000
0000
0000
,
0320
0000
3200
0000
,
0032
0000
0000
0000
0000
0000
0000
0300
0200
0000
0000
0000
0000
0000
0000
0000
,
0023
0000
0000
0000
0000
0000
0000
0300
0200
0000
0000
0000
0000
0000
0000
0000
,
2030
0000
0000
0000
0000
0000
0000
0000
0000
0000
0000
0000
0000
0000
0000
0300
,
0200
0000
3020
0000
,
0302
0000
0000
0000
0000
0000
0000
0030
0020
0000
0000
0000
0000
0000
0000
0000
,
0203
0000
2030
0000
,
0302
0000
0000
0000
0000
0000
0000
0000
0000
0000
0000
0003
3002
0000
0000
0000
,
0200
0000
0000
0000
0000
0000
0000
0000
0000
0000
0000
0300
0203
0000
0000
0000
,
2000
0000
0000
0000
0000
0000
0000
0000
0000
0000
0000
0000
0000
0000
0000
3000
,
2300
0000
0000
0000
0000
0000
0000
0000
0020
0000
0000
0000
0000
0000
0000
3030
,
1000
0001
1000
0100
1000
0010
0100
0010
1000
0100
1000
0010
1000
0100
0010
0001
,
1000
0010
1000
0100
1000
0010
0100
0010
1000
0001
1000
0100
1000
0100
0010
0001
,
1000
0001
0100
0010
1000
0010
0100
0010
1000
0100
1000
0010
1000
0100
0010
0001
,
1000
0001
1000
0100
1000
0010
0100
0010
1000
0001
1000
0100
1000
0100
0010
0001
,
0100
0001
0010
0001
1000
0001
0100
0010
1000
0001
0010
0001
0100
0001
0100
0010
,
1000
0010
1000
0100
1000
0010
0100
0001
1000
0010
0100
0010
1000
0100
1000
0100
,
0010
0100
1000
0100
1000
0010
0100
0010
1000
0100
0010
0100
1000
0010
0100
0010
,
1000
0100
0010
0001
1000
0100
0010
0001
1000
0010
0100
0001
1000
0010
0100
0001
,
1000
0001
1000
0010
1000
0100
0010
0100
1000
0100
1000
0010
1000
0100
0010
0001
,
1000
0001
1000
0100
1000
0010
0100
0010
1000
0001
1000
0100
1000
0100
0010
0001
,
1000
0010
0100
0010
1000
0100
0010
0100
1000
0100
1000
0010
1000
0100
0010
0001
,
1000
0001
1000
0100
1000
0010
0100
0010
1000
0001
1000
0100
1000
0100
0010
0001
,
0100
0001
0100
0001
0100
0010
1000
0010
0100
0001
1000
0010
1000
0010
1000
0010
,
0100
0010
0100
0010
1000
0001
0100
0001
0010
0001
0100
0010
1000
0001
1000
0100
,
1000
0100
1000
0100
1000
0001
0100
0001
1000
0010
1000
0100
1000
0010
0100
0010
,
1000
0100
1000
0100
1000
0010
1000
0010
0100
0001
0100
0001
1000
0100
0010
0001
,
2000
0000
0000
0000
,
0000
0000
0000
0000
,
3000
0000
0000
0000
;

//---------------dance-double - ----------------
#NOTES:
     dance-double:
     CND9:
     Challenge:
     13:
     0.864646,1.038218,0.052435,1.131103,1.168557,808.000000,801.000000,7.000000,151.000000,12.000000,1.000000,0.864646,1.038218,0.052435,1.131103,1.168557,808.000000,801.000000,7.000000,151.000000,12.000000,1.000000:
// measure 0
00000000
00000000
00000000
00000000
,  // measure 1
00000010
00000000
00000000
00010000
00001000
00000000
00100000
00000000
00001000
00000000
00000000
00010000
00000100
00001000
00000010
00001000
,  // measure 2
00000100
00000000
00000000
00010000
00001000
00000000
00100000
00000000
00001000
00010000
00000000
00000100
00001000
00000010
00000100
00000010
,  // measure 3
00010000
00000000
00000000
00001000
01000000
00000000
00100000
00000000
10000000
00000000
00000000
00010000
00100000
01000000
00100000
00010000
,  // measure 4
01000000
00000000
00000000
00010000
10000000
00000000
01000000
00000000
10000000
00100000
01000000
00010000
00100000
00001000
00100000
00010000
,  // measure 5
10000000
00000000
00000000
00010000
00100000
00000000
01000000
00000000
10000000
00100000
00000000
01000000
00001000
00010000
00001000
00100000
,  // measure 6
00010000
00000000
00000000
01000000
00010000
00000000
10000000
00000000
00010000
00100000
00000000
00001000
00010000
00000100
00010000
00000100
,  // measure 7
00001000
00000000
00000000
00000010
00000000
00000000
00000000
00000000
00000000
00001000
00000000
00000000
00000001
00000000
00000000
00000100
00000000
00000000
00000001
00000000
00000000
00000010
00000000
00000000
00000100
00000000
00000000
00000000
00000000
00000000
00000000
00000000
00000000
00000100
00000000
00000000
00000000
00000000
00000000
00000000
00000100
00000000
00000000
00000000
00000100
00000000
00000000
00000000
,  // measure 8
00000100
00000000
00000100
00000000
00000100
00000100
00010000
00010000
00000100
00001000
00001000
00000100
,  // measure 9
00100000
00000000
00000000
00000000
,  // measure 10
00100000
00001000
00010000
00000010
00000100
00000010
00000100
00000001
00001000
00000100
00010000
00001000
00100000
00001000
00100000
00000100
,  // measure 11
00001000
00000010
00000100
00000001
00000010
00000001
00000010
00000001
00001000
00000100
00010000
00001000
00010000
00001000
00010000
00001000
,  // measure 12
01000000
00010000
10000000
00100000
01000000
00100000
01000000
00100000
10000000
00010000
01000000
00001000
00010000
00001000
00010000
00001000
,  // measure 13
00000100
00000010
00000100
00000001
00000010
00001000
00000010
00001000
00000100
00010000
00001000
00100000
00010000
10000000
00010000
01000000
,  // measure 14
00001000
00100000
00010000
01000000
00100000
10000000
00100000
10000000
00001000
00010000
00000100
00001000
00000010
00000100
00000010
00000100
,  // measure 15
00000001
00001000
00000010
00010000
00001000
00100000
00001000
00100000
00010000
01000000
00100000
01000000
00010000
00100000
00010000
00100000
,  // measure 16
01000000
10000000
00100000
10000000
00010000
01000000
00010000
01000000
00001000
00100000
00001000
00010000
00000100
00001000
00000100
00001000
,  // measure 17
00000001
00000010
00000100
00000010
00000001
00000100
00000001
00000100
00000010
00010000
00001000
00000000
00001000
00000000
00001000
00000000
,  // measure 18
00020000
00000000
00032000
00000000
00103000
00010000
00100000
00000000
00002000
00000000
02003000
00000000
03010000
00100000
00010000
00000000
,  // measure 19
20000000
00000000
30020000
00000000
01030000
00100000
01000000
00000000
00020000
00000000
00230000
00000000
00301000
00010000
00000200
00000000
,  // measure 20
00020300
00000000
00032000
00000000
00013000
00000100
00010000
00000000
00000020
00000000
00002030
00000000
00003100
00000010
00000100
00000000
,  // measure 21
00002000
00000000
00003002
00000000
00000103
00000001
00000100
00000000
00000020
00000000
00002030
00000000
00003010
00010000
00001000
00100000
,  // measure 22
00020000
00000000
00230000
00000000
00310000
01000000
00010000
00000000
20000000
00000000
30200000
00000000
10300000
01000000
00200000
00000000
,  // measure 23
00320000
00000000
02030000
00000000
03001000
00010000
00001000
00000000
00200000
00000000
02300000
00000000
13000000
00010000
00200000
00000000
,  // measure 24
00301000
00010000
00000200
00000000
00010300
00001000
00200000
00000000
00301000
00010000
00000020
00000000
00010030
00001000
02000000
00000000
,  // measure 25
03001000
00010000
00001000
00010000
00001000
00010000
00001000
00010000
00001000
00010000
00001000
00010000
00002000
00000000
00000000
00000000
,  // measure 26
00013100
00000000
00000000
00000000
00010100
00000000
00000000
00010000
00000010
00000010
00000000
00000010
00000000
00000010
00001000
00000000
,  // measure 27
00000010
00001000
00000001
00000100
00000010
00000000
00001000
00000000
00000010
00000000
00000000
00000001
00000000
00000010
00001000
00000000
,  // measure 28
00000100
00000000
00000000
00000000
00000100
00000000
00000000
00000100
00010000
00010000
00000000
00010000
00000000
00010000
00000100
00000000
,  // measure 29
00000000
00010000
00010000
00000000
00010000
00000000
00001000
00000000
01000000
00000000
00000000
01000000
00000000
00000000
01000000
00000000
,  // measure 30
02020000
00000000
03030000
00000000
02020000
00000000
00030000
00000000
03010000
01000000
00100000
10000000
00100000
01000000
00010000
00000000
,  // measure 31
00010000
00100000
01000000
10000000
01000000
00100000
00010000
00000000
00201000
00000000
00301000
00000000
00010000
00000100
00001000
00000000
,  // measure 32
00002020
00000000
00003030
00000000
00002020
00000000
00003030
00000010
00000100
00000100
00000000
00000100
00000000
00000100
00002000
00000000
,  // measure 33
00000000
00003000
00000000
00000000
00000000
00000000
00000000
00000000
00000000
00000000
00000000
00000000
00000000
00000000
00000000
00000000
,  // measure 34
00200000
00000000
02300000
00000000
13000000
01000000
10000000
00000000
00020000
00000000
02030000
00000000
03001000
00100000
00001000
00100000
,  // measure 35
00M20000
00000000
00032000
00000000
00013000
00000100
00010000
00000000
00000020
00000000
00002030
00000000
00003010
00000100
00000010
00000100
,  // measure 36
00002M00
00000000
00003200
00000000
00010300
00000100
00010000
00000000
00000020
00000000
00002030
00000000
00003010
00001000
00000010
00001000
,  // measure 37
0002M000
00000000
00030200
00000000
00001300
00000100
00001000
00000000
00000020
00000000
00020030
00000000
00031000
00100000
00001000
0010M000
,  // measure 38
00020000
00000000
02030000
00000000
03010000
10000000
00010000
00000000
00200000
00000000
00302000
00000000
00013000
00001000
00010000
00001000
,  // measure 39
0000M200
00000000
00002300
00000000
00003010
00000100
00000010
00000000
00000200
00000000
00000302
00000000
00001003
00000001
00001000
00000001
,  // measure 40
0000020M
00000000
00020300
00000000
00031000
00100000
00001000
00000000
00020000
00000000
00032000
00000000
00103000
00010000
00100000
00010000
,  // measure 41
020M0000
00000000
23000000
00000000
30010000
10000000
00010000
00000000
02000000
00000000
03200000
00000000
10300000
01000000
10000000
01000000
,  // measure 42
0M020000
00000000
00230000
00000000
00301000
00010000
00001000
00000000
00020000
00000000
00030200
00000000
00001300
00000100
00001000
00000100
,  // measure 43
00000M02
00000000
00002003
00000000
00003010
00001000
00000010
00001000
0002M000
00000000
00030200
00000000
00010300
00001000
00000200
00000000
,  // measure 44
00000302
00000000
00000023
00000000
00000031
00001000
00000001
00000000
00000200
00000000
00000320
00000000
00001030
00000010
00001000
00000010
,  // measure 45
000000M2
00000000
00000203
00000000
00000310
00001000
00000010
00001000
0000M200
00000000
00000302
00000000
00001003
00000100
00010000
00001000
,  // measure 46
00200000
00000000
00320000
00000000
01030000
00010000
01000000
00010000
00200000
00000000
02300000
00000000
13000000
01000000
00200000
00000000
,  // measure 47
00302000
00000000
00023000
00000000
00030100
00001000
00000100
00001000
00000020
00000000
00020030
00000000
00030100
00001000
00000020
00000000
,  // measure 48
00010030
00001000
00200000
00000000
00301000
00010000
00000200
00000000
00010300
00001000
02000000
00000000
03001000
00010000
00000020
00000000
,  // measure 49
00010030
00001000
00010000
00001000
00010000
00001000
00010000
00001000
00010000
00001000
00010000
00001000
00020000
00000000
00000000
00000000
,  // measure 50
00030200
00000000
00000000
00000000
,  // measure 51
00000020
00000300
00000002
00000030
,  // measure 52
00002000
00000003
00000200
00003000
,  // measure 53
00020000
00000300
00002000
00030000
,  // measure 54
00000200
00003000
00000000
00000000
,  // measure 55
00000020
00000300
00002000
00000030
,  // measure 56
00000002
00003000
00000203
00000000
,  // measure 57
00002000
00000300
00200000
00003000
,  // measure 58
00020000
00300000
00000000
00000000
,  // measure 59
00000200
00030000
00002000
00000300
,  // measure 60
00000002
00003000
00000020
00000003
,  // measure 61
00000200
00000030
00000020
00000300
,  // measure 62
00000002
00000000
00000000
00000000
00000030
00000000
00000000
00000000
00000000
00000000
00000000
00000003
00000002
00000000
00000000
00000000
,  // measure 63
00002003
00000000
00000000
00000000
00000000
00003000
00002000
00000000
,  // measure 64
20003000
00000000
00000000
00000000
,  // measure 65
00020000
30000000
00200000
00030000
,  // measure 66
00302000
00000000
00023000
00000000
00030200
00000000
00002300
00000000
00003000
00000000
00000100
00001000
00000010
00000100
00000001
00000010
,  // measure 67
00000001
00000010
00000001
00000010
00000001
00000100
00000010
00001000
00000100
00010000
00000100
00010000
00000100
00001000
00000010
00000100
,  // measure 68
00000020
00000000
00020030
00000000
00030020
00000000
00002030
00000000
00003000
00000000
00000100
00010000
00001000
00100000
00010000
01000000
,  // measure 69
00100000
10000000
00100000
10000000
00010000
01000000
00001000
00100000
00001000
00010000
00001000
00010000
00000100
00001000
00000010
00000100
,  // measure 70
00000001
00000100
00000001
00000100
00000001
00000100
00000001
00000100
00000001
00000100
00000001
00000100
00000010
00001000
00000010
00001000
,  // measure 71
00000100
00001000
00000100
00001000
00000100
00001000
00000100
00001000
00000100
00001000
00000100
00001000
00000010
00001000
00000010
00001000
,  // measure 72
00000100
00010000
00000100
00010000
00000100
00010000
00000100
00010000
00000100
00010000
00000100
00010000
00000100
00010000
00000100
00010000
,  // measure 73
00001000
00100000
00010000
01000000
00100000
10000000
00010000
00100000
00001000
00010000
00000100
00001000
00000010
00000100
00000010
00001000
,  // measure 74
00000020
00000000
00002030
00000000
00003200
00000000
00002300
00000000
00003000
00000000
00000100
00001000
00000010
00000100
00000001
00000010
,  // measure 75
00000001
00001000
00000001
00001000
00000010
00010000
00000100
00001000
00000100
00010000
00000100
00010000
00001000
00010000
00000100
00001000
,  // measure 76
00000020
00000000
00002030
00000000
00023000
00000000
00032000
00000000
00003000
00000000
00000100
00001000
00000010
00000100
00000001
00000010
,  // measure 77
00000001
00000100
00000001
00000100
00000010
00010000
00001000
00100000
00010000
01000000
00001000
00100000
00010000
10000000
00100000
01000000
,  // measure 78
00001000
00010000
00001000
00010000
00001000
00010000
00001000
00010000
00001000
00010000
00001000
00010000
00000010
00001000
00000010
00001000
,  // measure 79
00000100
00010000
00000100
00010000
00000100
00010000
00000100
00010000
00000100
00010000
00000100
00010000
00001000
00010000
00001000
00010000
,  // measure 80
00100000
10000000
00100000
10000000
00100000
10000000
00100000
10000000
00100000
10000000
00100000
10000000
00100000
10000000
00100000
10000000
,  // measure 81
00100000
01000000
00010000
10000000
00100000
01000000
00010000
00100000
00001000
00010000
00000100
00001000
00000010
00001000
00000100
00001000
,  // measure 82
00000002
00000000
00000000
00000000
,  // measure 83
00000000
00000000
00000000
00000000
,  // measure 84
00000003
00000000
00000000
00000000
;
