#VERSION:0.83;
#TITLE:GOODTEK;
#SUBTITLE:GOODPUMP;
#ARTIST:EBIMAYO;
#TITLETRANSLIT:;
#SUBTITLETRANSLIT:;
#ARTISTTRANSLIT:;
#GENRE:GOODPUMP;
#ORIGIN:;
#CREDIT:GOODMEN [BOFU2015];
#BANNER:banner.png;
#BACKGROUND:bg.png;
#PREVIEWVID:;
#JACKET:jacket.png;
#CDIMAGE:;
#DISCIMAGE:;
#LYRICSPATH:;
#CDTITLE:CDTITLE.png;
#MUSIC:GOODTEK.ogg;
#OFFSET:-0.111000;
#SAMPLESTART:91.057999;
#SAMPLELENGTH:20.211000;
#SELECTABLE:YES;
#BPMS:0.000=190.000;
#STOPS:;
#DELAYS:;
#WARPS:;
#TIMESIGNATURES:0.000=4=4;
#TICKCOUNTS:0.000=4;
#COMBOS:0.000=1;
#SPEEDS:0.000=1.000=0.000=0;
#SCROLLS:0.000=1.000;
#FAKES:;
#LABELS:0.000=Song Start;
#BGCHANGES:0.000=GOODTEK.mp4=1.000=1=0=1===CrossFade==,
99999=-nosongbg-=1.000=0=0=0 // don't automatically add -songbackground-
;
#KEYSOUNDS:;
#ATTACKS:
;

//---------------dance-double - "Half Doubles"----------------
#NOTEDATA:;
#CHARTNAME:BADTEK;
#STEPSTYPE:dance-double;
#DESCRIPTION:"Half Doubles";
#CHARTSTYLE:;
#DIFFICULTY:Challenge;
#METER:12;
#RADARVALUES:0.782166,1.279152,0.274566,0.298792,0.686414,678.000000,640.000000,34.000000,37.000000,706.000000,2.000000,8.000000,0.000000,0.000000,0.782166,1.279152,0.274566,0.298792,0.686414,678.000000,640.000000,34.000000,37.000000,706.000000,2.000000,8.000000,0.000000,0.000000;
#CREDIT:CND9;
#NOTES:
// measure 0
MMMM0000
MMMM0000
MMMM0000
MMMM0000
MMMM0000
MMMM0000
MMMM0000
0000MMMM
,  // measure 1
0000MMMM
0000MMMM
0000MMMM
0000MMMM
0000MMMM
0000MMMM
0000MMMM
0000MMMM
,  // measure 2
M000000M
0M0000M0
00M00M00
000MM000
M000000M
0M0000M0
00M00M00
000MM000
,  // measure 3
000MM000
00M00M00
0M0000M0
M000000M
000MM000
00M00M00
0M0000M0
M000000M
,  // measure 4
0000MMMM
0000MMMM
0000MMMM
0000MMMM
0000MMMM
0000MMMM
0000MMMM
MMMM0000
,  // measure 5
MMMM0000
MMMM0000
MMMM0000
MMMM0000
MMMM0000
MMMM0000
MMMM0000
MMMM0000
,  // measure 6
M000000M
0M0000M0
00M00M00
000MM000
000MM000
00M00M00
0M0000M0
M000000M
,  // measure 7
M000000M
0M0000M0
00M00M00
000MM000
000MM000
00M00M00
0M0000M0
M000000M
,  // measure 8
02000000
00010000
00000000
10000000
00000000
00010000
00000000
00000100
,  // measure 9
00000000
00001000
00000000
00010000
00000000
10000000
03001000
00010000
,  // measure 10
00000200
00001000
00000000
00000001
00000000
00001000
00000000
01000000
,  // measure 11
00000000
00010000
00000000
00001000
00000300
00000001
00000100
00001000
,  // measure 12
00010000
01000000
00010000
01000000
10000000
01000000
10000000
01000000
,  // measure 13
00001000
00001000
00010000
00010000
00000100
00000001
00000100
00001000
,  // measure 14
00044000
00000000
00000000
00000000
00000000
00000000
00000000
00033000
,  // measure 15
MMMM0000
00000000
0000MMMM
MMMM0000
00000000
0000MMMM
MMMM0000
00000000
M000000M
0M0000M0
00000000
00M00M00
000MM000
00000000
00000000
00000000
,  // measure 16
1000MMMM
00100000
01000000
00100000
1000MMMM
00010000
10000000
00010000
1000MMMM
01000000
00100000
00010000
1000MMMM
00010000
10000000
00010000
,  // measure 17
0100MMMM
00100000
01000000
00010000
1000MMMM
00010000
10000000
00010000
1000MMMM
01000000
00100000
00010000
MMMM0000
0000MMMM
MMMM0000
0000MMMM
,  // measure 18
MMMM1000
00000010
00000100
00000010
MMMM1000
00000001
00001000
00000001
MMMM1000
00000100
00000010
00000001
MMMM1000
00000001
00001000
00000001
,  // measure 19
MMMM2002
00000000
MMMM0000
00000000
MMMM0000
00003003
0000MMMM
00000000
,  // measure 20
10000000
00010000
01000000
00010000
01000000
10000000
01000000
00010000
10000000
00100000
10000000
00100000
01000000
00010000
01000000
00010000
,  // measure 21
10000000
01000000
00010000
01000000
10000000
00100000
10000000
00100000
01000000
00010000
01000000
00010000
MMMM0000
0000MMMM
MMMM0000
0000MMMM
,  // measure 22
MMMM1000
00000001
00000100
00000001
MMMM0100
00001000
00000100
00000001
MMMM1000
00000010
00001000
00000010
MMMM0100
00000001
00000100
00000001
,  // measure 23
00001001
00000000
00011000
00000000
10010000
10010000
MMMMMMMM
00000000
,  // measure 24
00001000
00000000
00000100
00000000
00100000
00001000
00100000
00000000
00000100
00010000
00000100
00000000
01000000
00000000
00010000
00000000
,  // measure 25
10000000
00000000
00010000
00000000
00100000
00010000
00100000
00000000
00000100
00010000
00000100
00000000
00000020
00000000
00000000
00000030
,  // measure 26
00000001
00000010
00001000
00000010
00000001
00000100
00001000
00010000
,  // measure 27
01000000
00000000
10000000
00000000
01000000
10000000
01000000
00000000
00100000
00000000
00001000
00000000
00000200
00000000
00000300
00000000
,  // measure 28
00000000
00000000
00000001
00000100
00000000
00000000
00000000
00000000
00000010
00010000
00000000
00000000
00000000
00000000
00001000
01000000
00000000
00000000
00000000
00000000
00010000
10000000
00000000
00000000
,  // measure 29
00000000
00000000
10000000
00010000
00000000
00000000
00000000
00000000
00100000
00001000
00000000
00000000
00000000
00000000
00010000
00000100
00000000
00000000
00000000
00000000
00001000
00000010
00000000
00000000
,  // measure 30
00001000
00000010
00001000
00000010
00010000
00000100
00010000
00000100
00100000
00001000
00100000
00001000
01000000
00010000
01000000
00010000
,  // measure 31
10000000
00100000
10000000
00100000
01000000
00001000
01000000
00001000
00044000
00000000
00000000
00000000
00000000
00000000
00033000
00000000
,  // measure 32
00020000
00000000
00000000
00000000
00000000
00000000
00000000
00000000
00000000
00000000
00000000
00000000
00000200
00030000
00000002
00000000
,  // measure 33
00000000
00000000
00000000
00000300
00000200
00000000
00000000
00000003
00000002
00000000
00000000
00000300
00000200
00000003
00020000
00000000
,  // measure 34
00000000
00000000
00000000
00000000
00000000
00000000
00000000
00000000
00000000
00000300
00002000
00030000
00020000
00003000
00200000
00000000
,  // measure 35
00000000
00000000
00000000
00000000
00000000
00000000
00000000
00030000
20000000
00000000
00000000
00000000
00000000
00000000
00000000
00300000
,  // measure 36
00200000
00000000
00000000
00000000
00000000
00000000
00000000
00000000
00000000
00000000
00000000
30000000
02000000
00300000
00020000
00000000
,  // measure 37
00000000
00000000
00000000
03000000
00000020
00000000
00000000
00000030
00000020
00000000
00000000
00030000
00002000
00000030
00020000
00000000
,  // measure 38
00000000
00000000
00000000
00000000
00000000
00000000
00000000
00000000
00000000
00003000
00000200
00030000
00000020
00000300
00000002
00000000
,  // measure 39
00000000
00000000
00000000
00000000
00000000
00000000
00000000
00000030
00002000
00000000
00000000
00000000
00000000
00000003
00000000
00003000
,  // measure 40
00000200
00001000
00000010
00000001
,  // measure 41
00000010
00000000
00001000
00000000
00010000
00000000
00100000
00000300
,  // measure 42
02000000
00010000
00100000
10000000
,  // measure 43
00100000
00010000
00001000
00000010
,  // measure 44
03000100
00000000
00000000
01000000
00000000
00000000
00001000
00010000
,  // measure 45
00000000
00010100
00000000
00101000
00000000
00000000
00020000
00002000
,  // measure 46
00000000
00000000
00000000
00000000
,  // measure 47
00000000
00000000
00000000
00033000
,  // measure 48
00100010
00000000
00000000
01000100
00000000
00000000
00011000
00000000
,  // measure 49
00010000
00000000
00001000
00000000
00010000
00010000
00001000
00001000
00010000
00001000
00011000
00000000
00001000
00000000
00010000
00000000
,  // measure 50
00100100
00000000
00000000
01000010
00000000
00000000
00111100
00000000
,  // measure 51
00011000
00000000
00001000
00000000
00010000
00000000
00001000
00010000
00001000
00010000
00001000
00010000
0000MMMM
00000000
00000000
00000000
,  // measure 52
10000000
01000000
00100000
00010000
00001000
00000100
00000010
00000001
,  // measure 53
00000010
00000100
00001000
00010000
00100000
01000000
00100000
00001000
,  // measure 54
00044000
00000000
00000000
00000000
00000000
00000000
00000000
00033000
,  // measure 55
MMMM0000
00000000
0000MMMM
MMMM0000
0000MMMM
00000000
MMMMMMMM
00000000
,  // measure 56
0M001M00
00000000
00000010
00000000
0M000M01
00000010
00000001
00000000
0M000M10
00000000
00001000
00000000
0M100M00
00000000
10000000
00000000
,  // measure 57
0M100M00
00000000
00010000
00000000
0M100M00
00000000
00100000
00000000
1M000M00
00000000
00010000
00000000
1M000M00
00100000
10000000
00000000
,  // measure 58
0M100M00
00000000
00010000
00000000
0M001M00
00010000
00001000
00000000
0M000M10
00000000
00000001
00000000
0M000M10
00000000
00001000
00000000
,  // measure 59
0M010M00
00100000
1M000M00
10000000
0M100M10
00100010
MMMMMMMM
00000000
,  // measure 60
10M000M0
00000000
01000000
00000000
10M000M0
01000000
10000000
00000000
01M000M0
00000000
00010000
00000000
00M010M0
00000000
00000100
00000000
,  // measure 61
00M010M0
00000000
00010000
00000000
00M001M0
00000000
00000100
00000000
00M000M1
00000000
00000100
00000000
00M010M0
00000100
00001000
00000000
,  // measure 62
00M000M1
00000000
00000100
00000000
00M010M0
00000000
00010000
00000000
00M010M0
00010000
00001000
00000000
00M100M0
00000000
00000100
00000000
,  // measure 63
04000400
00000000
00000000
00000000
00000000
03000300
MMMMMMMM
00000000
,  // measure 64
M10MM00M
00000100
M10MM00M
00000100
M01MM00M
00000010
M01MM00M
00000010
,  // measure 65
M00MM10M
00100000
M10MM00M
00100000
M00MM10M
00100000
M20MM00M
03000000
,  // measure 66
M10MM00M
00000010
M10MM00M
00000010
M01MM00M
00000100
M01MM00M
00000100
,  // measure 67
M10MM00M
00100000
M00MM10M
00100000
M00MM10M
00000010
MMMMMMMM
00000000
,  // measure 68
0MM00MM1
0MM01MM0
0MM10MM0
1MM00MM0
,  // measure 69
1MM00MM0
0MM10MM0
0MM01MM0
0MM00MM1
,  // measure 70
00000001
00000010
00000100
00001000
00010000
00100000
01000000
10000000
,  // measure 71
00100000
10000000
00100000
10000000
00001000
01000000
00001000
01000000
00000100
00010000
00000100
00010000
00002000
00000002
00000000
00003000
,  // measure 72
MMMM1003
00000100
00000010
00000100
MMMM1000
00000001
00000010
00000100
MMMM0010
00000001
00001000
00000001
MMMM1000
00000100
00000010
00000001
,  // measure 73
MMMM0100
00000001
00000100
00000001
MMMM0010
00000100
00000010
00000100
MMMM1000
00000100
00000010
00000001
MMMM1000
00000100
00000010
00000001
,  // measure 74
MMMM1000
00000001
00000100
00000001
MMMM1000
00000001
00000100
00000001
MMMM1000
00000100
00001000
00000100
MMMM0010
00000001
00000010
00000001
,  // measure 75
MMMM1000
00000010
00000100
00000010
MMMM1000
00000001
00000100
00000010
MMMM0100
00000001
00001000
00000001
MMMM0000
00000000
00000000
00000000
,  // measure 76
1000MMMM
00100000
10000000
00100000
0001MMMM
00100000
00010000
00100000
1000MMMM
01000000
10000000
01000000
0001MMMM
01000000
00010000
01000000
,  // measure 77
1000MMMM
01000000
00100000
00010000
1000MMMM
01000000
00100000
00010000
1000MMMM
01000000
00100000
01000000
0001MMMM
01000000
00100000
01000000
,  // measure 78
1000MMMM
01000000
00100000
00010000
1000MMMM
01000000
00100000
00010000
1000MMMM
01000000
10000000
00100000
1000MMMM
00010000
10000000
00100000
,  // measure 79
1000MMMM
00100000
10000000
00100000
0001MMMM
00100000
00010000
00100000
1000MMMM
00010000
10000000
00010000
MMMMMMMM
00000000
00000000
00000000
,  // measure 80
00000020
00000100
00000000
00000001
00000000
00000100
00000000
00010000
,  // measure 81
00000000
00000000
01000000
00000000
00000000
00000000
00001000
00000000
00000000
00000000
00010000
00000030
00001000
00000000
00000000
00000000
,  // measure 82
00200000
00010000
00000000
01000000
00000000
10000000
00000000
01000000
,  // measure 83
00000000
00000000
00001000
00000000
00000000
00000000
00000100
00000000
00000000
00000000
00001000
00300000
00010000
00000000
00000000
00000000
,  // measure 84
00001000
00010000
00001000
00000100
00001000
00010000
00001000
00010000
,  // measure 85
01000000
00010000
00001000
00010000
00001000
00010000
01000000
10000000
,  // measure 86
10010000
00011000
00011000
00001001
,  // measure 87
00000001
00000001
00010000
00010000
00001000
00001000
00010000
00010000
,  // measure 88
00100010
00000000
00000000
01000100
00000000
00000000
00011000
00000000
,  // measure 89
00010000
00000000
00001000
00000000
00010000
00010000
00001000
00001000
00010000
00001000
00011000
00000000
00001000
00000000
00010000
00000000
,  // measure 90
00100100
00000000
00000000
01000010
00000000
00000000
00111100
00000000
,  // measure 91
00011000
00000000
00001000
00000000
00010000
00000000
00001000
00010000
00001000
00010000
00001000
00010000
MMMMMMMM
00000000
00000000
00000000
,  // measure 92
00000001
00000010
00000100
00001000
00010000
00100000
01000000
10000000
,  // measure 93
10000000
01000000
00100000
00010000
00001000
00000100
00000010
00000001
,  // measure 94
00000001
00000100
00000001
00000100
00000010
00010000
00000010
00010000
00001000
00100000
00001000
00100000
00010000
01000000
00010000
01000000
,  // measure 95
MMMMMMMM
00000000
MMMMMMMM
MMMMMMMM
MMMMMMMM
00000000
00000000
00000000
,  // measure 96
10000001
00000000
00000000
00000000
;
