#VERSION:0.83;
#TITLE:Even Better (ft. Sian);
#SUBTITLE:(Original Mix);
#ARTIST:Different Heaven;
#TITLETRANSLIT:;
#SUBTITLETRANSLIT:;
#ARTISTTRANSLIT:;
#GENRE:Electro;
#ORIGIN:;
#CREDIT:Ghosts & Skulls;
#BANNER:BANNER.png;
#BACKGROUND:BG.jpg;
#PREVIEWVID:;
#JACKET:JACKET.jpg;
#CDIMAGE:CDTITLE.png;
#DISCIMAGE:;
#LYRICSPATH:;
#CDTITLE:;
#MUSIC:Even Better.ogg;
#OFFSET:-0.459000;
#SAMPLESTART:47.346001;
#SAMPLELENGTH:12.000000;
#SELECTABLE:YES;
#BPMS:0.000=128.000;
#STOPS:;
#DELAYS:;
#WARPS:;
#TIMESIGNATURES:0.000=4=4;
#TICKCOUNTS:0.000=4;
#COMBOS:0.000=1;
#SPEEDS:0.000=1.000=0.000=0;
#SCROLLS:0.000=1.000;
#FAKES:;
#LABELS:0.000=Song Start;
#LASTSECONDHINT:151.000000;
#BGCHANGES:;
#KEYSOUNDS:;
#ATTACKS:
;

//---------------dance-single - cmod is easy modo----------------
#NOTEDATA:;
#CHARTNAME:Look Out There;
#STEPSTYPE:dance-single;
#DESCRIPTION:cmod is easy modo;
#CHARTSTYLE:2014ey;
#DIFFICULTY:Medium;
#METER:8;
#RADARVALUES:0.435511,0.650210,0.283129,0.388480,0.243623,463.000000,420.000000,43.000000,59.000000,0.000000,0.000000,0.000000,0.000000,0.000000,0.435511,0.650210,0.283129,0.388480,0.243623,463.000000,420.000000,43.000000,59.000000,0.000000,0.000000,0.000000,0.000000,0.000000;
#CREDIT:CND9;
#OFFSET:-0.459000;
#BPMS:0.000000=128.000000
;
#STOPS:;
#DELAYS:;
#WARPS:;
#TIMESIGNATURES:0.000000=4=4
;
#TICKCOUNTS:0.000000=4
;
#COMBOS:0.000000=1
;
#SPEEDS:0.000000=1.000000=0.000000=0
;
#SCROLLS:0.000000=1.000000
,79.000000=0.000000
,80.000000=0.750000
,81.000000=1.000000
,112.000000=0.300000
,222.000000=0.400000
,222.500000=0.500000
,223.000000=0.600000
,223.500000=0.700000
,224.000000=0.000000
,227.000000=0.200000
,228.000000=1.000000
,284.000000=0.000000
,286.500000=0.250000
,287.000000=0.500000
,288.000000=1.000000
;
#FAKES:;
#LABELS:0.000000=Song Start
;
#NOTES:
0000
0000
0000
0000
,
0000
0000
0000
0000
,
1000
0000
0010
0000
1000
0002
0000
0103
0010
0000
0010
0100
0000
0001
0000
0010
,
0100
0100
1000
0100
0001
0100
1000
0010
,
0100
0000
0001
0000
0100
0001
0000
0010
0001
0000
0001
1000
0000
0010
0100
0000
,
0000
0011
1100
0011
,
1000
1000
0001
0001
,
1000
0010
0001
1000
,
0100
0100
0001
0010
0100
0100
1000
0100
,
0020
0000
0001
0030
0020
0000
1000
0030
0020
0000
0001
0030
0020
0000
1000
0030
,
0010
0001
0010
0001
0010
0100
1000
1000
1000
1000
0000
0000
,
1010
1010
0101
1001
,
1000
0000
0010
0000
0100
0000
0000
0100
0001
0000
0002
0000
0003
1000
0000
0100
,
0010
0010
1000
0010
0010
0001
0010
1000
,
0010
0000
0001
0000
0100
0000
0000
0010
1000
0000
0002
0200
0003
0300
0000
0010
,
1000
1001
0000
0110
0000
0011
0010
0100
,
2000
3000
0200
0300
0001
0000
0000
0100
1000
0000
0001
0020
0000
0000
0030
0010
,
0011
0010
1010
0100
0101
1000
1010
1001
,
0100
0000
0001
0000
1000
0000
0000
0001
0001
0010
0100
0002
0000
0103
1000
0000
,
1010
0100
0010
1000
1001
0101
0220
0000
,
0000
0000
0000
0330
1001
0000
0000
0010
0100
0000
0100
0010
0000
1000
0000
0001
,
0010
0010
1000
0010
0010
0001
0010
0010
,
2000
0000
3002
0000
0103
0000
0000
0100
0001
0000
0001
0020
0000
0130
1000
0000
,
1000
0100
0100
0001
0100
0100
1000
0001
,
2000
0000
3200
0000
0301
0100
0000
1000
0010
0000
0010
2000
0000
3002
0000
0013
,
0001
0000
0022
0000
0000
0033
2002
0000
0000
3003
2020
0000
0000
3030
2002
0000
,
0000
3003
0020
0000
0130
0010
0000
1000
0001
0010
0100
0020
0000
0031
1000
0001
,
2002
0000
0000
0000
0000
0000
0000
0000
0000
0000
0000
0000
0000
0000
0000
3003
,
2000
0000
0000
0000
,
0000
0000
0000
0000
,
3020
0000
0000
0000
,
0000
0000
0000
0000
,
0130
0000
0001
0000
0010
0100
0000
1000
,
1000
0001
0001
0010
0000
0100
0000
1000
,
0002
0000
0000
0000
,
0000
0000
0000
0000
,
0013
0000
0001
0000
0010
0200
0300
1000
,
1000
0010
0010
0001
0000
0010
0100
0001
,
2000
0000
0000
0000
,
0000
0000
0000
0000
,
0001
0000
0001
0000
0010
0000
0000
0100
,
0010
0010
0100
0000
,
0001
0000
0001
0000
0010
0000
0000
0010
,
0001
0001
0010
0000
,
3020
0000
1000
0000
0100
0000
0000
0100
,
1000
1000
0100
0000
,
1000
0000
1000
0000
0001
0000
0000
0001
,
0100
1000
0100
0000
0100
0000
0000
0000
,
0230
0000
0000
0000
0000
0000
0000
0010
,
0010
0000
0000
0000
,
1000
0000
0000
0000
0000
0000
0000
1000
,
0010
0001
0010
0000
1000
0000
0000
0000
,
0302
0000
0000
0000
0100
0000
0100
0000
0100
0000
0020
0000
0000
0030
0020
0000
,
0000
0000
0000
0000
0000
0000
0000
0030
0020
0000
0000
0030
2000
0000
0000
0000
,
0000
0000
0000
0000
3003
0000
1000
0100
,
0000
0010
0002
0000
0200
0000
0000
0000
,
0000
0000
0000
0000
0000
0000
0000
0303
,
1000
1000
0001
0001
,
1000
0100
0001
0100
,
1000
1000
0001
0001
0100
0100
0010
0010
,
1000
0001
1000
0001
1000
0001
0010
0100
,
1000
0100
0010
0001
0010
0100
1000
1000
1000
1000
0000
0000
,
1001
1010
0101
0011
,
1000
0001
0010
0100
1000
0001
0010
0100
,
0010
0001
0000
0000
0100
1000
0000
0000
0001
0010
0100
0000
0001
0010
0100
0000
,
0010
0100
0001
0000
0100
1000
0100
0000
,
0010
0001
0010
0000
0001
0100
0001
0000
1000
0000
0010
0000
0001
0000
0010
0000
,
1000
0010
0100
0000
0101
0000
0000
0000
0100
0001
0010
0000
0011
0000
0000
0000
,
0001
0001
1000
1000
0001
0100
1000
0100
,
0010
1000
0010
0000
0101
0000
0000
0000
0001
0010
0100
1000
1100
0000
0000
0000
,
1000
0001
0010
0010
0100
0100
2200
0000
,
0000
0000
0000
0000
0000
0000
0000
0000
0000
0000
0000
3300
1001
0000
0000
0000
,
0101
0001
0100
0100
1000
0100
0001
0100
,
0000
0000
0001
0010
0010
0200
0300
0200
0000
0300
0000
0000
2000
0000
0002
0000
,
0000
0000
0000
0000
3003
0000
1000
0100
0010
0010
0000
0010
0002
0000
0003
0000
,
0110
0000
0110
0000
1010
0000
1100
2000
,
0000
0000
0000
0000
0000
0000
3100
0010
1000
0000
0010
0002
0000
0000
0003
0000
,
0011
0000
0000
0000
0101
0000
0000
0000
0100
0010
1000
0000
2000
0000
3002
0000
,
1003
0100
0010
0000
1000
0100
0010
0000
2000
0000
0000
0000
0000
0000
0000
3000
,
1001
0000
0000
0000
;

//---------------dance-single - CMods are for losers----------------
#NOTEDATA:;
#CHARTNAME:Git Bettur;
#STEPSTYPE:dance-single;
#DESCRIPTION:CMods are for losers;
#CHARTSTYLE:lol;
#DIFFICULTY:Challenge;
#METER:11;
#RADARVALUES:0.635866,0.884286,0.302883,0.447740,0.839512,676.000000,630.000000,46.000000,68.000000,12.000000,17.000000,0.000000,0.000000,0.000000,0.635866,0.884286,0.302883,0.447740,0.839512,676.000000,630.000000,46.000000,68.000000,12.000000,17.000000,0.000000,0.000000,0.000000;
#CREDIT:CND9;
#OFFSET:-0.459000;
#BPMS:0.000000=128.000000
;
#STOPS:;
#DELAYS:;
#WARPS:;
#TIMESIGNATURES:0.000000=4=4
;
#TICKCOUNTS:0.000000=4
;
#COMBOS:0.000000=1
;
#SPEEDS:0.000000=1.000000=0.000000=0
,20.000000=0.000000=0.200000=0
,20.250000=1.000000=0.500000=0
,31.000000=1.400000=8.000000=0
,44.000000=0.000000=0.000000=0
,44.020832=1.000000=4.000000=0
,80.000000=3.000000=0.000000=0
,80.500000=0.000000=1.000000=0
,80.875000=1.000000=0.100000=0
,108.000000=0.500000=4.000000=0
,152.000000=0.600000=8.000000=0
,226.500000=1.000000=1.500000=0
,236.000000=1.400000=8.000000=0
,251.000000=2.000000=0.000000=0
,251.020828=1.000000=1.000000=0
,287.000000=0.000000=0.000000=0
,287.020844=1.000000=1.000000=0
,316.000000=0.000000=8.000000=0
;
#SCROLLS:0.000000=0.200000
,7.000000=0.300000
,7.125000=0.400000
,7.250000=0.500000
,7.375000=0.600000
,7.500000=0.700000
,7.625000=0.800000
,7.750000=0.900000
,8.000000=1.000000
,224.000000=0.000000
,226.500000=0.100000
,226.750000=0.300000
,227.000000=0.400000
,227.250000=0.600000
,227.500000=0.700000
,227.750000=0.900000
,228.000000=1.000000
,247.000000=0.000000
,251.000000=1.000000
,283.750000=0.000000
,286.500000=0.500000
,287.000000=1.000000
,316.000000=0.100000
;
#FAKES:;
#LABELS:0.000000=Song Start
;
#NOTES:
0000
0000
0000
0000
,
0000
0000
0000
0000
,
0101
0000
0001
0000
0010
0100
0000
0010
0001
0100
0001
0010
0000
0100
0000
0001
,
1000
0010
0100
1000
0010
0001
1000
0100
,
0110
0000
0010
0000
1000
0100
0000
1000
0010
1000
0100
0001
0000
1000
0010
0100
,
0000
1100
0101
0011
1010
1100
0011
1001
,
1010
0000
1000
0001
0010
0001
2000
3000
1010
0000
1000
0010
0100
0001
1000
0000
,
1010
0000
1000
0001
0010
0100
2000
0000
3000
0000
0000
0000
1001
0000
0000
0000
,
1001
1001
1010
1010
1001
1001
0011
0011
,
1000
0100
0010
0001
1000
0100
0010
0001
1000
0010
1000
0001
0010
0100
0010
0001
,
1000
0100
0001
1000
0010
0001
1000
0100
0001
1000
0000
0000
,
2002
0000
0000
0000
0000
0000
0000
0000
3003
MMMM
0000
0000
,
0002
0000
0023
0000
0031
2000
0000
3001
0010
0001
0010
0100
0000
0010
0000
1000
,
0001
0100
0010
0100
0001
0100
0010
0100
0010
0100
1000
0100
0010
1000
0010
0001
,
0002
0000
0203
0000
0310
0200
0000
0301
0010
0100
0010
0002
0000
0103
0010
1000
,
0100
0010
1000
0010
0001
0100
0001
0100
1000
0100
0010
1000
0010
1000
0100
0010
,
0200
0000
0302
0000
0103
2000
0000
3010
1000
0100
0010
0200
0000
2300
0000
3010
,
1010
1010
0101
0110
1010
0011
1001
1100
,
2000
0000
3020
0000
0130
0020
0000
0130
0010
0001
0010
2000
0000
3100
0010
0001
,
0011
0000
0101
0000
0011
0000
0101
0000
2020
3000
1030
0100
0010
0001
0020
0030
,
MMMM
0000
0000
0000
0100
2000
0000
3010
0100
0001
0010
0002
0000
2003
0000
3010
,
1000
0100
0100
0001
1000
0100
0100
0001
1000
0010
0100
0001
0010
0100
1000
0010
,
0200
0000
0302
0000
0013
2000
0000
3010
0001
1000
0100
0020
0000
1030
0010
0001
,
1000
0010
0010
0001
0010
0010
1000
0001
0100
0010
0100
1000
0100
0010
1000
0100
,
1000
0001
0010
0001
1000
0100
0010
0001
1000
0010
1000
0100
1000
0001
0010
0100
,
1000
0010
1000
0010
0001
0010
0001
0010
1000
0001
0100
0001
0010
0001
0100
0010
,
2000
0000
3002
0000
0013
0200
0000
0310
0001
1000
0001
0020
0000
0031
1000
0100
,
2002
0000
0000
0000
,
3003
0000
0000
0000
,
0000
0000
0000
0000
,
2000
0000
0000
0000
,
0000
0000
0000
0000
,
0100
0000
0001
0000
0001
0100
0000
0100
,
0001
0010
0001
0010
0000
0001
0000
0100
,
0002
0000
0000
0000
,
0000
0000
0000
0000
,
0100
0000
0010
0000
0010
0100
0000
0100
,
0010
0100
0010
0010
0000
0100
0100
0010
,
0020
0000
0000
0000
,
0000
0000
0000
0000
,
3033
0000
1000
0100
0001
0100
0010
0200
,
0000
0300
0000
0000
0000
0000
0000
0020
,
0000
0000
0032
0000
0000
0000
0003
0000
0000
0200
0000
0000
0300
0000
0020
0000
,
0000
0030
0020
0000
0000
0030
0020
0000
0000
0000
0030
0000
0000
0000
0000
0000
,
0000
0000
1000
0010
0001
0010
2000
0000
,
0000
0000
3000
0000
0000
0000
0000
0200
,
0000
0300
0020
0000
0000
0000
0000
0000
0000
0000
0030
0000
0100
0000
2000
0000
,
0000
0000
0002
0000
0000
0000
0000
0000
0000
0000
0000
0000
0000
0000
0000
3003
,
0000
0000
1000
0100
0100
0001
0000
0002
,
0000
0000
0000
0003
0100
0000
0200
0000
,
0000
0000
0000
0000
0000
0300
1000
0200
,
0000
0000
0300
0020
0000
0000
0000
0030
,
0000
0000
0001
0010
0010
1000
0000
2000
,
0000
0000
0000
3000
0010
0000
0002
0000
,
0000
0000
0000
0000
0003
0000
1000
0100
,
0000
0002
0000
0000
2000
0000
0020
0000
,
0000
0000
0000
0000
0000
0000
0000
3033
,
1000
0000
0010
0000
0100
0001
0000
0010
0001
0010
0001
0100
0000
1000
0000
0100
,
0010
0000
0001
0000
0010
1000
0000
0100
0010
0001
0010
0100
0000
1000
0000
0001
,
1001
0000
1001
0000
1010
0000
0011
0100
1100
0000
1100
0000
0101
0000
1001
0000
,
0001
0100
0010
1000
0001
0100
0010
1000
0010
0100
0001
0010
0001
0100
0010
1000
,
0001
0100
1000
0001
0010
1000
0001
0100
1000
0200
0000
0000
,
0000
0000
0000
0300
,
0010
1000
0100
0010
0100
0010
0001
0100
0010
1000
0100
0010
0001
0001
0010
0100
,
1000
0100
0010
0001
1000
0100
0010
0100
1000
0010
0100
0001
0010
0001
0100
0010
,
1000
0100
0010
0001
1000
0100
0010
0100
0010
0001
0100
0010
0100
0010
1000
0100
,
1000
0010
1000
0001
1000
0100
1000
0001
0010
0100
0010
0001
1000
0100
0010
0100
,
1000
0100
0100
0001
1000
0100
0100
0001
1000
0010
0100
0001
0100
0010
0100
0001
,
1000
0010
0010
0001
1000
0010
0010
0001
1000
0100
0010
0001
0010
0001
0100
0010
,
1000
0001
0100
0010
1000
0001
0100
0010
1000
0100
0100
0001
0100
0100
1000
0001
,
0100
0010
0100
1000
0100
0010
0100
0001
0100
0001
1000
0010
1000
0100
1000
0100
,
0000
0000
0000
1001
,
1000
0010
0100
0010
1000
0100
0001
0100
1000
0100
0010
0001
0010
0001
0010
0100
,
1000
0010
0100
0001
0001
0010
0001
0100
1000
0100
0001
0100
0010
1000
0001
0010
,
0001
1000
0100
1000
0010
1000
0100
0100
0010
0010
0000
0010
0002
0000
0103
0000
,
0101
0000
0001
0100
0100
0020
0030
0020
0000
0030
0000
0000
0100
0000
1000
0000
,
0100
0000
0001
0000
0010
0000
0100
1000
0200
0000
1300
0200
0000
0000
0300
0000
,
1000
0010
1000
0010
0100
0001
0100
0001
0010
0001
0010
0001
1000
0010
1000
0010
,
1000
0001
1000
0001
1000
0001
2000
0002
0100
0000
0000
0000
0010
0000
0010
3003
,
MMMM
0000
0000
0000
;

//---------------dance-double - omae wa mou cmoderu----------------
#NOTEDATA:;
#CHARTNAME:landscapeass;
#STEPSTYPE:dance-double;
#DESCRIPTION:omae wa mou cmoderu;
#CHARTSTYLE:2014 esque;
#DIFFICULTY:Challenge;
#METER:10;
#RADARVALUES:0.617993,0.806260,0.085597,0.526752,0.734161,657.000000,644.000000,13.000000,80.000000,0.000000,0.000000,0.000000,0.000000,0.000000,0.617993,0.806260,0.085597,0.526752,0.734161,657.000000,644.000000,13.000000,80.000000,0.000000,0.000000,0.000000,0.000000,0.000000;
#CREDIT:CND9;
#OFFSET:-0.459000;
#BPMS:0.000000=128.000000
;
#STOPS:;
#DELAYS:;
#WARPS:;
#TIMESIGNATURES:0.000000=4=4
;
#TICKCOUNTS:0.000000=4
;
#COMBOS:0.000000=1
;
#SPEEDS:0.000000=1.000000=0.000000=0
,251.000000=0.000000=0.000000=0
,251.020828=1.000000=1.000000=0
,287.000000=0.000000=0.000000=0
,287.020844=1.000000=1.000000=0
;
#SCROLLS:0.000000=0.500000
,6.000000=0.800000
,8.000000=1.000000
,20.000000=0.000000
,20.250000=2.000000
,20.500000=1.000000
,40.000000=0.000000
,40.166668=2.000000
,40.333332=0.000000
,40.500000=2.000000
,40.666668=0.000000
,40.833332=2.000000
,41.000000=0.000000
,41.166668=2.000000
,41.333332=0.000000
,41.500000=2.000000
,41.666668=0.000000
,41.833332=2.000000
,42.000000=0.000000
,42.166668=2.000000
,42.333332=0.000000
,42.500000=2.000000
,42.666668=0.000000
,42.833332=2.000000
,43.000000=0.000000
,43.250000=2.000000
,43.500000=0.000000
,43.750000=2.000000
,44.000000=1.000000
,79.500000=0.250000
,80.500000=0.700000
,81.000000=1.000000
,112.000000=0.600000
,120.000000=0.500000
,224.000000=0.600000
,224.500000=0.700000
,225.000000=0.800000
,225.500000=0.900000
,226.000000=1.000000
,244.000000=0.000000
,244.166672=2.000000
,244.333328=0.000000
,244.500000=2.000000
,244.666672=0.000000
,244.833328=2.000000
,245.000000=0.000000
,245.166672=2.000000
,245.333328=0.000000
,245.500000=2.000000
,245.666672=0.000000
,245.833328=2.000000
,246.000000=0.000000
,246.166672=2.000000
,246.333328=0.000000
,246.500000=2.000000
,246.666672=0.000000
,246.833328=2.000000
,247.000000=0.000000
,247.500000=0.500000
,249.500000=0.700000
,251.000000=1.000000
,284.000000=0.600000
,287.000000=1.000000
;
#FAKES:;
#LABELS:0.000000=Song Start
;
#NOTES:
// measure 0
00000000
00000000
00000000
00000000
,  // measure 1
00000000
00000000
00000000
00000000
,  // measure 2
01000000
00000000
00001000
00000000
00100000
00010000
00000000
01000000
00100000
01000000
00100000
10000000
00000000
01000000
00000000
00010000
,  // measure 3
00000020
00100000
00001000
00010030
00002000
00100000
01000000
10003000
,  // measure 4
00010000
00000000
00100000
00000000
00001000
00000100
00000000
00000010
00000100
00000010
00000100
00000010
00000000
00001000
00000100
00000010
,  // measure 5
00000002
00001003
00010000
01000000
00010000
00001000
00000010
00000001
,  // measure 6
00000010
00000000
00010000
00000010
00010000
00010000
00000010
00000010
01000000
00000000
00010000
00010000
01000000
01000000
00010000
00010000
,  // measure 7
10000000
00000000
01000000
00100000
00010000
00100000
02000000
00000000
03000000
00000000
00000000
00000000
10010000
00000000
00000000
00000000
,  // measure 8
01010000
00101000
00010100
00001001
,  // measure 9
00000001
00000010
00000001
00000100
00000010
00001000
00000100
00010000
00001000
00100000
00010000
01000000
00100000
10000000
01000000
00100000
,  // measure 10
00010000
00000000
00001000
00000000
00000100
00000000
00000100
00000000
00001000
00000000
00010000
00000000
00100000
00000000
00100000
00000000
00010000
00000000
00001000
00000000
00000000
00001000
00000000
00000000
,  // measure 11
00001001
00000000
00000001
00001000
00000010
00001000
00000001
00000000
00000000
00000000
00000000
00000000
00002200
00000000
00000000
00003300
,  // measure 12
00000200
00000000
00020300
00000000
01030000
00020000
00000000
00031000
00100000
00001000
00100000
00002000
00000000
02003000
00000000
03100000
,  // measure 13
10000000
01000000
00100000
00001000
00000010
00000001
00001000
00000100
,  // measure 14
00200000
00000000
00302000
00000000
00013000
00000200
00000000
00000310
00000001
00000100
00000001
00000020
00000000
00000130
00001000
00010000
,  // measure 15
00100000
10000000
01000000
00010000
00000100
00010000
01000000
10000000
,  // measure 16
00020000
00000000
02030000
00000000
03010000
00200000
00000000
00301000
00100000
00001000
00100000
02000000
00000000
23000000
00000000
30010000
,  // measure 17
01000000
00100000
00010000
00000100
00000010
00001000
00100000
00010000
,  // measure 18
00200000
00000000
00300200
00000000
00010300
00000020
00000000
00001030
00000001
00001000
00000001
00000020
00000000
00001030
00010000
00100000
,  // measure 19
10000000
00000000
00010000
00000000
01000000
00000000
00010000
00000000
00000100
00000000
00000010
00010000
00001000
00010000
00000100
00000000
,  // measure 20
00000000
00000000
00000000
00000000
00002000
00000020
00003000
00001030
00000100
00001000
00000100
00020000
00000000
00032000
00000000
00103000
,  // measure 21
00010000
00001000
00000010
00001000
00010000
01000000
00010000
00001000
,  // measure 22
00000020
00000000
00002030
00000000
00003100
00000002
00000000
00000103
00010000
00000100
00010000
00002000
00000000
01003000
00100000
00010000
,  // measure 23
00001000
00010000
00000010
00100000
00000100
01000000
00100000
00010000
,  // measure 24
00002000
00000000
00203000
00000000
01300000
20000000
00000000
30010000
01000000
00001000
00100000
00002000
00000000
00023000
00000000
00030100
,  // measure 25
00001000
00001000
00000001
00000001
00000010
00000100
00100000
00010000
,  // measure 26
20000000
00000000
30020000
00000000
01030000
00002000
00000000
00003100
00000010
00000100
00000010
00002000
00000000
00003100
00000010
00000001
,  // measure 27
00001000
00000001
00010000
00001000
10000000
00010000
01000000
00001000
,  // measure 28
00021000
00001000
00100000
00100000
,  // measure 29
00001000
00001000
01000000
00001000
,  // measure 30
00230000
01000000
10000000
10000000
,  // measure 31
00010000
00010000
01000000
01000000
,  // measure 32
10300000
00000000
00100000
00000000
10000000
01000000
00000000
00010000
,  // measure 33
01000000
00010000
01000000
00100000
00000000
00001000
00000000
00001000
,  // measure 34
00000200
00001000
00000010
00000010
,  // measure 35
00001000
00001000
00000010
00000010
,  // measure 36
00000301
00000000
00001000
00000000
00010000
00002000
00003000
00100000
,  // measure 37
01000000
00100000
00010000
10000000
00000000
10000000
00100000
00010000
,  // measure 38
00000200
00100000
00010000
00010000
,  // measure 39
00100000
00001000
00000010
00010000
,  // measure 40
00000300
00000000
00010000
00001000
00000200
00000000
00010300
00001000
,  // measure 41
00000010
00000000
00001000
00000000
00010000
00000000
00100000
01000000
,  // measure 42
00000000
02000000
00000000
00000000
03000000
10000000
00000000
01000000
,  // measure 43
00000000
00010000
00000000
20000000
00000000
00000000
30000000
00000000
,  // measure 44
00000000
00000000
00100000
00010000
01000000
00000000
00002000
00000000
,  // measure 45
01000000
00000000
00010000
00000000
00000010
00000000
00000010
00003002
,  // measure 46
00000000
00000203
00000000
00000000
00000000
00000000
00001300
00010000
,  // measure 47
00002000
00000100
00000100
00100000
,  // measure 48
00003000
00000000
00100000
01000000
10000000
00200000
00300000
00200000
,  // measure 49
00000000
00300000
02000000
03020000
,  // measure 50
00100000
00000000
00100000
00000000
00001000
00000000
00031000
00000200
,  // measure 51
00000000
00000000
00000000
00000320
00000000
00000000
00000031
00000000
,  // measure 52
00000000
00000000
00000010
00000100
00001000
00200000
00300000
00200000
,  // measure 53
00000000
00300000
00020000
02000000
,  // measure 54
00000000
00000000
00000000
00000000
00000000
00030000
03000010
00001000
,  // measure 55
00000000
00020000
00000000
00200000
00000000
00000000
00030000
00000000
,  // measure 56
00310000
00000000
00010000
00000000
00010000
00000000
00020000
00000000
00130000
00001000
00010000
00000100
00000000
00000000
00000000
00000000
,  // measure 57
00101000
00000000
00100000
00000000
00001000
00010000
00000000
00001000
00000100
00001000
00000100
00000020
00000000
00002030
00000000
00003100
,  // measure 58
00100000
00000000
00001000
00000000
01000000
00010000
00000000
00100000
01000000
00100000
01000000
00020000
00000000
00032000
00000000
00013000
,  // measure 59
00000010
00000000
00000100
00000000
00001000
00010000
00000000
00001000
01000000
00000000
00100000
00000000
00010000
00001000
00000000
00000010
,  // measure 60
00000001
00000010
00000001
00000100
00000010
00001000
00000100
00010000
00001000
00100000
00010000
01000000
00100000
10000000
01000000
00100000
,  // measure 61
00010000
00001000
00000100
00000100
00001000
00010000
00100000
00100000
00010000
00001000
00000000
00000000
,  // measure 62
00011000
00000000
00010000
00010000
00001000
00010000
00002000
00000000
00000000
00000000
00003000
00000000
00010100
00000000
00000000
00000000
,  // measure 63
00010000
00000010
00000100
00000010
00000000
00001000
00000100
00000010
00000001
00001000
00000100
00010000
00000000
00010000
00001000
00100000
,  // measure 64
00010000
01000000
10000000
01000000
00000000
01000000
00100000
10000000
00010000
01000000
00001000
00010000
01000000
00100000
00001000
00010000
,  // measure 65
00000010
00000100
00000001
00000100
00000000
00000100
00001000
00010000
00100000
01000000
00010000
01000000
00000000
01000000
00001000
00010000
,  // measure 66
00000100
00001000
00000001
00000010
00000001
00000100
00000010
00010000
00001000
00000010
00000100
00010000
00001000
01000000
00010000
00000000
,  // measure 67
10000000
00100000
01000000
10000000
00000000
10000000
01000000
00010000
00100000
00001000
00010000
01000000
00000000
01000000
00010000
00001000
,  // measure 68
00010000
00000010
00000100
00000001
00000000
00000001
00000100
00001000
00010000
00000100
00001000
00000100
00100000
00001000
00100000
00010000
,  // measure 69
01000000
00010000
00100000
00001000
00000000
00001000
00010000
01000000
10000000
01000000
00100000
00010000
00000000
00010000
00000010
00001000
,  // measure 70
00010000
00001000
00100000
00010000
00000000
00010000
00100000
00001000
00010000
00001000
00010000
00001000
00001000
00010000
00010000
00000000
,  // measure 71
00000000
00000000
00001000
00010000
00010000
00000100
00000000
00000200
00000000
00000300
00000000
00000000
00000101
00000000
00000000
00000000
,  // measure 72
00000100
00000010
00001000
00000100
00000000
00000100
00000010
00000001
00000001
00000100
00000010
00001000
00000100
00010000
00001000
01000000
,  // measure 73
00100000
01000000
10000000
01000000
00000000
01000000
00100000
00010000
00000010
00001000
00000100
00000010
00000000
00000010
00000001
00000100
,  // measure 74
00000001
00000010
00000100
00001000
00000000
00001000
00000010
00010000
00001000
00100000
00010000
01000000
00100000
10000000
01000000
00100000
,  // measure 75
00010000
00000000
00100000
00010000
00100000
00002000
00000000
00003000
00002000
00000000
00003000
00100000
00010000
00000000
01000000
00000000
,  // measure 76
00100000
00000000
10000000
01000000
00100000
00000000
00010000
01000000
00200000
00000000
00300000
01000000
00200000
00000000
00310000
00000000
,  // measure 77
00011000
00000000
00010000
00001000
00000010
00000002
00000003
00000002
00000000
00000000
00000013
00000100
00001000
00000000
00002000
00000000
,  // measure 78
00003010
00000100
00000010
00001000
00000010
00010000
00000100
00100000
00002000
00000000
00000000
00000000
00010000
00000000
00010000
00000000
,  // measure 79
00013000
00000000
00000000
00000000
;
