#VERSION:0.83;
#TITLE:Doing the Things;
#SUBTITLE:;
#ARTIST:Louis Cole;
#TITLETRANSLIT:;
#SUBTITLETRANSLIT:;
#ARTISTTRANSLIT:;
#GENRE:Fusion;
#CREDIT:Life Sesh and Xtra Songs;
#MUSIC:Doing the Things.ogg;
#BANNER:banner.png;
#BACKGROUND:bg.png;
#CDTITLE:CDTITLE.png;
#SAMPLESTART:47.796;
#SAMPLELENGTH:17.298;
#SELECTABLE:YES;
#OFFSET:0.000;
#BPMS:0.000=118.000
,10.000=117.000
,12.000=120.000
,13.000=115.000
,14.000=117.000
,17.000=118.000
,22.000=120.000
,23.000=119.000
,24.000=121.000
,25.000=117.000
,28.000=121.000
,29.000=118.000
,30.000=114.000
,31.000=118.000
,33.000=119.000
,34.000=118.000
,36.000=121.000
,37.000=118.000
,38.000=119.000
,39.000=118.000
,41.000=116.000
,42.000=118.000
,46.000=117.000
,50.000=118.000
,53.000=120.000
,54.000=121.000
,55.000=118.000
,86.000=119.000
,87.000=118.000
,101.000=117.000
,102.000=119.000
,103.000=118.000
,117.000=115.000
,118.000=121.000
,119.000=117.000
,121.000=118.000
,124.000=119.000
,125.000=116.000
,126.000=118.000
,127.000=119.000
,128.000=120.000
,129.000=118.000
,133.000=117.000
,134.000=120.000
,135.000=118.000
,137.000=117.000
,139.000=118.000
,140.000=119.000
,141.000=118.000
,148.000=119.000
,149.000=116.000
,150.000=118.000
,155.000=120.000
,156.000=117.000
,158.000=118.000
,160.000=119.000
,161.000=117.000
,162.000=119.000
,163.000=118.000
,172.000=117.000
,173.000=118.000
,174.000=119.000
,177.000=120.000
,178.000=116.000
,179.000=118.000
,181.000=116.000
,182.000=118.000
,191.000=119.000
,192.000=118.000
,193.000=117.000
,194.000=119.000
,195.000=118.000
,197.000=117.000
,198.000=119.000
,199.000=118.000
,200.000=117.000
,201.000=118.000
,205.000=116.000
,208.000=118.000
,209.000=119.000
,211.000=115.000
,212.000=117.000
,213.000=119.000
;
#STOPS:;
#SPEEDS:0.000=1.000=0.000=0;
#SCROLLS:0.000=1.000;
#TICKCOUNTS:0.000=4;
#TIMESIGNATURES:0.000=4=4;
#LABELS:0.000=Song Start;
#COMBOS:0.000=1;
#ORIGIN:;
#PREVIEWVID:;
#JACKET:jacket.jpg;
#DISCIMAGE:;
#JACKET:jacket.jpg;
#CDIMAGE:;
#BGCHANGES:0.000=Doing the Things.mp4=1.000=0=0=1,
224.000=endcard.png=1.000=0=0=1,
99999.000=-nosongbg-=1.000=0=0=0=StretchNoLoop====
;
#FGCHANGES:;

//--------------- dance-single - This Time ----------------
#NOTEDATA:;
#STEPSTYPE:dance-single;
#DESCRIPTION:This Time;
#DIFFICULTY:Challenge;
#METER:10;
#RADARVALUES:0,0,0,0,0;
#BPMS:0.000=118.000
,10.000=117.000
,12.000=120.000
,13.000=115.000
,14.000=117.000
,17.000=118.000
,22.000=120.000
,23.000=119.000
,24.000=121.000
,25.000=117.000
,28.000=121.000
,29.000=118.000
,30.000=114.000
,31.000=118.000
,33.000=119.000
,34.000=118.000
,36.000=121.000
,37.000=118.000
,38.000=119.000
,39.000=118.000
,41.000=116.000
,42.000=118.000
,46.000=117.000
,50.000=118.000
,53.000=120.000
,54.000=121.000
,55.000=118.000
,86.000=119.000
,87.000=118.000
,101.000=117.000
,102.000=119.000
,103.000=118.000
,117.000=115.000
,118.000=121.000
,119.000=117.000
,121.000=118.000
,124.000=119.000
,125.000=116.000
,126.000=118.000
,127.000=119.000
,128.000=120.000
,129.000=118.000
,133.000=117.000
,134.000=120.000
,135.000=118.000
,137.000=117.000
,139.000=118.000
,140.000=119.000
,141.000=118.000
,148.000=119.000
,149.000=116.000
,150.000=118.000
,155.000=120.000
,156.000=117.000
,158.000=118.000
,160.000=119.000
,161.000=117.000
,162.000=119.000
,163.000=118.000
,172.000=117.000
,173.000=118.000
,174.000=119.000
,177.000=120.000
,178.000=116.000
,179.000=118.000
,181.000=116.000
,182.000=118.000
,191.000=119.000
,192.000=118.000
,193.000=117.000
,194.000=119.000
,195.000=118.000
,197.000=117.000
,198.000=119.000
,199.000=118.000
,200.000=117.000
,201.000=118.000
,205.000=116.000
,208.000=118.000
,209.000=119.000
,211.000=115.000
,212.000=117.000
,213.000=119.000
;
#STOPS:224.000=1.008;
#WARPS:224.000=4.000;
#SPEEDS:0.000=1.000=0.000=0,
12.000=0.600=0.500=0,
12.500=1.000=0.500=0,
13.000=0.600=0.500=0,
13.500=1.000=0.500=0,
14.000=0.600=0.500=0,
14.500=1.000=0.500=0,
15.000=0.600=0.500=0,
15.500=1.000=0.500=0,
28.000=0.600=1.000=0,
29.000=1.000=2.000=0,
45.000=0.600=0.500=0,
45.500=1.000=0.500=0,
46.000=0.600=0.500=0,
46.500=1.000=0.500=0,
58.083=0.000=2.000=0,
60.000=1.000=1.000=0,
90.000=1.500=4.000=0,
95.750=1.000=0.250=0,
131.750=1.500=0.250=0,
132.000=1.000=0.250=0,
132.250=1.500=0.250=0,
132.500=1.000=0.250=0,
135.750=1.500=0.250=0,
136.000=1.000=0.250=0,
136.250=1.500=0.250=0,
136.500=1.000=0.250=0,
147.750=1.500=0.250=0,
148.000=1.000=0.250=0,
148.250=1.500=0.250=0,
148.500=1.000=0.250=0,
151.750=1.500=0.250=0,
152.000=1.000=0.250=0,
152.250=1.500=0.250=0,
152.500=1.000=0.250=0,
186.000=2.000=0.250=0,
186.250=1.000=0.250=0,
186.500=2.000=0.250=0,
186.750=1.000=0.250=0,
187.000=2.000=0.250=0,
187.250=1.000=0.250=0,
190.000=2.000=0.250=0,
190.250=1.000=0.250=0,
190.500=2.000=0.250=0,
190.750=1.000=0.250=0,
191.000=2.000=0.250=0,
191.250=1.000=0.250=0
;
#SCROLLS:0.000=1.000,
10.000=1.009,
12.000=0.983,
13.000=1.026,
14.000=1.009,
17.000=1.000,
22.000=0.983,
23.000=0.992,
24.000=0.975,
25.000=1.009,
28.000=0.975,
29.000=1.000,
30.000=1.035,
31.000=1.000,
33.000=0.992,
34.000=1.000,
36.000=0.975,
37.000=1.000,
38.000=0.992,
39.000=1.000,
41.000=1.017,
42.000=1.000,
46.000=1.009,
53.000=0.983,
54.000=0.975,
55.000=1.000,
86.000=0.992,
87.000=1.000,
101.000=1.009,
102.000=0.992,
103.000=1.000,
117.000=1.026,
118.000=0.975,
119.000=1.009,
121.000=1.000,
122.000=0.400,
124.000=0.992,
125.000=1.017,
126.000=1.000,
127.000=0.992,
128.000=0.983,
129.000=1.000,
133.000=1.009,
134.000=0.983,
135.000=1.000,
137.000=1.009,
139.000=1.000,
140.000=0.992,
141.000=1.000,
148.000=0.992,
149.000=1.017,
150.000=1.000,
155.000=0.983,
156.000=1.009,
158.000=1.000,
160.000=0.992,
161.000=1.009,
162.000=0.992,
163.000=1.000,
172.000=1.009,
173.000=1.000,
174.000=0.992,
177.000=0.983,
178.000=1.017,
179.000=1.000,
181.000=1.017,
182.000=1.000,
191.000=0.992,
192.000=1.000,
193.000=1.009,
194.000=0.992,
195.000=1.000,
197.000=1.009,
198.000=0.992,
199.000=1.000,
200.000=1.009,
201.000=1.000,
205.000=1.017,
206.000=0.400,
208.000=1.000,
209.000=0.992,
211.000=1.026,
212.000=1.009,
213.000=0.992,
222.125=0.200
;
#TICKCOUNTS:0.000=4;
#TIMESIGNATURES:0.000=4=4;
#LABELS:0.000=Song Start;
#COMBOS:0.000=1;
#DISPLAYBPM:118.000;
#CHARTNAME:This Time;
#CREDIT:CND9;
#CHARTSTYLE:;
#NOTES:
1000
1000
0001
0001
0000
0100
1000
0100
0001
0001
0000
0001
0010
0001
0100
0001
,
1000
1000
0000
1000
0000
1000
0010
0000
0101
0000
0001
0011
0000
0001
0010
0100
,
1000
1000
0001
0001
0000
0100
1000
0100
0001
0100
0000
0001
0010
1000
0010
0001
,
0010
1000
0100
0001
,
1000
1000
0001
0001
0000
0100
1000
0100
0001
0001
0000
0001
0100
0010
0100
0001
,
1000
1000
0010
0100
0000
0100
0000
0100
0010
1000
0000
0010
0000
0000
0100
0000
,
0110
2000
3200
0320
0032
0203
0301
0000
,
2000
0000
0000
0000
3200
0000
0000
0000
0302
0000
0003
1000
0010
0001
0100
0001
,
0000
0000
1000
0000
1010
0000
0110
0000
1010
0000
0000
1000
0010
1000
0001
0010
,
0000
0010
0001
0000
0001
1000
1100
0000
1010
0000
0000
1000
0010
0100
0010
0200
,
0000
0300
0001
0000
0101
0000
0110
0000
0101
0000
0000
0001
0100
0001
0010
0001
,
0100
0000
0000
0000
1000
0000
0000
0000
0010
0000
0000
0001
0100
0010
1000
0020
,
0000
0030
0100
0000
0110
0000
0101
0000
1001
0000
0000
0001
0100
0010
0100
0002
,
0000
0003
1001
0000
1010
0000
0004
0000
0000
0003
1000
0000
0001
1000
0001
0020
,
0000
0000
0000
0030
0000
0000
0100
0000
0000
0000
0000
0000
1100
0000
0000
0000
0000
0000
1001
0000
0000
0000
0000
0000
0000
4400
0000
0000
0000
0000
0000
0000
0000
0000
0000
0000
0000
0000
0000
0000
0000
0000
3300
0000
0000
0000
0000
0000
,
0000
0000
0000
0000
1001
0000
1000
1000
0001
0100
0001
1000
0100
1000
0010
1010
,
0000
0010
0000
1010
1000
0000
0101
0000
1010
0000
0010
0100
0001
0010
0001
1000
,
0000
1100
0000
0100
1000
0010
1000
0000
1001
0000
0001
0100
0001
0010
0001
1000
,
0000
1001
0000
0001
1001
0000
1010
0000
1001
0000
0001
0100
0010
0100
0010
1000
,
0000
1010
0000
0010
0110
0000
0101
0000
1001
0000
1000
0100
0010
0001
0010
0100
,
0000
1100
0000
0100
0110
0000
0011
0000
1001
0000
1000
0100
1000
0010
1000
0001
,
0000
0011
0000
0001
0101
0100
0110
0000
1010
0000
1000
0010
0100
0001
0010
0001
,
0000
0101
0000
0100
0110
0000
1010
0000
1200
0000
0000
0000
0000
0000
0000
0000
,
0010
0000
0000
0000
0001
0000
0000
0000
1300
0100
0010
0001
1000
0001
0010
0001
,
0000
0000
0000
0000
0000
0000
0000
0001
0000
0000
0000
0000
0000
0000
0000
0000
0000
0000
0001
0000
0000
0000
0000
0000
0000
0000
0000
0000
0000
0000
0001
0000
0000
0000
0000
0000
0100
0000
0000
0000
0000
0000
0010
0000
0000
0000
0000
0000
1000
0000
0000
0000
0000
0000
0100
0000
0000
0000
0000
0000
0001
0000
0000
0000
0000
0000
0100
0000
0000
0000
0000
0000
1000
0000
0000
0000
0000
0000
0010
0000
0000
0000
0000
0000
0001
0000
0000
0000
0000
0000
0010
0000
0000
0000
0000
0000
,
0000
0010
0000
0010
0000
0010
1000
0100
1000
0001
0100
0001
1000
0100
0001
1000
,
0000
0010
0000
0001
0000
1000
0100
1000
0001
0100
0001
1000
0010
0100
0010
1000
,
0000
1000
0001
0100
0001
0010
0100
0000
1000
0000
1100
1000
0001
0100
0001
0010
,
0000
0010
0000
0010
0000
0100
0010
0001
1000
0010
0100
0001
0010
0001
1000
0010
,
0000
0010
0000
0010
0000
1000
0010
0100
0001
0010
0001
1000
0100
1000
0100
0001
,
0000
1000
0000
0010
0000
0001
0100
0000
0110
0000
0000
0000
0100
0000
0000
0000
,
0010
1000
0100
0000
0010
0001
0100
0000
0010
1000
0010
1000
0001
0010
0001
1000
,
0000
1000
0000
1000
0001
0100
0010
1000
0001
0100
0002
0000
0103
0010
0000
0001
,
0000
1000
0000
0001
0000
0010
1000
0000
1010
0000
1000
0000
0100
0010
0000
1000
,
0000
0001
0000
1000
0000
0010
0001
0000
1001
0000
1000
0000
0010
0100
0000
0001
,
0010
0100
1000
0001
0100
0010
1000
0001
0010
0001
1000
0100
1000
0010
1000
0001
,
0000
0001
0000
0001
0101
0000
0100
0000
0100
0000
0001
0100
0010
0100
1000
0001
,
0000
1000
0000
0001
0000
0010
1000
0000
1010
0000
1000
0010
1000
0100
0001
1000
,
0000
0001
0000
1000
0000
0010
0001
0000
0101
0000
0001
1000
0010
1000
0100
0020
,
0000
1000
0000
0001
0000
0000
0031
0100
0010
1000
0001
0010
0100
1000
0100
1000
,
0000
0001
0000
1000
0001
0100
0001
0010
0100
1000
0010
0100
0010
1000
0010
0100
,
0001
0010
0001
0100
0001
0010
0100
0010
0001
1000
0100
0010
0100
1000
0010
0100
,
0000
0010
0000
0100
0000
0010
1000
0000
0010
0000
0000
0000
0002
0000
0000
0023
,
0000
1030
0100
1000
0010
1000
0001
0000
0001
0000
0011
0001
1000
0010
1000
0100
,
1000
0010
1000
0001
0010
0001
0100
0001
0010
0100
1000
0010
0100
0010
1000
0001
,
0010
0100
0010
0001
0100
0010
1000
0010
1000
0001
0100
0001
1000
0100
1000
0010
,
0000
0010
0100
0001
0100
0010
1000
0100
0001
0000
1000
0000
0001
0000
0000
0100
,
0000
1000
0010
1000
0001
1000
0001
0100
1000
0000
0001
0000
1000
0000
0000
0100
,
0000
0100
0000
0100
0001
0010
0001
1000
0100
1000
0001
1000
0010
0000
0000
0010
,
0000
0010
0100
0010
1000
0100
1000
0010
0100
0001
0010
0001
1000
0000
0000
0001
,
0000
0010
0000
0001
1000
0010
1000
0001
0100
0010
0100
0001
1000
0000
0000
0010
,
0000
0010
1000
0001
0100
0001
0011
0000
1001
0000
0000
0000
1000
0000
0000
0000
,
0001
0010
0001
0010
0001
0100
0001
0100
0001
1000
0001
1000
0100
0000
0000
1000
,
0000
0000
0000
0001
0010
0100
0100
0000
1000
0000
1000
0010
1000
0000
0100
1000
,
0000
0000
0000
0000
0000
0000
0000
0000
0000
0000
0000
0000
0000
0000
0000
2000
0000
0000
0000
0000
0000
0000
0000
0000
3020
0000
0000
0000
0000
0000
0000
0000
0230
0000
0000
0000
0000
0000
0000
0000
0302
0000
0000
0000
0000
0000
0000
0000
0023
0000
0000
0000
0000
0000
0000
0000
0030
0000
0000
0000
0000
0000
0000
0000
,
0001
0000
0000
0000
0100
0000
0000
0000
0000
0000
0000
0000
0000
0000
0000
0000
1000
0000
0000
0000
0000
0000
0000
0000
0000
0000
0000
0000
0000
0000
0000
0000
0000
0000
0000
0000
0000
0000
0000
0000
0010
0000
0000
0000
0000
0000
0000
0000
0000
0000
0000
0200
0000
0000
0000
0000
0000
0000
0000
0000
0000
0000
0000
0000
0000
0000
0000
0000
0000
0000
0000
0000
0000
0000
0000
0000
0000
0000
0000
0000
0000
0000
0000
0000
0000
0000
0000
0000
0000
0000
0000
0000
0000
0000
0000
0000
,
0000
0300
0000
0000
0000
0000
0000
0000
0000
0000
0000
0000
0000
0000
0000
0000
;

//--------------- dance-double - Do it Different ----------------
#NOTEDATA:;
#STEPSTYPE:dance-double;
#DESCRIPTION:Do it Different;
#DIFFICULTY:Challenge;
#METER:11;
#RADARVALUES:0.745511,0.718498,0.28465,0.457165,1.198979,605,572,33,53,1,1,0,0,0,0.745511,0.718498,0.28465,0.457165,1.198979,605,572,33,53,1,1,0,0,0;
#BPMS:0.000=118.000
,10.000=117.000
,12.000=120.000
,13.000=115.000
,14.000=117.000
,17.000=118.000
,22.000=120.000
,23.000=119.000
,24.000=121.000
,25.000=117.000
,28.000=121.000
,29.000=118.000
,30.000=114.000
,31.000=118.000
,33.000=119.000
,34.000=118.000
,36.000=121.000
,37.000=118.000
,38.000=119.000
,39.000=118.000
,41.000=116.000
,42.000=118.000
,46.000=117.000
,50.000=118.000
,53.000=120.000
,54.000=121.000
,55.000=118.000
,86.000=119.000
,87.000=118.000
,101.000=117.000
,102.000=119.000
,103.000=118.000
,117.000=115.000
,118.000=121.000
,119.000=117.000
,121.000=118.000
,124.000=119.000
,125.000=116.000
,126.000=118.000
,127.000=119.000
,128.000=120.000
,129.000=118.000
,133.000=117.000
,134.000=120.000
,135.000=118.000
,137.000=117.000
,139.000=118.000
,140.000=119.000
,141.000=118.000
,148.000=119.000
,149.000=116.000
,150.000=118.000
,155.000=120.000
,156.000=117.000
,158.000=118.000
,160.000=119.000
,161.000=117.000
,162.000=119.000
,163.000=118.000
,172.000=117.000
,173.000=118.000
,174.000=119.000
,177.000=120.000
,178.000=116.000
,179.000=118.000
,181.000=116.000
,182.000=118.000
,191.000=119.000
,192.000=118.000
,193.000=117.000
,194.000=119.000
,195.000=118.000
,197.000=117.000
,198.000=119.000
,199.000=118.000
,200.000=117.000
,201.000=118.000
,205.000=116.000
,208.000=118.000
,209.000=119.000
,211.000=115.000
,212.000=117.000
,213.000=119.000
;
#SPEEDS:0.000=1.000=0.000=0,
59.979=0.000=0.000=0,
60.000=1.000=2.000=0,
90.000=0.000=0.000=0,
90.021=1.000=2.000=0,
207.000=0.600=0.000=0
;
#SCROLLS:0.000=1.000,
10.000=1.009,
12.000=0.000,
12.500=0.983,
13.000=0.000,
13.500=1.026,
14.000=0.000,
14.500=1.009,
17.000=1.000,
22.000=0.983,
23.000=0.992,
24.000=0.975,
25.000=1.009,
28.000=0.975,
29.000=1.000,
30.000=1.035,
31.000=1.000,
33.000=0.992,
34.000=1.000,
36.000=0.975,
37.000=1.000,
38.000=0.992,
39.000=1.000,
41.000=1.017,
42.000=1.000,
44.000=0.000,
44.500=1.000,
45.000=0.000,
45.500=1.000,
46.000=0.000,
46.500=1.009,
53.000=0.983,
54.000=0.975,
55.000=1.000,
86.000=0.992,
87.000=1.000,
101.000=1.009,
102.000=0.992,
103.000=1.000,
117.000=1.026,
118.000=0.975,
119.000=1.009,
121.000=1.000,
123.000=0.300,
124.000=0.992,
125.000=1.017,
126.000=1.000,
127.000=0.992,
128.000=0.983,
129.000=1.000,
133.000=1.009,
134.000=0.983,
135.000=1.000,
137.000=1.009,
139.000=1.000,
140.000=0.992,
141.000=1.000,
148.000=0.992,
149.000=1.017,
150.000=1.000,
155.000=0.983,
156.000=1.009,
158.000=1.000,
160.000=0.992,
161.000=1.009,
162.000=0.992,
163.000=1.000,
172.000=1.009,
173.000=1.000,
174.000=0.992,
177.000=0.983,
178.000=1.017,
179.000=1.000,
181.000=1.017,
182.000=1.000,
191.000=0.992,
192.000=1.000,
193.000=1.009,
194.000=0.992,
195.000=1.000,
197.000=1.009,
198.000=0.992,
199.000=1.000,
200.000=1.009,
201.000=1.000,
205.000=1.017,
208.000=1.000,
209.000=0.992,
211.000=1.026,
212.000=1.009,
213.000=0.992,
222.125=0.500
;
#TICKCOUNTS:0.000=4;
#TIMESIGNATURES:0.000=4=4;
#LABELS:0.000=Song Start;
#COMBOS:0.000=1;
#DISPLAYBPM:118.000;
#CHARTNAME:Do it Different;
#CREDIT:CND9;
#CHARTSTYLE:;
#NOTES:
00010000
00010000
00001000
00100000
00000000
00010000
01000000
00000000
01000000
00000000
00000000
00001000
00010000
00000010
00001000
00000000
,
00000001
00000001
00001000
00000001
00000000
00010000
00000100
00000000
00001000
00000000
00000000
00010100
00000000
00000000
00000000
00000000
,
00010000
00010000
00000100
00001000
00000000
00010000
00100000
00001000
00100000
00010000
00000000
00000100
00001000
00000100
00010000
00001000
,
00101000
00100100
00010100
00001100
,
00010000
00000100
00000010
00000100
00000000
00010000
00001000
00000000
00000010
00001000
00000000
00010000
00001000
00100000
00010000
01000000
,
00010000
01000000
00100000
01000000
00000000
01000000
10000000
10000000
01000000
00010000
00000000
00110000
00000000
00000000
00001100
00000000
,
00001000
00000100
00100000
00010000
20000000
00000000
30200000
00000000
02300000
00000000
03002000
00000000
00023000
00000000
00030000
00000000
,
00201000
00000000
00000000
00000000
01000000
00000000
00000000
00000000
10300000
00000000
00000000
10000000
00100000
01000000
00010000
00001000
,
00000000
00000000
00101000
00000000
00010000
00000000
00010100
00000000
00001000
00000000
00000000
00001000
00000100
00100000
00010000
01000000
,
00000000
01000000
00010000
00000000
01000000
10000000
01000000
00000000
00010000
00000000
00000000
01000000
00010000
00100000
00001000
00020000
,
00000000
00030000
00010000
00000000
00001100
00000000
00001000
00000000
00110000
00000000
00000000
00001000
00100000
00010000
01000000
00100000
,
10100000
00000000
00000000
00000000
00011000
00000000
00000000
00000000
01100000
00000000
00000000
01000000
00010000
00100000
00001000
00020000
,
00000000
00030000
00010100
00000000
00001000
00000000
00001010
00000000
00000100
00000000
00000000
00001000
00000010
00001000
00000100
00020000
,
00000000
00000000
00000000
00000000
00000000
00000000
00030100
00000000
00000000
00000000
00000000
00000000
00000100
00000000
00000000
00000000
00000000
00000000
00000002
00000000
00000000
00000000
00000000
00000000
00000000
00000000
00000000
00000000
00000000
00000000
00001003
00000000
00000000
00000000
00000000
00000000
00010000
00000000
00000000
00000010
00000000
00000000
00001000
00000000
00000000
00000100
00002000
00000000
,
00000002
00000000
00000000
00000000
00003000
00000000
00001003
00000000
00000000
00000000
00000000
00000000
00010100
00000000
00000000
00000000
00000000
00000000
00010000
00000000
00000000
00000000
00000000
00000000
00000000
00101000
00000000
00000000
00000000
00000000
00100000
00000000
00000000
00000000
00000000
00000000
01100000
00000000
00000000
00000000
00000000
00000000
00000000
00000000
00000000
00000000
00000000
00000000
,
00200000
00000000
00000000
00000000
10300000
00000000
00010000
00100000
00001000
00010000
00000100
00001000
00000010
00000100
00000001
00000010
,
00000000
00000010
00000000
00000001
00001000
00000000
00010100
00000000
00010100
00000000
00000000
00000100
00010000
00001000
00100000
00001000
,
00000000
00001000
00000000
00100000
00010000
00000000
01010000
00000000
01010000
00000000
01000000
00010000
00100000
00001000
00100000
00010000
,
00000000
00010000
00000000
01000000
10000000
00010000
00001000
00010000
00000100
00000000
00010000
00001000
00100000
01000000
00000000
10000000
,
00000000
10000000
00000000
01000000
00010000
00100000
00001000
00000000
00001000
00000000
00100000
00010000
00100000
00001000
00100000
00000100
,
00000000
00000100
00000000
00010000
00000010
00000100
00000101
00000000
00000101
00000000
00000001
00000010
00000001
00001000
00000100
00001000
,
00000000
00001000
00000000
00000100
00010000
00001000
00101000
00000000
00101000
00000000
00100000
00010000
01000000
00100000
00010000
10000000
,
00000000
10000000
00000000
01000000
00100000
01000000
00001000
00000000
00002000
00000000
00000000
00000000
00000000
00000000
00000000
00000000
,
02000000
00000000
00000000
00000000
00000200
00000000
03000000
00003000
01000300
00010000
00100000
00001000
00010000
00000100
00001000
00001010
,
00000000
00000000
00000000
00000000
00000010
00000000
00000000
00000000
00000000
00000000
00000000
00000000
00001000
00000000
00000000
00000000
00000000
00000000
00000000
00000000
00000000
00000100
00000000
00000000
00000001
00000000
00000000
00000000
00000100
00000000
00000000
00000000
00001000
00000000
00000000
00000000
00000000
00000000
00000000
00000000
00000000
00000000
00000000
00000000
00010100
00000000
00000000
00000000
00000100
00000000
00000000
00000000
00010000
00000000
00000000
00000000
00001000
00000000
00000000
00000000
00100000
00000000
00000000
00000000
,
00000000
00000000
00000000
00000000
00000000
00000000
00000000
00000000
00000000
00000000
00000000
00000000
00001000
00000000
00000000
00000000
00000000
00000000
00000000
00000000
00000000
00000000
00000000
00000000
00000000
00000000
00000000
00000000
00000000
00000000
00000000
00000000
00000000
00000000
00000000
00000000
00000000
00100000
00000000
00000000
00000000
00000000
00000000
00000000
00000000
00000000
00000000
00000000
00000000
00000000
00000000
00000000
00000000
00000000
00000000
00000000
00000000
00000000
00000000
00000000
01000000
00000000
00000000
00000000
00000000
00000000
00000000
00000000
00000000
00000000
00000000
00000000
00100000
00000000
00000000
00000000
00000000
00000000
00000000
00000000
00000000
00000000
00000000
00000000
00000000
00000000
00000000
00000000
00000000
00000000
00000000
00000000
00000000
00000000
00000000
00000000
00100000
00000000
00000000
00000000
00000000
00000000
00000000
00000000
00000000
00000000
00000000
00000000
00000000
00000000
00000000
00000000
00000000
00000000
00000000
00000000
00000000
00000000
00000000
00000000
00001000
00000000
00000000
00000000
00000000
00000000
00000000
00000000
00000000
00000000
00000000
00000000
00010000
00000000
00000000
00000000
00000000
00000000
00000000
00000000
00000000
00000000
00000000
00000000
00000100
00000000
00000000
00000000
00000000
00000000
00000000
00000000
00000000
00000000
00000000
00000000
00001000
00000000
00000000
00000000
00000000
00000000
00000000
00000000
00000000
00000000
00000000
00000000
00000010
00000000
00000000
00000000
00000000
00000000
00000000
00000000
00000000
00000000
00000000
00000000
00000001
00000000
00000000
00000000
00000000
00000000
00000000
00000000
00000000
00000000
00000000
00000000
,
00000000
00000000
00000000
00000000
00000000
00000000
00001000
00000000
00000000
00000000
00000000
00000000
00000000
00000000
00000000
00000000
00000000
00000000
00000001
00000000
00000000
00000000
00000000
00000000
00000000
00000000
00000000
00000000
00000000
00000000
00000010
00000000
00000000
00000000
00000000
00000000
00001000
00000000
00000000
00000000
00000000
00000000
00000000
00000000
00000000
00000000
00000000
00000000
00000100
00000000
00000000
00000000
00000000
00000000
00000000
00000000
00000000
00000000
00000000
00010000
00000000
00000000
00000000
00000000
00000000
00000000
00001000
00000000
00000000
00000000
00000000
00000000
00100000
00000000
00000000
00000000
00000000
00000000
00001000
00000000
00000000
00000000
00000000
00000000
01000000
00000000
00000000
00000000
00000000
00000000
00001000
00000000
00000000
00000000
00000000
00000000
,
00000000
00001000
00100000
00010000
00100000
01000000
00010000
00000000
10000000
00000000
00010000
00001000
00010000
00000100
00010000
00000010
,
00000000
00000000
00000000
00000000
00000000
00000000
00000010
00000000
00000000
00000000
00000000
00000000
00000000
00000000
00000000
00000000
00000000
00000000
00000010
00000000
00000000
00000000
00000000
00000000
00000000
00000000
00000000
00000000
00000000
00000000
00000000
00010000
00000000
00000000
00000000
00000000
00000100
00000000
00000000
00000000
00000000
00000000
00000000
00000000
00000000
00000000
00000000
00000000
00000010
00000000
00000000
00000000
00000000
00000000
00000000
00000000
00000000
00000000
00000000
00000000
00000000
00000000
00000000
00000000
00000000
00000000
00001010
00000000
00000000
00000000
00000000
00000000
00001000
00000000
00000000
00000000
00000000
00000000
00000000
00000100
00000000
00000000
00000000
00000000
00010000
00000000
00000000
00000000
00000000
00000000
00000010
00000000
00000000
00000000
00000000
00000000
,
00000000
00010000
00000000
00000010
00000000
00010000
00000100
00000000
00101000
00000000
00100000
00001000
00100000
00010000
01000000
00010000
,
00000000
01000000
00000000
10000000
00000000
01000000
00010000
00000000
00100000
00000000
00000000
00000000
00M00000
00000000
00000000
00000000
,
00000100
00010000
00000100
00000000
00100000
00001000
00100000
00000000
00100000
00001000
00010000
00000100
00001000
00000010
00000100
00000001
,
00000000
00001000
00000100
00010000
00002000
00000000
00013000
00001000
01000000
00010000
00200000
00000000
00302000
00203000
00300000
00001000
,
00010000
00000100
00001000
00000002
00000000
00001003
00000010
00010000
00000100
00001000
00000000
00001000
00010000
00100000
00010000
02000000
,
00000000
03000200
00000300
00020000
00000000
00030100
00001000
00000010
00000100
00000001
00000000
00001000
00000010
00001000
00000001
00001000
,
00000100
00001000
00000100
00100000
00010000
00100000
00010000
10000000
01000000
10000000
00100000
10000000
00010000
01000000
00001000
00010000
,
00000000
00010000
00000100
00010000
00000020
00000000
00010030
00001000
01000000
00010000
20000000
00000000
30002000
20003000
00000000
30010000
,
00100000
00001000
00100000
00000200
00000000
00001300
00000010
00010000
00000100
00010000
00000000
00010000
01000000
00001000
00000000
00000200
,
00000000
02000300
03000000
00020000
00000000
00130000
00010000
01000000
00100000
00000000
00000000
10000000
00100000
00000000
00010000
20000000
,
00000000
00000000
00000000
00000000
00000000
00000000
31000000
00010000
00100000
00001000
00010000
00000100
00001000
00000010
00000100
00000001
,
00000010
00000001
00001000
00000100
00020000
00000000
00000000
00000000
02030000
00000000
00000000
00000000
23000000
00000000
00000000
00000000
,
30002000
00000000
00000000
00000000
00203000
00000000
00000000
00000000
00320000
00000000
02030000
00000000
03010000
00100000
00001000
00010000
,
00000000
00000010
00000000
00010000
00000000
00000100
00001000
00000000
00000010
00000000
00010000
00000100
00001000
00000010
00001000
00000001
,
00000010
00000001
00001000
00000100
00001000
00000010
00010000
00000000
00010000
00000000
00001000
01000000
00010000
01000000
00001000
00010000
,
00000000
00010000
00000000
00000100
00000020
00000000
00000000
00000000
00000230
00000000
00000000
00000000
00020300
00000000
00000000
00000000
,
00030020
00000000
00000000
00000000
00000032
00000000
00000000
00000000
00000023
00000000
00000230
00000000
00000310
00010000
00000100
00001000
,
00000000
00000010
00001000
00000100
00001000
00010000
00001000
00000000
00000100
00000000
00100000
00000000
00000100
00000000
00000000
00010000
,
00000000
00010000
00001000
00100000
00010000
01000000
00100000
10000000
01000000
00000000
00010000
00000000
01000000
00000000
00000000
00100000
,
00000000
00100000
00000000
00100000
00000000
00001000
00100000
00001000
00010000
00000100
00010000
00001000
00000010
00000000
00000000
00000001
,
00000000
00000001
00000000
00000001
00000000
00000100
00000010
00001000
00000010
00001000
00000100
00001000
01000000
00000000
00000000
10000000
,
00000000
10000000
00000000
10000000
00000000
00010000
01000000
00001000
00010000
00001000
00100000
00001000
00000010
00000000
00000000
00000001
,
00000000
00000001
00000000
00000001
00000000
00001000
00000100
00010000
00000010
00000000
00000000
00000000
00010100
00000000
00000000
00000000
,
00000001
00000100
00000001
00000100
00000001
00000010
00000001
00000010
00000100
00001000
00000100
00001000
00010000
00000000
00000000
00100000
,
00000000
00000000
00000000
00000010
00001000
00000010
00001000
00000000
00000100
00000000
00000100
00000001
00000100
00000000
00010000
00001000
,
00000000
00000000
00000000
00000000
00000000
00000000
00000000
00000000
00000000
00000000
00000000
00000000
00000000
00000000
00000000
00000000
00000000
00000000
00000000
00000000
00000000
00000000
00000000
00000000
00000000
00000000
00000000
00000000
00000000
00000000
00000000
00000000
00000000
00000000
00000000
00000000
00000000
00000000
00000000
00000000
00000000
00000000
00000000
00000000
00000000
02000000
00000000
00000000
00000000
00000000
00000000
00000000
00000000
00000000
00000000
00000000
00000000
00000000
00000000
00000000
00000000
00000000
00000000
00000000
00000000
00000000
00000000
00000000
00000000
00000000
00000000
00000000
03020000
00000000
00000000
00000000
00000000
00000000
00000000
00000000
00000000
00000000
00000000
00000000
00000000
00000000
00000000
00000000
00000000
00000000
00000000
00000000
00000000
00000000
00000000
00000000
00230000
00000000
00000000
00000000
00000000
00000000
00000000
00000000
00000000
00000000
00000000
00000000
00000000
00000000
00000000
00000000
00000000
00000000
00000000
00000000
00000000
00000000
00000000
00000000
00302000
00000000
00000000
00000000
00000000
00000000
00000000
00000000
00000000
00000000
00000000
00000000
00000000
00000000
00000000
00000000
00000000
00000000
00000000
00000000
00000000
00000000
00000000
00000000
02003000
00000000
00000000
00000000
00000000
00000000
00000000
00000000
00020000
00000000
00000000
00000000
00000000
00000000
00000000
00000000
00000000
00000000
00000000
00000000
00000000
00000000
00000000
00000000
03030000
00000000
00000000
00000000
00000000
00000000
00000000
00000000
00000000
00000000
00000000
00000000
00000000
00000000
00000000
00000000
00000000
00000000
00000000
00000000
00000000
00000000
00000000
00000000
,
00100000
00000000
00000000
00010000
00001000
00000000
00000000
00000000
00000000
00000000
00000000
00000000
00000000
00000000
00000000
00000000
00000010
00000000
00000000
00000000
00000000
00000000
00000000
00000000
00000000
00000000
00000000
00000000
00000000
00000000
00000000
00000000
00000000
00000000
00000000
00000000
00000000
00000000
00000000
00000000
00000001
00000000
00000000
00000000
00000000
00000000
00000000
00000000
00000000
00000000
00000000
00001000
00000000
00000000
00000000
00000000
00000000
00000000
00000000
00000000
00000000
00000000
00000000
00000000
00000000
00000000
00000000
00000000
00000000
00000000
00000000
00000000
00000000
00000000
00000000
00000000
00000000
00000000
00000000
00000000
00000000
00000000
00000000
00000000
00000000
00000000
00000000
00000000
00000000
00000000
00000000
00000000
00000000
00000000
00000000
00000000
;
