#VERSION:0.83;
#TITLE:Bravely Storm;
#SUBTITLE:;
#ARTIST:Falcom Sound Team jdk;
#TITLETRANSLIT:;
#SUBTITLETRANSLIT:;
#ARTISTTRANSLIT:;
#GENRE:Soundtrack;
#CREDIT:Tokyo Xanadu;
#MUSIC:Bravely Storm.ogg;
#BANNER:banner.png;
#BACKGROUND:bg.png;
#CDTITLE:CDTITLE.png;
#SAMPLESTART:100.000;
#SAMPLELENGTH:12.000;
#SELECTABLE:YES;
#OFFSET:-0.545;
#BPMS:0.000=140.000;
#STOPS:;
#SPEEDS:0.000=1.000=0.000=0;
#SCROLLS:0.000=1.000;
#TICKCOUNTS:0.000=4;
#TIMESIGNATURES:0.000=4=4;
#LABELS:0.000=Song Start;
#COMBOS:0.000=1;
#ORIGIN:;
#PREVIEWVID:;
#JACKET:jacket.jpg;
#CDIMAGE:;
#DISCIMAGE:;
#BGCHANGES:;
#FGCHANGES:;

//--------------- dance-double - CND9 ----------------
#NOTEDATA:;
#STEPSTYPE:dance-double;
#DESCRIPTION:CND9;
#DIFFICULTY:Challenge;
#METER:11;
#RADARVALUES:0.699326,0.94373,0.1514,0.538313,1.005131,582,564,18,64,1,0,1,0,0,0.699326,0.94373,0.1514,0.538313,1.005131,582,564,18,64,1,0,1,0,0;
#OFFSET:-0.545;
#BPMS:0.000=140.000;
#SPEEDS:0.000=0.500=0.000=0,
8.000=1.000=4.000=0,
92.750=0.000=0.000=0,
92.771=1.000=2.000=0,
160.000=0.400=4.000=0,
190.000=1.000=2.000=0
;
#SCROLLS:0.000=1.000,
41.750=0.500,
42.500=1.000,
45.750=0.500,
46.500=1.000,
57.750=0.500,
58.500=1.000
;
#TICKCOUNTS:0.000=4;
#TIMESIGNATURES:0.000=4=4;
#LABELS:0.000=Song Start;
#COMBOS:0.000=1;
#CHARTNAME:CND9;
#CHARTSTYLE:;
#CREDIT:CND9;
#NOTES:
00000000
00000000
00000000
00000000
,
00000000
00000000
00000000
00000000
,
01000000
00000000
00000000
01000000
00000000
00000000
01000000
00000000
00000000
00001000
00000000
00000000
00001000
00000000
00000000
00001000
,
00000000
00000000
00010000
00000000
00000000
00001000
00000000
00000000
00000010
00000000
00000000
00001000
00000000
00000000
01000000
00000000
,
01000000
00001000
00100000
00001000
00010000
00000000
00010000
00001000
00000000
00001000
00000000
00010000
00001000
00000000
00101000
00000000
,
00001000
00010000
00000100
00001000
00000010
00000000
00000010
00001000
00000000
00001000
00000000
00000100
00010000
00000000
00101000
00000000
,
00100000
00010000
01000000
00100000
10000000
00000000
10000000
00100000
00000000
00100000
00000000
10000000
00010000
00000000
01010000
00000000
,
10000000
00010000
00100000
00001000
00000100
00010000
00100000
00001000
00010000
00000100
00001000
00000001
00000100
00001000
00000100
00010000
,
00010100
00000100
00001000
00000010
00000100
00000000
00000100
00000010
00001000
00000100
00100000
00010000
00100000
00000000
00101000
00000000
,
00100000
00001000
00010000
00000100
00001000
00000000
00001000
00000100
00010000
00001000
00100000
00010000
01000000
00000000
10010000
00000000
,
10010000
00000000
01000000
00010000
00000000
00000000
00000100
00020000
00000000
00100000
00030000
00000000
00110000
00000000
00100000
00000000
,
00100010
00000000
00000010
00001000
00000000
00000000
00010000
00002000
00000000
00000000
00003010
00000100
00000001
00000000
00000001
00000000
,
00001000
00000010
00010000
00000100
00100000
00000000
00100000
00001000
00010000
00000100
00001000
00000010
00000100
00000000
00010010
00000000
,
00000010
00010000
00001000
00100000
00010000
00000000
00010000
01000000
00100000
10000000
00010000
00100000
00001000
00000000
00011000
00000000
,
00001001
00000000
00000001
00000010
00000000
00000000
00001000
00000020
00000000
00000000
00000031
00000000
00000110
00000000
00000100
00000000
,
00011000
00000000
00001000
00100000
00000000
00000000
10000000
00100000
00001000
00010000
00000100
00001000
00000010
00000001
00000010
00001000
,
00000100
00010000
00000010
00000000
00000010
00001000
00000100
00000020
00000000
00000031
00001000
00000000
00001000
00000010
00000100
00000002
,
00000000
00000103
00000010
00000000
00001000
00000100
00000010
00000002
00000000
00001003
00000100
00010000
00001000
00100000
00010000
01000000
,
00200000
00000000
10300000
00200000
00000000
00000000
00000000
00000000
00000000
00000000
00000000
00000000
00000000
00300000
10000000
00010000
,
00200000
00000000
00300100
00002000
00000000
00000000
00000000
00000000
00000000
00000000
00000000
00000000
00000000
00000000
00000000
00003000
,
00001000
00000010
00000100
00000000
00000010
00000100
00000001
00000020
00000000
00000130
00000010
00000000
00000001
00001000
00000001
00000020
,
00000000
00000130
00001000
00000000
00001000
00000010
00000100
00000002
00000000
00000013
00000001
00000010
00000100
00000010
00001000
00000010
,
00000001
00001000
00000100
00020000
00000000
00000000
00000000
00000000
00000000
00000000
00000000
00000000
00000000
00030000
00000100
00001000
,
00000010
00000000
00001000
00000004
00000000
00000000
00000000
00000000
00000000
00000000
00000000
00000000
00000000
00000000
00000000
00000000
,
00000003
00000000
00010000
00000000
00010000
00001000
00010000
00000200
00000000
00001300
00000010
00020000
00000000
00031000
00010000
00000010
,
00010000
00000010
00001000
00000010
00010000
00000100
00002000
00000000
00000000
00003100
00000000
00000100
00010000
00001000
00100000
00010000
,
02000000
00000000
03100000
20000000
00000000
00000000
00000000
00000000
00000000
00000000
00000000
00000000
00000000
30000000
00010000
00100000
,
00002000
00000000
00013000
00000020
00000000
00000000
00000000
00000000
00000000
00000000
00000000
00000000
00000000
00000000
00000000
00000000
,
00000030
00000000
00001000
00000000
00001000
00000100
00001000
00000200
00000000
00100300
00010000
02000000
00000000
03100000
10000000
00010000
,
02000000
00000000
03000000
00020000
00000000
00000000
02030000
00000000
00000000
23000000
00000000
30010000
00000000
00000100
00010000
00001000
,
00100000
00010000
10000000
00100000
02000000
00000000
00000000
00000000
00000000
00000000
00000000
00000000
00000000
03000000
00010000
01000000
,
00200000
00000000
00000000
00000000
20300000
00000000
30000000
00100000
00002000
00000000
00000000
00003020
00000000
00000000
00001030
00000000
,
00101000
00000000
00001000
00100000
00020000
00000000
00000000
00000000
00000000
00000000
00000000
00000000
00000000
00000000
00000000
00000000
,
00000000
00000000
00000000
00000000
00000000
00000000
00000000
00000000
00000000
00000000
00000000
00000000
00000000
00000000
00000000
00031000
,
00000100
00010000
00000010
00000100
00000000
00000001
00000100
00000000
00000010
00001000
00000000
00100000
00010000
00000000
00100000
00000000
,
00000000
00100000
00000000
00001000
00100000
00010000
00100000
00001000
00010000
00000000
00000100
00001000
00000010
00000100
00000001
00010000
,
00010100
00000100
00001000
00000010
00000100
00000000
00000001
00000100
00000000
00000010
00001000
00000100
00010000
00000100
00001000
00000010
,
00001000
00000000
00000100
00010000
00000000
00001000
00100000
00000000
00001000
00010000
00000100
00001000
00000010
00000000
000M0000
00000000
,
00010000
00000100
00001000
00000010
00010000
00001000
00000000
00100000
00010000
00000000
00100000
00000000
00001000
00010000
00001000
00000000
,
00010000
00000100
00001000
00000100
00001000
00000000
00000001
00000100
00000010
00000100
00000001
00000100
00000010
00001000
00000010
00010000
,
00010200
00000000
00000000
00000000
,
00000320
00000000
00000000
00000000
,
00002030
00000000
00000000
00000000
,
02003000
00000000
03020000
00000000
,
00030020
00000000
00000000
00000000
,
00000032
00000000
00002003
00000000
,
00003200
00000000
00000000
00000000
00000000
00000000
00000000
00000000
00000000
00000000
00000000
00000000
00000000
00000000
00100300
00010000
,
02000000
00000000
00000000
00000000
00000000
00000000
00000000
00000000
23000000
00000000
00000000
00000000
00000000
00000000
31000000
00010000
,
00200000
00000000
00000000
00000000
00001000
00000000
00000000
00000000
00001000
00000000
00000000
00000000
00001000
00000000
00301000
00010000
,
00000200
00010000
00200300
00000010
,
00300020
00000000
00000000
00000000
00100000
00000000
00000000
00000000
00100000
00000000
00000000
00000000
00100000
00000000
00100030
00000100
,
00020000
00000000
00000000
00000000
00000010
00000000
00031000
01000000
00200000
00000000
00000000
00000000
01000000
00000000
01300000
00001000
,
00020000
00000000
00000100
00030200
00010000
00000000
00000320
00000000
,
00002030
00000000
00000000
00000000
00100000
00000000
01003000
00001000
00020000
00000000
00000000
02030000
00000000
00000000
23000000
00000000
,
30002000
00000000
00000000
00000000
01000000
00000000
00000000
00000000
01000000
00000000
00000000
00000000
01000000
00000000
01003000
00010000
,
20000000
00000000
00000000
00000000
00010000
00000000
00000000
00000000
00010000
00000000
00000000
00000000
00010000
00000000
30010000
00100000
,
00001000
00100000
00010000
00100000
00001000
00010000
00000100
00001000
00000010
00001000
00000100
00010000
00001000
00000000
00010000
00000100
,
00001000
00000010
00000100
00000010
00001000
00000100
00001000
00000100
00010000
00000010
00000100
00000001
00000010
00000001
00000100
00000010
,
00001000
00000010
00000100
00000001
00000010
00000001
00001000
00000100
00010000
00001000
00010000
00000100
00001000
00000010
00000100
00000010
,
00001000
00000100
00010000
00001000
00010000
00000100
00000010
00000001
00002000
00000000
00000000
00000000
00000000
00000000
00003001
00000010
,
00000001
00000100
00000010
00001000
00000010
00000100
00000001
00001000
00000100
00010000
00001000
00100000
00010000
00100000
00001000
00010000
,
00000100
00010000
00001000
00100000
00010000
10000000
00001000
00010000
00000020
00000000
00000000
00000230
00000000
00000000
00002300
00000000
,
00103000
00001000
00100000
00001000
00010000
00000100
00010000
00000100
00010000
00001000
00010000
00001000
00100000
00010000
01000000
00100000
,
20000000
00010000
00010000
00010000
,
30010000
00100000
00001000
00010000
00000100
00001000
00000010
00010000
00000100
00001000
00000100
00010000
00001000
00100000
00010000
01000000
,
00010000
01000000
00100000
00010000
00100000
10000000
00100000
01000000
00001000
00010000
00000100
00000001
00001000
00000100
00010000
00100000
,
01001000
00000000
00000000
00000000
;
