#VERSION:0.83;
#TITLE:Bit by Bit;
#SUBTITLE:;
#ARTIST:Pa's Lam System;
#TITLETRANSLIT:;
#SUBTITLETRANSLIT:;
#ARTISTTRANSLIT:;
#GENRE:Club;
#ORIGIN:;
#CREDIT:;
#BANNER:banner.png;
#BACKGROUND:bg.png;
#PREVIEWVID:;
#JACKET:jacket.jpg;
#CDIMAGE:;
#DISCIMAGE:;
#LYRICSPATH:;
#CDTITLE:CDTITLE.png;
#MUSIC:bitbybit.mp3;
#OFFSET:-0.030000;
#SAMPLESTART:124.316002;
#SAMPLELENGTH:18.000000;
#SELECTABLE:YES;
#BPMS:0.000=140.000;
#STOPS:;
#DELAYS:;
#WARPS:;
#TIMESIGNATURES:0.000=4=4;
#TICKCOUNTS:0.000=4;
#COMBOS:0.000=1;
#SPEEDS:0.000=1.000=0.000=0;
#SCROLLS:0.000=1.000;
#FAKES:;
#LABELS:0.000=Song Start;
#BGCHANGES:;
#KEYSOUNDS:;
#ATTACKS:
;

//---------------dance-single - Technical Showcase 3----------------
#NOTEDATA:;
#CHARTNAME:Always You;
#STEPSTYPE:dance-single;
#DESCRIPTION:Technical Showcase 3;
#CHARTSTYLE:;
#DIFFICULTY:Challenge;
#METER:12;
#RADARVALUES:0.738800,0.964609,0.626861,0.383682,0.872742,957.000000,841.000000,116.000000,71.000000,2.000000,0.000000,1.000000,0.000000,0.000000,0.738800,0.964609,0.626861,0.383682,0.872742,957.000000,841.000000,116.000000,71.000000,2.000000,0.000000,1.000000,0.000000,0.000000;
#CREDIT:CND9;
#NOTES:
// measure 0
0000
0000
0000
0000
,  // measure 1
0001
0000
0000
0001
0000
0000
0001
0000
0000
0001
0000
0000
0010
0000
0100
0000
,  // measure 2
1000
0000
0000
1000
0000
0000
1000
0000
0000
1000
0000
0000
0100
0000
0001
0000
,  // measure 3
0100
0000
0000
0100
0000
0000
0100
0000
0000
0100
0000
0000
0100
0000
1000
0000
,  // measure 4
0010
0000
0000
0010
0000
0000
0010
0000
0000
0010
0000
0000
0010
0000
0100
0000
,  // measure 5
0001
0000
0000
0001
0000
0000
0001
0000
0000
0001
0000
0000
0001
0000
1000
0000
,  // measure 6
0010
0000
0000
0010
0000
0000
0010
0000
0000
0010
0000
0000
0010
0000
0010
0000
,  // measure 7
0100
0000
0000
0100
0000
0000
0100
0000
0000
0100
0000
0000
0100
0001
0010
0000
,  // measure 8
0100
0000
0000
0100
0000
0000
0100
0000
0000
0100
0000
0000
0100
0000
0100
0000
,  // measure 9
1100
0000
0000
0000
1001
0000
1000
0100
0010
0100
1000
0000
0110
0000
0000
0000
,  // measure 10
0101
0000
0000
0000
1001
0000
0001
0010
1000
0010
0001
0000
0011
0000
0000
0000
,  // measure 11
0101
0000
0000
0000
1010
0000
1000
0010
0100
0001
1000
0000
1100
0000
0000
0000
,  // measure 12
0101
0000
0000
0000
0011
0000
0010
0001
1000
0100
0001
0000
0110
0000
0000
0000
,  // measure 13
0010
0001
0100
0010
1000
0010
0100
0001
1000
0001
0010
0001
0100
0010
1000
0100
,  // measure 14
1000
0100
0010
0001
0100
0010
1000
0010
0100
0001
0010
0001
0100
0001
1000
0010
,  // measure 15
1000
0100
0001
0100
1000
0010
0001
0010
1000
0001
0100
0010
1000
0010
0100
0001
,  // measure 16
0040
0000
0000
0000
0000
0000
0000
0000
0000
0000
0000
0000
0000
0000
0000
0030
,  // measure 17
0011
0000
0000
0000
0000
0000
0001
0000
0000
0100
0000
0000
0010
0000
0000
1000
0000
0000
0100
0000
0000
0000
0000
0000
1010
0000
0000
0000
0000
0000
0000
0000
0000
0010
0000
0000
0000
0000
0000
1000
0100
0000
1000
0000
0100
0000
1000
0000
,  // measure 18
1100
0000
0000
0000
0000
0000
1000
0000
0000
0100
0000
0000
0010
0000
0000
0001
0000
0000
0010
0000
0001
0000
0010
0000
0011
0000
0000
0000
0000
0000
0000
0000
0000
0101
0000
0000
0000
0000
0000
0000
0000
0000
1001
0000
0000
0000
0000
0000
,  // measure 19
2100
0000
3100
1000
0010
0100
0001
0010
0001
0000
0000
0101
0000
0000
0110
0000
,  // measure 20
1010
0000
0000
1000
0000
0000
0001
0000
0000
0100
0000
0000
0010
0000
0000
1000
0000
0000
0100
0000
0000
0000
0000
0000
0110
0000
0000
0000
0000
0000
0000
0000
0000
1001
0000
0000
0000
0000
0000
0101
0000
0000
0100
0000
0001
0000
0100
0000
,  // measure 21
0001
0000
0000
0010
0000
0000
0100
0000
0000
0010
0000
0000
0001
0000
0000
1000
0000
0000
0100
0000
0000
0010
0000
0000
0001
0000
0000
0000
0000
0000
0000
0000
0000
0001
0000
0000
0000
0000
0000
0001
1000
0000
0001
0000
1000
0000
0001
0000
,  // measure 22
1001
0001
0100
0010
0100
0001
1000
0100
1000
0000
0000
1010
0000
0000
0101
0000
,  // measure 23
0011
0000
0000
0001
0000
0000
0100
0000
0000
0010
0000
0000
0100
0000
0000
0001
0000
0000
0010
0000
0000
0001
0000
0000
1000
0000
0000
0000
0000
0000
0000
0000
0000
1000
0000
0000
0000
0000
0000
1000
0000
0000
0010
0000
1000
0000
0010
0000
,  // measure 24
0200
0000
0000
0000
0000
0000
0010
0000
0010
0010
0000
0010
0300
0000
0000
0000
,  // measure 25
0101
0000
0001
0010
0000
0100
0000
0010
0000
0001
0000
1000
0100
0000
1000
0010
,  // measure 26
0100
0001
0001
0000
0100
0000
1000
0000
0100
0000
0010
0010
0000
0000
1000
0000
,  // measure 27
0001
0000
0000
0000
1000
0000
0000
0000
0100
0000
0000
0000
0010
0000
0000
0100
0000
0000
1000
0000
0000
0100
0000
0000
0010
0000
0000
0001
0000
0000
0010
0000
0000
0000
0000
0000
0001
0000
0000
0010
0000
0000
0100
0000
0000
0010
0000
0000
,  // measure 28
0001
0000
0001
0000
1000
0000
0001
0000
1000
0010
0100
0010
0000
0000
1000
0100
,  // measure 29
0001
0000
0000
0001
0000
0000
0100
1000
0010
0000
0000
0010
0000
0000
0100
0000
,  // measure 30
0100
0000
0100
0000
0001
0100
0001
0010
0200
0000
0300
0010
0000
0000
0100
0000
,  // measure 31
0010
0001
1000
0000
0100
0000
0000
0000
1000
0010
0000
0100
0001
0000
0010
0001
,  // measure 32
1000
0100
1000
0100
0010
0001
0010
0001
0100
0000
0100
0100
0000
0000
0010
0000
,  // measure 33
0110
0000
0100
0000
0101
0000
0001
0000
2000
0000
3100
0001
0000
0000
0100
0000
,  // measure 34
1000
0010
0000
0000
0100
0000
0100
0000
0010
0000
0100
0001
0000
0000
0010
0001
,  // measure 35
1000
0100
0001
0100
1000
0000
0001
0000
0100
0000
0100
0001
0000
0000
0010
0001
,  // measure 36
0200
0000
0000
0301
0000
0010
0000
0001
1000
0100
0000
0010
0000
0000
0010
0000
,  // measure 37
0020
0000
0000
0000
0032
0000
0000
0000
1003
0100
0000
0100
0020
0000
0000
0000
,  // measure 38
0031
0100
0000
0100
0001
0000
0010
0100
0000
0100
0000
0100
0020
0000
0030
0010
,  // measure 39
0001
0000
1000
0000
0100
0000
0100
0010
0002
0000
0013
0200
0000
0000
1300
0100
,  // measure 40
0010
0000
0100
0000
0100
0000
1000
0001
0010
0000
0010
0002
0000
0000
0000
0000
,  // measure 41
0023
0000
0000
0000
0000
0030
0200
0000
0000
0320
0000
0000
0032
0000
0000
0003
,  // measure 42
0002
0000
0000
0000
0000
0000
1003
0200
0000
0300
0000
0101
0000
0000
0011
0000
,  // measure 43
0020
0000
0032
0203
0000
0000
0320
2030
,  // measure 44
0000
0000
0000
0000
0000
0000
3010
0000
0010
0000
0000
0101
0000
0000
0011
0000
,  // measure 45
1002
0000
2003
3002
0203
0302
0000
0023
,  // measure 46
0000
0030
0020
0000
0000
0000
0000
0000
0130
0000
0000
1100
0000
0000
0110
0000
,  // measure 47
0012
0000
2003
3200
0320
0000
0032
0003
,  // measure 48
0200
0000
0000
0000
0000
0300
0110
0000
0010
0000
0000
0011
0000
0000
0110
0000
,  // measure 49
1020
0000
0000
0000
0000
0000
2030
0000
0000
0000
3100
0000
0020
0000
0000
0030
,  // measure 50
0020
0000
0000
0000
0030
0000
0100
0000
0200
0000
0000
0302
0000
0000
0000
0003
,  // measure 51
0002
0000
0103
0200
0000
0000
2300
3200
,  // measure 52
0000
0000
0000
0000
0300
0000
1100
0000
0001
0000
0000
0101
0000
0000
0011
0000
,  // measure 53
0002
0000
0000
0000
0000
0000
0000
0003
0002
0000
0000
0203
0000
0000
0320
0000
,  // measure 54
0000
0000
2030
0000
0000
0000
0000
0000
3100
0000
0000
1010
0000
0000
1001
0000
,  // measure 55
0002
0000
0000
0103
0000
0000
0100
0000
0020
0000
0000
0000
0032
0000
0000
0000
,  // measure 56
0023
0000
0000
0000
,  // measure 57
2030
0000
0000
0000
,  // measure 58
3020
0000
0000
0000
,  // measure 59
0230
0000
0000
0000
,  // measure 60
0302
0000
0000
0000
,  // measure 61
2003
0000
0000
0000
,  // measure 62
3200
0000
0000
0000
,  // measure 63
0320
0000
0000
0000
,  // measure 64
0032
0000
0000
0000
0003
0001
0001
0001
,  // measure 65
1000
0100
0010
0001
1000
0100
0010
0001
0001
0010
0100
1000
0001
0010
0100
1000
,  // measure 66
1000
0010
0100
0001
1000
0010
0100
0001
0001
0100
0010
1000
0001
0100
0010
1000
,  // measure 67
1000
0100
1000
0010
1000
0001
0100
0001
0010
0001
0100
0001
1000
0100
1000
0010
,  // measure 68
1000
0001
0100
0001
0010
0001
0100
0001
1000
0001
0100
0001
1000
0100
1000
0100
,  // measure 69
1000
0100
0010
0001
1000
0100
0010
0001
0100
0001
1000
0010
1000
0100
1000
0100
,  // measure 70
1000
0010
0100
0001
1000
0010
0100
0001
0010
0001
0100
0001
1000
0001
0100
0010
,  // measure 71
1000
0001
1000
0001
0100
0001
0100
0001
0010
0001
0010
0001
0001
0001
0001
0001
,  // measure 72
0000
0000
0000
0000
,  // measure 73
1010
0000
0010
0000
1001
0000
0100
0000
0011
0000
0001
0100
0000
0000
0101
0000
,  // measure 74
0101
0000
0010
0000
1010
0000
0100
0000
0101
0000
1000
0100
0000
0000
1100
0000
,  // measure 75
1100
0000
0010
0000
0011
0000
0100
0000
1001
0000
1000
1000
0000
0000
0100
0000
,  // measure 76
0001
0000
1M00
0000
0010
0000
0001
0000
1000
0000
0010
0100
0000
0000
0010
0000
,  // measure 77
1010
0000
0100
0000
0101
0000
1000
0000
1001
0000
0001
0010
0000
0000
0100
0000
,  // measure 78
1100
0000
0010
0000
0011
0000
0100
0000
0101
0000
0001
0010
0011
0000
1001
0000
,  // measure 79
1001
0000
0010
0000
1010
0000
0010
0000
0110
0000
0000
0100
0101
0000
0001
0000
,  // measure 80
0010
0000
1000
0000
00M1
0000
0100
0000
1000
0100
1000
0010
0000
0000
0010
0000
,  // measure 81
1010
0000
1000
0100
1000
0010
1000
0000
0000
0101
0000
0100
0000
0001
1000
0000
,  // measure 82
0001
0000
0010
0001
0100
0001
1000
0010
0000
0110
0000
0100
0000
0010
0100
0001
,  // measure 83
0010
0000
0001
0100
0001
0010
0001
0000
0000
0101
0000
0110
0000
0100
0001
0000
,  // measure 84
1001
0000
0001
0010
0001
0100
0001
0010
0000
0011
0000
1010
1000
0100
1000
0001
,  // measure 85
0100
0000
0001
0100
0001
0010
0001
0010
0000
0011
0000
0101
0000
0100
0010
0000
,  // measure 86
1000
0000
0001
0010
0001
0100
0001
0000
0000
0110
0000
1100
0000
1000
0010
0100
,  // measure 87
0001
0000
0100
0010
0100
0001
0100
0010
0000
0101
0000
1010
0000
1000
0010
1000
,  // measure 88
1100
0000
0001
0100
0000
0001
1000
0000
0001
0010
0100
0000
0100
0000
1000
0000
,  // measure 89
1100
0000
0100
0010
0001
0010
0001
0100
0101
0000
0001
0100
0010
1000
0100
1000
,  // measure 90
1100
0000
1000
0010
0100
0010
0100
0001
0101
0000
0000
0110
0000
0000
1010
0000
,  // measure 91
1010
0000
1000
0100
0010
0001
1000
0010
0110
0000
0010
1000
0001
0010
0100
1000
,  // measure 92
1100
0000
1000
0100
1000
0010
1000
0001
0011
0000
0000
1001
0000
0000
1100
0000
,  // measure 93
1001
0000
1000
0100
1000
0010
0100
0001
0101
0000
0001
0010
0001
0100
0010
1000
,  // measure 94
1010
0000
1000
0100
0010
0100
0010
0001
0011
0000
0000
0110
0000
0000
1100
0000
,  // measure 95
1010
0000
1000
0010
0100
0010
1000
0001
1001
0000
0001
0100
0001
0010
0100
1000
,  // measure 96
1100
0000
1000
0100
0010
0001
1000
0010
0100
0001
0010
0001
0100
0010
1000
0100
,  // measure 97
2000
0000
3010
0000
,  // measure 98
0200
0000
0000
0000
0000
0000
0000
0000
0301
0000
0000
0011
0000
0000
0110
0000
,  // measure 99
2100
0000
3001
0000
,  // measure 100
0002
0000
0000
0000
0000
0000
0000
0000
0103
0000
0000
0110
0000
0000
0101
0000
,  // measure 101
1200
0000
1300
0000
,  // measure 102
0020
0000
0000
0000
0000
0000
0000
0000
0130
0000
0000
0101
0000
0000
1100
0000
,  // measure 103
2000
0000
0000
0000
,  // measure 104
0002
0000
0000
0000
,  // measure 105
3003
0000
0000
0000
;
