#TITLE:Absolute 2007;
#SUBTITLE:;
#ARTIST:dj TAKA;
#TITLETRANSLIT:;
#SUBTITLETRANSLIT:;
#ARTISTTRANSLIT:;
#GENRE:EPIC TRANCE;
#CREDIT:milestone;
#MUSIC:Absolute 2007.ogg;
#BANNER:banner.png;
#BACKGROUND:bg.jpg;
#CDTITLE:CDTITLE.png;
#SAMPLESTART:27.107;
#SAMPLELENGTH:16.667;
#SELECTABLE:YES;
#OFFSET:-0.431;
#BPMS:0.000=144.000;
#STOPS:;
#BGCHANGES:;
#FGCHANGES:;

//--------------- dance-single - CND9 ----------------
#NOTES:
     dance-single:
     CND9:
     Challenge:
     13:
     0.939777,0.97073,0.047843,0.44853,1.288775,2200,2184,16,150,0,0,0.939777,0.97073,0.047843,0.44853,1.288775,2200,2184,16,150,0,0:
0000
0000
0000
0000
,
0000
0000
0000
0000
,
0000
0000
0000
0000
,
0000
0000
0000
0000
,
0000
0000
0000
0000
,
0000
0000
0000
0000
,
0000
0000
0000
0000
,
0000
0000
0000
1001
,
1000
0001
0100
0001
0010
0100
1000
0100
,
1000
0001
1000
0010
0100
0001
0010
0001
,
1000
0001
0100
0001
0010
0100
1000
0100
,
1000
0001
1000
0010
0100
0001
0010
0001
,
0100
0010
0100
0001
0010
0001
0100
0001
,
1000
0001
0100
0010
0100
0001
0010
0100
,
0010
0100
0010
0001
0100
0001
0010
0001
,
2000
0000
0000
0000
0000
0000
0000
3000
,
1000
0000
1000
0000
0100
0010
0001
0100
0001
0010
0100
0010
0001
1000
0001
0010
,
0100
0000
0100
0000
1000
0100
1000
0001
0010
0100
0010
0001
1000
0100
0010
0001
,
1000
0000
1000
0000
0001
0010
0001
0100
0010
0100
0001
0010
0100
1000
0010
0100
,
0010
0000
0010
0000
1000
0010
0100
0001
0100
0010
0100
0001
0010
0100
1000
0100
,
1000
0000
1000
0000
0010
0100
0001
0010
0001
0100
0010
1000
0100
0010
0001
0010
,
0100
0000
0100
0000
1000
0001
0010
0001
1000
0100
0010
0001
0100
0010
1000
0100
,
1000
0000
1000
0000
0100
0010
0100
0010
0001
0010
0100
0010
0001
1000
0001
0100
,
0010
0000
0010
0000
0100
0001
0100
0001
0010
0100
1000
0010
1000
0001
0100
0010
,
1000
0000
1000
0000
0100
0010
0001
0100
0001
0010
0100
0010
0001
1000
0100
0010
,
0001
1000
0100
1000
0001
1000
0010
0100
0001
0100
0010
0100
0001
0010
0100
0010
,
0100
1000
0010
0100
0010
1000
0100
1000
0001
0010
0100
1000
0010
0100
0001
0100
,
0010
0100
0001
0100
0001
0010
0001
0100
0010
1000
0100
1000
0100
0010
0100
1000
,
0100
1000
0010
0100
0010
1000
0100
1000
0001
0010
0100
0010
0001
0100
0010
1000
,
0100
1000
0010
0100
0010
0100
0001
0010
0001
0010
0100
1000
0100
1000
0010
1000
,
0100
0010
0100
0010
0001
0100
0010
0100
0001
0010
0001
0010
0100
1000
0010
0100
,
0001
0100
0010
1000
0100
1000
0001
0100
0010
1000
0010
0100
0010
1000
0001
0100
,
0002
0000
0000
0000
,
0000
0000
0000
0000
,
0000
0000
0000
0000
,
0000
0000
0000
0000
,
0000
0000
0000
0000
,
0000
0000
0000
0000
,
0000
0000
0000
0000
,
2000
0000
0000
0000
0000
0000
0000
0000
0000
0000
0000
0000
0000
0000
0000
3003
,
0001
0000
0000
0100
0001
0100
0001
0000
0000
1000
0000
0000
0100
0000
0000
1000
0100
1000
0100
0000
0000
0010
0000
0000
,
0002
0000
0000
0000
0000
0000
0000
0000
0000
0000
0000
0000
0000
0003
0000
0000
,
0001
0000
0000
0100
0001
0100
0001
0000
0000
1000
0000
0000
0100
0000
0000
1000
0100
1000
0100
0000
0000
0010
0000
0000
,
0002
0000
0000
0000
0000
0000
0000
0000
0000
0000
0000
0000
0000
0003
0000
0000
,
0001
0000
0000
0100
0010
0100
0001
0000
0000
1000
0000
0000
0100
0000
0000
1000
0010
1000
0100
0000
0000
0010
0000
0000
,
0002
0000
0000
0000
0000
0000
0000
0000
0000
0000
0000
0000
0000
0003
0000
0000
,
0001
0000
0000
0100
0010
0100
0001
0000
0000
1000
0000
0000
0100
0000
0000
1000
0010
1000
0100
0000
0000
0010
0000
0000
,
0002
0000
0000
0000
,
0003
0101
0000
1100
0000
1010
0000
0011
,
0000
1001
0000
0110
0000
1001
0000
0110
,
0100
0001
0100
0001
1000
0100
1000
0100
,
1000
0100
0010
0001
1000
0100
0010
0001
1000
0001
1000
0001
1000
0001
1000
0001
,
1010
0000
0010
1000
0010
0000
0010
0000
0100
0001
0010
0000
0001
0000
0001
0000
,
0020
0000
0000
0031
0010
0001
0200
0000
0000
0320
0000
0000
2030
0000
0000
3100
1000
0100
1000
0000
0000
0200
0000
0000
,
0310
0001
0100
0010
1000
0100
1000
0010
0100
0001
0010
0100
1000
0100
0010
0001
,
0020
0000
0000
0031
0010
0001
0200
0000
0000
0320
0000
0000
2030
0000
0000
3100
1000
0100
1000
0000
0000
0200
0000
0000
,
1300
0010
0100
0001
1000
0100
1000
0010
0100
0001
0010
0001
0100
0001
1000
0100
,
0020
0000
0000
0031
0010
0001
0200
0000
0000
0320
0000
0000
2030
0000
0000
3100
1000
0100
1000
0000
0000
0200
0000
0000
,
0310
0100
0010
0001
0100
0010
1000
0100
0010
0001
1000
0001
0100
0010
1000
0100
,
0020
0000
0000
0031
0010
0001
0200
0000
0000
0320
0000
0000
2030
0000
0000
3100
1000
0100
1000
0000
0000
0200
0000
0000
,
1300
0100
1000
0010
0100
0010
0100
0001
0010
0001
0100
0010
1000
0100
1000
0001
,
0020
0000
0000
0031
0010
0001
0200
0000
0000
0320
0000
0000
2030
0000
0000
3100
1000
0100
1000
0000
0000
0200
0000
0000
,
0310
0100
0010
0001
1000
0100
0010
0001
0100
0010
1000
0010
1000
0100
0010
0001
,
0020
0000
0000
0031
0010
0001
0200
0000
0000
0320
0000
0000
2030
0000
0000
3100
1000
0100
1000
0000
0000
0200
0000
0000
,
1300
0001
0100
0010
1000
0001
0010
0001
1000
0001
0100
0001
1000
0001
0010
0100
,
0020
0000
0000
0031
0010
0001
0200
0000
0000
0320
0000
0000
2030
0000
0000
3100
1000
0100
1000
0000
0000
0200
0000
0000
,
0310
0001
1000
0001
0100
0010
1000
0100
0010
0001
0100
0010
1000
0001
1000
0001
,
0020
0000
0000
0031
0010
0001
0200
0000
0000
0320
0000
0000
2030
0000
0000
3100
1000
0100
1000
0000
0000
0200
0000
0000
,
1300
0100
0010
0001
1000
0100
0010
0001
1000
0100
0010
0001
1000
0100
0010
0001
,
2000
3000
0200
0302
0000
0000
0103
0000
2000
3000
0200
0302
0000
0000
0103
0000
,
1000
0010
0100
0000
0100
0001
0010
0001
0000
0001
0100
0010
0100
0001
0100
0010
,
2000
3000
0200
0302
0000
0000
0103
0000
2000
3000
0200
0302
0000
0000
0103
0010
,
0100
0000
0010
0000
0001
0000
0000
0100
0000
0100
0001
0010
0001
0100
0010
0100
,
2000
3000
0200
0302
0000
0000
0103
0000
2000
3000
0200
0302
0000
0000
0103
0001
,
0010
0100
0000
0010
0100
1000
0000
1000
0000
0001
0000
0010
0000
0100
1000
0100
,
2000
3000
0200
0302
0000
0000
0103
0000
2000
3000
0200
0302
0000
0000
0103
0000
,
1000
0010
0100
0010
1000
0010
0100
0001
0010
0001
0100
0001
1000
0100
0010
0001
,
1000
0000
1000
0000
0100
0010
0100
1000
0100
0010
0100
0010
0001
0010
0100
1000
,
0001
0100
0010
1000
0001
0100
0010
1000
0100
1000
0010
0100
0010
1000
0001
1000
,
0100
0000
0100
0000
1000
0010
1000
0010
0100
0010
1000
0100
0010
0100
1000
0010
,
0100
0010
1000
0100
1000
0100
0010
0001
0100
0010
0100
0001
0010
0100
1000
0010
,
1000
0000
1000
0000
0010
0100
0001
0010
0001
1000
0100
1000
0001
0010
0001
1000
,
0001
0010
0100
1000
0010
0100
0001
0010
0001
0100
0010
0100
0001
0010
0001
0010
,
0100
0000
0100
0000
1000
0100
1000
0010
0100
0001
0010
0100
1000
0001
0010
0001
,
0100
0010
1000
0100
0010
0100
1000
0100
1100
0000
1000
0010
1010
0000
0040
0000
,
1030
0010
0100
0001
0010
0001
0100
0010
0100
0001
0100
0001
0010
0100
1000
0100
,
1000
0100
0010
0001
0100
0010
0100
0001
0010
0001
0100
0010
1000
0100
1000
0010
,
0100
0001
1000
0010
0100
0001
0010
0001
0100
0010
0100
0001
0010
0001
0010
0100
,
1000
0100
0010
0100
0010
1000
0001
0100
0010
1000
0100
0010
0001
0100
0010
1000
,
0010
0100
0010
0100
0001
0010
0001
0100
0010
0100
0001
0010
0001
0100
0001
1000
,
0100
1000
0010
1000
0001
0100
0001
0010
0001
1000
0100
1000
0010
0100
0010
0100
,
0001
0100
0010
0100
0001
0010
0001
0100
0001
0100
0010
1000
0001
1000
0001
0010
,
0001
0010
0001
1000
0010
1000
0001
0100
0001
1000
0100
1000
0001
0010
0100
1000
,
0200
1000
0010
0001
,
0320
0001
0100
1000
,
0230
1000
0001
1000
,
0010
0001
0010
1000
,
0320
0100
1000
0001
,
0230
1000
0001
0010
,
2300
0000
0000
0000
,
3010
1000
0010
1000
0001
0100
0001
0100
0001
0010
0100
1000
0001
0010
0100
1000
,
0010
0100
0010
0100
0010
1000
0010
0100
0010
1000
0010
0100
0010
1000
0010
0100
,
0010
1000
0100
1000
0100
1000
0010
1000
0010
0100
0010
0100
0001
0100
0001
0100
,
0001
0010
0001
0100
0001
0010
0001
0100
0010
0100
0001
0010
0001
0100
0010
0100
,
0001
0010
0001
0100
0010
0100
0001
0100
0010
1000
0010
0100
0010
1000
0100
1000
,
0100
1000
0010
0100
0010
0100
0010
1000
0100
1000
0010
0100
0010
1000
0100
1000
,
0010
1000
0001
0100
0001
1000
0010
1000
0010
0100
0001
0100
0010
0100
0001
0010
,
0001
1000
0010
1000
0010
1000
0100
1000
0010
0100
0010
1000
0100
1000
0010
0100
,
0001
0010
0100
1000
0100
1000
0010
0100
0002
0000
0023
0000
0230
0000
2300
0000
,
3010
0100
0010
1000
0100
1000
0010
0100
0010
1000
0010
0100
0001
0100
0010
1000
,
0100
1000
0010
1000
0010
0100
0010
1000
0001
0100
0010
0100
0001
0010
0001
0100
,
0001
0100
0010
0100
0001
0010
0001
0100
0010
1000
0100
0010
0001
0010
0001
0100
,
0001
0010
0001
0010
0001
0100
0001
0100
0010
1000
0010
1000
0100
1000
0100
1000
,
0010
0100
0010
1000
0100
1000
0010
0100
0001
0100
0010
1000
0100
1000
0010
0100
,
0010
1000
0010
1000
0100
0010
0100
1000
0100
1000
0010
0100
0001
0100
0001
0010
,
0002
2003
3020
2030
3002
0203
0320
2030
,
3001
1000
0001
1000
0001
1000
0001
1000
0001
0010
0100
1000
0001
0010
0100
1000
,
0100
1000
0100
0020
0000
0000
0030
0000
,
0100
0000
0000
1000
0000
0000
0100
0000
0000
0010
0000
0000
0001
0000
0000
0100
0000
0000
0001
0000
0000
0010
0000
0001
,
0020
0000
0000
0000
0000
0000
0000
0000
0000
0000
0000
0000
0030
0000
0000
0000
0000
0010
0001
0000
0000
0000
0000
0100
,
0001
0000
0000
1000
0100
0001
1000
0010
0001
1000
0100
0001
,
0200
0000
0000
0000
0000
0000
0000
0000
0000
0000
0000
0000
0300
0000
0000
0000
0000
0000
0000
0000
0010
0001
0010
0001
,
0010
0000
0000
0100
0000
0000
0010
0000
0000
0100
0000
0000
0010
0000
0000
0001
0010
0001
0010
0000
0000
0100
0000
1000
,
0200
0300
0020
0230
,
2300
0000
0000
0000
3002
0023
0230
2300
,
3010
0000
0000
1000
0000
0000
0001
0000
0000
0100
0000
0000
0010
0000
0000
1000
0000
0010
0100
0000
0000
0001
0000
0000
,
0100
0000
0000
0001
0000
0000
0010
0000
0000
0001
0000
0000
0100
0000
0000
0010
0000
0000
0100
0000
0000
0001
0010
0001
,
0010
0100
1000
0010
0100
0001
0010
0001
,
0010
0000
0100
0000
1000
0000
0001
0000
0100
0000
0001
0000
0010
0000
0001
0010
,
0100
0000
0000
1000
0000
0000
0010
0000
0000
0100
0000
0000
0010
0000
0000
1000
0000
0000
0100
0000
0000
1000
0100
0010
,
0001
0000
0000
0100
0000
0000
1000
0000
0000
0010
0000
0000
0100
0000
0000
0001
0010
0100
1000
0000
0000
0100
0000
0000
,
1001
0000
0100
0000
0010
0000
0100
0000
1010
0000
0000
0101
0000
0000
0110
0000
,
1000
0000
0000
0010
0000
0000
1000
0000
0000
0010
0000
0000
1000
0000
0000
0100
0000
0000
1000
0000
0000
0001
0000
0000
1000
0000
0000
0001
0000
0000
1000
0000
0100
0000
0010
0000
0002
0000
0000
0000
0000
0000
0000
0000
0000
0000
0000
0000
,
0013
0000
0000
0001
0100
0001
0100
0000
0000
0010
0000
0000
1000
0000
0000
0100
1000
0100
1000
0000
0000
0010
0000
0000
,
0100
0001
0010
0001
0100
0010
1000
0010
,
0100
0000
0000
0001
0010
0001
0010
0000
0000
0100
0000
0000
1000
0000
0000
0010
1000
0010
1000
0000
0000
0100
0000
0000
,
0010
0001
0100
0010
1000
0001
0010
0001
,
0010
0000
0000
0001
0100
0001
0100
0000
0000
0010
0000
0000
1000
0000
0000
0100
1000
0100
1000
0000
0000
0010
0000
0000
,
0100
0001
0010
0001
1000
0010
0100
0001
,
0100
0000
0000
0001
0010
0001
0010
0000
0000
0100
0000
0000
1000
0000
0000
0010
1000
0010
1000
0000
0000
0100
0000
0000
,
0010
0001
0100
0010
0100
0001
1000
0100
,
0010
0000
0000
0001
0100
0001
0100
0000
0000
0010
0000
0000
1000
0000
0000
0100
1000
0100
1000
0000
0000
0010
0000
0000
,
0100
0001
0010
0100
1000
0100
1000
0010
,
0100
0000
0000
0001
0010
0001
0010
0000
0000
0100
0000
0000
1000
0000
0000
0010
1000
0010
1000
0000
0000
0100
0000
0000
,
0010
0001
0100
0010
0100
0001
0010
0001
,
0010
0000
0000
0001
0100
0001
0100
0000
0000
0010
0000
0000
1000
0000
0000
0100
1000
0100
1000
0000
0000
0010
0000
0000
,
0100
0001
1000
0100
1000
0001
0010
0001
,
0100
0000
0000
0001
0010
0001
0010
0000
0000
0100
0000
0000
1000
0000
0000
0010
1000
0010
1000
0000
0000
0100
0000
0000
,
1000
0010
1000
0010
0100
0001
0100
0001
1000
0100
0010
0001
1000
0100
0010
0001
,
0020
0000
0000
0031
0010
0001
0020
0000
0000
0230
0000
0000
2300
0000
0000
3100
1000
0100
2000
0000
0000
3020
0000
0000
,
1030
0100
0010
0100
1000
0100
0010
0001
0010
0100
0010
0001
0010
0100
1000
0100
,
0020
0000
0000
0031
0010
0001
0020
0000
0000
0230
0000
0000
2300
0000
0000
3100
1000
0100
2000
0000
0000
3020
0000
0000
,
0130
0001
1000
0010
0100
0001
0010
0001
0100
0010
1000
0010
0100
0001
1000
0100
,
0020
0000
0000
0031
0010
0001
0020
0000
0000
0230
0000
0000
2300
0000
0000
3100
1000
0100
2000
0000
0000
3020
0000
0000
,
1030
0100
0010
0001
0010
0100
0010
0001
0010
0100
1000
0100
0010
0100
1000
0100
,
0020
0000
0000
0031
0010
0001
0020
0000
0000
0230
0000
0000
2300
0000
0000
3100
1000
0100
2000
0000
0000
3020
0000
0000
,
0130
0010
1000
0010
0100
0001
0010
0001
0100
0001
1000
0010
0100
0001
1000
0001
,
0020
0000
0000
0031
0010
0001
0020
0000
0000
0230
0000
0000
2300
0000
0000
3100
1000
0100
2000
0000
0000
3020
0000
0000
,
1030
0100
0010
0001
1000
0100
0010
0100
1000
0100
0010
0001
0010
0100
1000
0001
,
0020
0000
0000
0031
0010
0001
0020
0000
0000
0230
0000
0000
2300
0000
0000
3100
1000
0100
2000
0000
0000
3020
0000
0000
,
0130
0010
1000
0010
0100
0010
0100
0001
0010
0001
0100
0001
0010
0001
1000
0001
,
0020
0000
0000
0031
0010
0001
0020
0000
0000
0230
0000
0000
2300
0000
0000
3100
1000
0100
2000
0000
0000
3020
0000
0000
,
1030
0100
0010
0001
1000
0100
0010
0001
0010
0001
0010
0100
0010
0001
0010
0100
,
0020
0000
0000
0031
0010
0001
0020
0000
0000
0230
0000
0000
2300
0000
0000
3100
1000
0100
2000
0000
0000
3020
0000
0000
,
0230
0000
0000
0000
0000
0000
0000
0300
,
0001
0100
0010
0100
0001
0010
0100
0010
0001
0100
0010
1000
0010
0100
0001
0010
,
0100
1000
0100
1000
0010
0100
0001
0010
0001
0100
0010
0100
0010
1000
0100
1000
,
0010
0100
0001
0010
0100
1000
0001
0100
0010
0100
0001
0010
0001
0010
0100
0010
,
0100
0001
0010
0001
1000
0010
0100
0010
1000
0010
0100
0001
0100
0010
1000
0001
,
0100
0010
1000
0100
1000
0100
0010
0001
0100
0001
0010
0001
0100
0010
0100
0001
,
0010
0001
0100
0010
1000
0010
0100
0001
1000
0100
1000
0010
0100
0001
1000
0100
,
1000
0100
1000
0010
0100
0010
1000
0001
0010
0001
0100
0001
0010
0100
0010
0001
,
0100
0010
1000
0100
1000
0010
0100
0001
1000
0100
0010
0100
1000
0010
0100
0001
,
0010
0001
0100
0010
0100
0001
0010
0100
1000
0010
0100
0001
0010
0001
0100
0010
,
1000
0010
0100
0001
0010
0001
0100
0010
1000
0010
0100
0001
0010
0100
1000
0100
,
0010
0001
0100
0010
0100
0001
0010
0001
1000
0001
0100
0010
0100
0001
0010
0100
,
1000
0010
0100
0010
1000
0010
0100
0010
0100
0001
0010
0100
1000
0100
1000
0010
,
0100
0001
0100
0001
0010
0100
1000
0100
0010
0001
0100
0010
1000
0100
0010
0001
,
0100
0001
0010
0001
1000
0010
0100
0010
1000
0001
0010
0100
1000
0100
1000
0010
,
1000
0100
1000
0010
0100
0001
0100
0010
0100
0001
0010
0100
1000
0010
1000
0100
,
1000
0010
0100
0010
0100
0001
0100
0010
0100
0001
0010
0001
0010
0100
1000
0010
,
0100
0001
0010
0001
0100
0010
0100
0001
0010
0100
0010
0001
1000
0100
1000
0010
,
0100
0010
1000
0100
1000
0001
0010
0001
0100
0001
0010
0100
0010
0001
1000
0010
,
0100
0010
1000
0100
1000
0100
0010
0001
0010
0001
0100
0001
0010
0001
0100
0001
,
0010
0001
1000
0100
1000
0010
0100
0001
1000
0010
0100
0010
1000
0100
0010
0100
,
1000
0010
0100
0010
1000
0001
0010
0001
0010
0100
0010
0001
0010
0001
0100
0010
,
1000
0100
1000
0010
0100
0010
1000
0100
0010
0001
0010
0100
1000
0100
1000
0010
,
0100
0001
0010
0001
0100
0010
0100
0001
0100
0010
1000
0010
0100
0001
0010
0100
,
1000
0100
1000
0010
0100
0001
0100
0001
0010
0001
1000
0100
0010
0001
0010
0100
,
1000
0100
0010
0001
0100
0010
1000
0100
,
1000
0010
0100
0010
0100
0001
0010
0001
,
0100
0010
1000
0100
0010
0001
0100
0001
,
0010
0100
0010
0100
1000
0100
1000
0001
,
0100
0010
1000
0100
1000
0010
0100
0010
,
0100
0001
0010
0001
0100
0010
1000
0100
,
1000
0010
0100
0001
0010
0001
0100
0010
,
1000
0100
0010
0001
1000
0100
0010
0000
;
