#TITLE:Zero;
#SUBTITLE:;
#ARTIST:Varsity Fanclub;
#TITLETRANSLIT:;
#SUBTITLETRANSLIT:;
#ARTISTTRANSLIT:;
#GENRE:;
#CREDIT:Braeden;
#MUSIC:Zero.ogg;
#BANNER:;
#BACKGROUND:;
#CDTITLE:;
#SAMPLESTART:0.000;
#SAMPLELENGTH:0.000;
#SELECTABLE:YES;
#OFFSET:-0.231;
#BPMS:0.000=125.030;
#STOPS:;
#BGCHANGES:;
#FGCHANGES:;

//--------------- dance-single - ----------------
#NOTES:
     dance-single:
     :
     Beginner:
     2:
     0,0,0,0,0:
0000
0000
0000
0000
,
0000
0000
0000
0000
,
2000
3000
0000
0000
,
0002
0003
0000
0000
,
0100
0000
0000
0000
,
0010
0000
0000
0000
,
1001
0000
0001
0000
,
0200
0300
0000
0000
,
0010
0000
0000
0000
,
1000
1000
1000
0000
,
1001
0000
0001
0000
,
0200
0300
0000
0000
,
0010
0000
0100
0000
,
0001
0000
0000
0000
,
1001
0000
0000
0000
,
1000
0000
0000
0000
,
0001
0000
0000
0000
,
0100
0000
0000
0000
,
0010
0000
1000
0000
,
0001
0000
0100
0000
,
0010
0000
0000
0000
,
1000
1000
1000
0000
,
0000
0000
0000
0000
,
1001
0000
0000
0000
,
1001
0000
0000
0000
,
0001
0000
0100
0000
,
0010
0000
0000
0000
,
0110
0000
0000
0000
,
0110
0000
0000
0000
,
1000
0000
0001
0000
,
1000
0000
0000
0000
,
0010
0000
0000
0000
,
0100
0000
0000
0000
,
0010
0000
0000
0000
,
1000
0000
0000
0000
,
0001
0000
0000
0000
,
0010
0000
0000
0000
,
0100
0000
0000
0000
,
1000
0000
0001
0001
,
0001
0000
0000
0000
,
1001
0000
0000
0000
,
1001
0000
0000
0000
,
1000
0000
0001
0000
,
0100
0000
0000
0000
,
0110
0000
0000
0000
,
1001
0000
0000
0000
,
0001
0000
1000
0000
,
0001
0000
0000
0000
,
1001
0000
0000
0000
,
0110
0000
0000
0000
,
1000
0000
0001
0000
,
1000
0000
0000
0000
,
1001
0000
0000
0000
,
1001
0000
0000
0000
,
1000
0000
0010
0000
,
1001
0000
0000
0000
;

//--------------- dance-single - ----------------
#NOTES:
     dance-single:
     :
     Easy:
     4:
     0,0,0,0,0:
0000
0000
0000
0000
,
0000
0000
0000
0000
,
2000
3001
0000
0100
,
0020
0030
0000
1000
,
0001
0000
0100
0010
,
1000
1000
0001
0000
,
1001
1000
0001
0010
,
0200
1300
0000
0001
,
1001
1000
0010
0100
,
0001
0001
0001
0000
,
1001
1000
0010
0100
,
0002
0103
0000
0001
,
1001
1000
0010
0000
,
0100
0001
0100
0010
,
1000
0100
1000
0001
,
0100
0010
0100
0001
,
1000
0100
1000
0001
,
0100
0000
0000
0000
,
0010
1000
0010
0000
,
1000
0001
1000
0000
,
0001
0100
0001
0000
,
1001
1001
1001
0000
,
1000
0000
0001
0000
,
2002
3003
1000
0010
,
0220
0330
0100
0001
,
1000
1000
0001
0001
,
1000
0010
0100
0001
,
2002
3003
1000
0010
,
0220
0330
0100
0001
,
0010
0010
0100
0100
,
2000
3010
0000
0100
,
0002
1003
0000
0001
,
0020
0130
0000
1000
,
0001
0100
0000
0001
,
2000
3010
0000
0100
,
0001
0010
0000
0100
,
1000
0001
0010
0100
,
1000
0001
1000
0001
,
0100
0010
0100
0001
,
1000
0000
0001
0000
,
2002
3003
1000
0010
,
0220
0330
0100
0001
,
0010
0100
0010
0001
,
1000
0010
0100
0001
,
2002
3003
0010
0010
,
2002
3003
1000
0001
,
0100
0100
0010
0010
,
2000
0001
0001
3001
,
2002
3003
1000
0010
,
0220
0330
0100
0001
,
0010
0010
0100
0100
,
1000
0001
0010
0100
,
2002
3003
1000
0010
,
0220
0330
0100
0001
,
1000
1000
0010
0010
,
1001
0000
0000
0000
;

//--------------- dance-single - ----------------
#NOTES:
     dance-single:
     :
     Medium:
     8:
     0,0,0,0,0:
0000
0000
0000
0000
,
0000
0000
0000
0000
,
2000
3001
0100
0020
,
2030
3001
0010
0200
,
2300
0000
0000
3000
0000
0000
0000
0000
0001
0000
0000
0000
0100
0000
0000
0000
,
0001
1000
0001
1000
0001
0000
0100
0000
,
0110
0000
0010
0000
1000
0100
1000
0100
,
2000
0000
3001
0000
1000
0100
0010
0100
,
1000
0000
0001
0000
0100
0010
0100
0001
,
0100
0010
0100
0001
,
1001
0000
1000
0000
0010
0100
0001
1000
,
0020
0000
0130
0000
0001
0010
0100
0000
,
1100
1000
0001
0010
,
0100
1000
0100
1000
0100
0010
0001
0000
,
1001
0000
1000
0000
0001
0010
0001
0000
,
0100
0010
0100
0000
0001
0010
0001
0000
,
1001
0000
1000
0000
0001
0010
0100
0000
,
1000
0001
1000
0100
1000
0001
0000
0000
,
1001
0000
1000
0000
0001
0010
0001
0010
,
0001
0000
0100
0000
0010
1000
0010
1000
,
0010
0000
0100
0010
0100
0010
0100
0000
,
0101
1010
1001
0000
,
1000
0001
1000
0000
0010
0100
0010
0000
,
0110
0000
0100
0001
0100
0000
0010
0000
,
1010
0000
1000
0100
0010
0001
0010
0000
,
0100
1000
0100
0000
1000
0001
1000
0000
,
1001
0000
0001
0000
0100
0010
0100
0000
,
0101
0000
0001
0010
0100
0000
1000
0000
,
1001
0000
0001
0010
0100
1000
0100
0000
,
0010
0001
0010
0000
0100
1000
0001
0000
,
2000
0000
3010
0100
0000
0000
0001
0000
,
0200
0000
0310
1000
0000
0001
0100
0000
,
0020
0000
1030
0001
0000
0100
0010
0000
,
2000
0000
3001
0010
0000
0100
1000
0000
,
0002
0000
0103
0010
0000
0000
1000
0000
,
0002
0000
1003
0010
0000
0000
0100
0000
,
0001
1000
0001
0000
0010
0000
0100
0000
,
1000
0000
0001
1000
0001
1000
0001
0000
,
0100
0000
0100
0000
0010
0010
0010
0010
,
0100
0000
0001
0000
0010
0100
1000
0000
,
1001
0000
0001
0010
0001
0000
0100
0000
,
0101
0000
0001
0010
0100
0010
0001
0000
,
1000
0010
1000
0000
0001
0100
0001
0000
,
1001
0000
1000
0100
0010
0001
1000
0000
,
1010
0000
0010
0100
0010
0100
0001
0000
,
0011
0000
0001
0010
0100
1000
0100
0000
,
0010
0001
0010
0000
0100
1000
0001
0000
,
2001
0010
0100
3001
,
0201
0010
0301
1000
,
1001
0000
0001
0010
0100
0010
0001
0000
,
1000
0010
1000
0000
0001
0100
0001
0000
,
0001
0100
0010
0000
0100
0001
0100
0000
,
0110
0000
0010
1000
0100
1000
0001
0000
,
0101
0000
0100
0010
0100
0001
0100
0000
,
0010
1000
0010
0000
1000
0001
1000
0000
,
1001
0000
0000
0000
;

//--------------- dance-single - MA ----------------
#NOTES:
     dance-single:
     MA:
     Hard:
     9:
     0,0,0,0,0:
0000
0000
0000
0000
,
0000
0000
0000
0000
,
2000
0000
3001
0010
0001
0100
0020
0000
,
2030
0000
3001
0010
0100
1000
0002
0000
,
0203
0000
0000
0300
0000
0000
0001
0000
1000
0000
0100
0000
0010
0000
0001
0000
,
1000
1000
0001
0001
1000
0001
0100
0000
,
0210
0000
0310
0000
1000
0100
0001
0100
,
2000
0000
3001
0100
0001
0010
0100
1000
,
0001
0000
1000
0001
0100
0010
1000
0100
,
1000
1001
1001
0010
,
1001
0000
1000
0000
0001
0010
1000
0010
,
0200
0000
1300
0001
0010
0001
1000
0000
,
1001
0000
0001
1000
0010
0000
1000
0000
,
0001
0010
0001
0100
0010
1000
0001
0000
,
1000
0100
0010
0001
0010
0100
1000
0001
,
1000
0010
1000
0100
1000
0001
0100
0010
,
1000
0100
0010
0001
0100
0010
1000
0001
,
0010
0100
1000
0001
1000
0001
0000
0000
,
1001
0000
1000
0000
0001
0010
0001
0010
,
0001
0000
0100
0000
0010
1000
0010
1000
,
0001
0000
0100
0010
0100
0001
1000
0001
,
1001
1001
1001
0000
,
1000
0100
0010
0001
0010
0100
1000
0000
,
MMMM
0000
0001
0010
0001
0100
0010
0000
,
MMMM
0000
1000
0001
0010
0001
1000
0000
,
0001
0100
1000
0000
1000
0100
0001
0000
,
1000
0100
1000
0001
0010
0100
1000
0000
,
MMMM
0000
0010
0100
0001
0010
0100
0000
,
MMMM
0000
1000
0001
0010
0001
0100
0000
,
0010
0010
0010
0000
1000
1000
1000
0000
,
MMMM
0000
0001
0100
0000
0000
0010
0000
,
2000
0000
3001
0100
0000
0010
1000
0000
,
0001
0100
0001
0100
0000
0010
1000
0100
,
0020
0000
0130
0010
0100
1000
0001
0100
,
0020
0000
1030
0001
1000
0100
1000
0001
,
0000
1000
0100
0000
0010
0001
0010
0000
,
0001
0010
0001
0100
0010
0000
1000
0000
,
0001
0000
1000
0001
1000
0001
1000
0000
,
0010
0000
0010
0000
0100
0100
0010
0010
,
1000
0000
0001
0000
0100
0010
1000
0000
,
MMMM
0000
0001
0010
0001
0100
0010
0000
,
MMMM
0000
1000
0001
0010
0001
1000
0000
,
1000
0100
0001
0000
0100
0010
0100
0000
,
1000
0100
0010
0001
0010
0100
1000
0000
,
MMMM
0000
0001
0010
0100
1000
0001
0000
,
MMMM
0000
0100
0010
0100
0001
1000
0000
,
0001
0001
0100
0000
0010
0010
1000
0000
,
0001
0100
1000
0100
0010
1000
0010
0000
,
MMMM
0000
1000
0001
0010
0001
0100
0000
,
MMMM
0000
0001
0010
0100
1000
0001
0000
,
0100
0100
0100
0000
0010
0010
0010
0000
,
1000
0100
0001
0100
1000
0010
0100
0000
,
MMMM
0000
0001
0010
0100
1000
0001
0000
,
MMMM
0000
1000
0010
0100
0001
0010
0000
,
0100
0100
0100
0000
1000
1000
1000
0000
,
1001
0000
0000
0000
;

//--------------- dance-single - XO SJ JA MA ----------------
#NOTES:
     dance-single:
     XO SJ JA MA:
     Challenge:
     12:
     0,0,0,0,0:
0000
0000
0000
0000
,
0000
0000
0000
0000
,
2000
0000
3001
0100
0001
0100
0002
0100
,
0203
0000
0310
1000
0100
0010
0002
1000
,
2003
0000
0000
3000
0000
0000
0001
0000
0010
0000
0001
0000
0010
0000
0100
0000
,
1000
1000
0001
0001
0100
0010
1000
0001
,
1001
1000
0200
0000
0301
0100
1000
0010
,
0100
0000
0000
0001
0100
0000
0010
0000
1000
0000
0001
0100
0001
0000
0010
0000
,
0011
0000
0001
0000
1000
0000
0100
0010
0100
0000
1000
0000
0001
0000
0100
0000
,
0110
0000
0000
0000
0100
0000
0000
0000
0010
0000
1000
0000
0001
0100
0001
0000
,
0011
0000
0010
0000
0100
0000
1000
0001
1000
0010
0100
0000
0001
0000
0010
0000
,
0100
0000
0000
1000
0001
0000
0010
0000
0001
0000
0100
0000
0010
0000
1000
0000
,
1100
0000
0010
0000
0001
0000
0100
0000
0020
0000
1000
0000
1030
0000
0001
0010
,
0001
1000
0100
0001
0100
1000
0001
0100
,
0110
0000
0010
0000
1000
0000
0001
0010
0100
0000
1000
0000
0001
0000
0100
0000
,
0110
0000
0010
0000
0010
0000
1000
0001
1000
0000
0001
0000
0100
0000
0010
0000
,
1010
0000
1000
0000
0100
0000
0010
0001
0010
0000
0001
0000
0100
0000
0001
0000
,
1000
0001
0010
1000
0010
0100
0000
0000
,
1100
1000
0001
0100
1000
0100
0001
0100
,
0010
0100
1000
0100
0010
1000
0001
0100
,
0002
0000
1003
0100
0010
0001
0010
0100
,
1100
1001
0101
0000
,
0001
0000
1000
0100
1000
0100
1000
0000
0001
0010
0001
0000
1000
0000
0010
0000
,
MMMM
0000
0000
0000
0100
0001
0100
0000
0001
0000
0010
0100
0010
0000
0001
0000
,
MMMM
0000
1000
0001
0100
1000
0100
0000
,
0001
0001
0001
0000
0100
0100
0100
0000
,
0101
0000
0000
0000
0000
0000
0000
0000
0000
0000
0000
0000
0001
0000
0000
0000
0000
0000
0010
0000
0000
0000
0000
0000
0100
0000
0000
0000
0000
0000
1000
0000
0000
0000
0000
0000
0001
0000
0000
0000
0000
0000
0000
0000
0000
0000
0000
0000
1000
0000
0000
0000
0000
0000
0000
0000
0000
0000
0000
0000
0100
0000
0000
0000
0000
0000
0000
0000
0000
0000
0000
0000
1000
0000
0000
0000
0000
0000
0000
0000
0000
0000
0000
0001
0001
0000
0000
0000
0000
0000
0000
0000
0000
0000
0000
0000
,
MMMM
0000
0000
0000
1000
0001
1000
0100
0010
0000
0001
0000
1000
0000
0001
0000
,
MMMM
0000
0100
0001
0100
1000
0100
0000
,
0001
0001
0001
0000
1000
1000
1000
0010
,
MMMM
0000
0000
0000
1000
0000
0000
0000
0001
0000
0100
0010
0100
0000
0020
0000
,
0001
0000
1030
0100
0000
0010
0001
0000
,
2000
0100
3100
0010
0000
0001
0100
0010
,
0020
0000
1030
0001
0010
0001
0100
0010
,
0200
0000
0301
0100
0010
1000
0002
0100
,
0000
1003
0010
0100
0001
0010
0100
0000
,
1000
0000
0010
0000
0001
0000
0010
0000
1000
0000
0000
0001
0100
0000
0001
0000
,
1000
0000
0001
0010
0100
1000
0001
0000
,
0001
0000
0000
0000
0000
0000
0001
0000
0000
0000
0000
0000
1000
0000
0000
1000
0000
0000
1000
0000
0000
0001
1000
0001
,
1000
0000
0010
0100
0010
0100
0010
0000
1000
0001
1000
0000
0001
0000
1000
0000
,
MMMM
0000
0000
0000
0010
0100
0010
0000
1000
0000
0001
0000
0010
0000
0100
0000
,
MMMM
0000
0010
0001
0100
1000
0100
0000
,
0001
0010
0001
1000
0001
0010
0001
1000
,
0001
0000
1000
0100
0010
0001
1000
0000
0001
0000
0100
0000
0010
0000
1000
0000
,
MMMM
0000
0000
0000
0001
0100
0010
0100
0001
0000
0010
0000
0100
0000
1000
0000
,
MMMM
0000
0001
0100
1000
0100
0001
0000
,
1000
1000
1000
0010
0100
0100
0100
0000
,
1001
0000
0001
1000
0100
1000
0001
0000
1000
0100
1000
0000
0001
0000
0100
0000
,
MMMM
0000
0000
0000
0010
1000
0010
0000
1000
0000
0001
0000
0010
0000
0100
0000
,
MMMM
0000
0010
0001
0100
1000
0100
0000
,
0001
0001
0001
0100
0010
0010
0010
0000
,
1001
0000
1000
0100
0010
0001
0010
0000
0001
0000
0100
0000
0010
0000
1000
0000
,
MMMM
0000
0000
0000
0001
0010
0100
1000
0001
0000
0100
0000
0001
0000
0010
0000
,
MMMM
0000
0100
0010
0001
0010
0100
0000
,
0010
0010
0010
0000
1000
1000
1000
0000
,
1001
0000
0000
0000
;
