#TITLE:Wolves of the Sea;
#SUBTITLE:;
#ARTIST:Pirates of the Sea;
#TITLETRANSLIT:;
#SUBTITLETRANSLIT:;
#ARTISTTRANSLIT:;
#GENRE:;
#CREDIT:Braeden;
#MUSIC:Wolves Of The Sea.ogg;
#BANNER:;
#BACKGROUND:;
#CDTITLE:;
#SAMPLESTART:0.000;
#SAMPLELENGTH:0.000;
#SELECTABLE:YES;
#OFFSET:-0.127;
#BPMS:0.000=145.000
,147.000=72.500
,151.000=145.000
;
#STOPS:30.000=1.241;
#BGCHANGES:;
#FGCHANGES:;

//--------------- dance-single - ----------------
#NOTES:
     dance-single:
     :
     Beginner:
     2:
     0,0,0,0,0:
0000
0000
0000
0000
,
0000
0000
0000
0000
,
0000
0000
0000
0000
,
0000
0000
0000
0000
,
0000
0000
1000
0000
,
0000
0000
0001
0000
,
0000
0000
0100
0000
,
0000
0000
0010
1001
,
0000
0000
0000
1000
,
0000
0000
0000
0001
,
0000
0000
0000
0100
,
0000
0000
0000
0010
,
0000
0000
0000
1000
,
0000
0000
0000
0100
,
0000
0010
0000
0002
,
0000
0003
0000
1001
,
0000
0000
0000
1000
,
0000
0000
0000
0010
,
0000
0000
0000
0100
,
0000
0002
0000
0000
,
0000
0003
0000
1001
,
0000
1000
0000
0001
,
0000
0100
0000
0010
,
0000
1000
0000
0001
,
0000
0000
0000
1000
,
0000
0100
0000
0010
,
0000
0001
0000
0100
,
0000
0010
0000
1000
,
0000
0000
0000
1001
,
0000
0001
0000
0100
,
0000
0010
0000
1000
,
0000
0001
0000
0010
,
0000
0000
0000
0100
,
0000
0000
0000
1000
,
0000
0010
0000
0100
,
0000
0001
0000
0020
,
0000
0030
0000
1001
,
0000
0000
0000
1001
,
0000
0000
0000
1000
,
0000
0000
0000
0001
,
0000
0000
0000
0100
,
0000
0000
0000
0010
,
0000
1000
0000
0002
,
0000
0003
0000
1001
,
0000
0000
0000
0010
,
0000
0000
0000
0100
,
0000
0000
0000
0002
,
0000
0000
0000
0000
,
0000
0003
0000
1001
,
0000
1000
0000
0001
,
0000
0010
0000
0100
,
0000
1000
0000
0001
,
0000
0000
0000
0100
,
0000
0010
0000
1000
,
0000
0100
0000
0010
,
0000
0001
0000
2000
,
0000
3000
0000
1001
,
0000
0001
0000
0010
,
0000
0100
0000
1000
,
0000
0001
0000
0100
,
0000
0000
0000
0010
,
0000
1000
0000
0001
,
0000
0010
0000
0100
,
0000
1000
0000
0002
,
0000
0003
0000
1001
;

//--------------- dance-single - ----------------
#NOTES:
     dance-single:
     :
     Easy:
     4:
     0,0,0,0,0:
0000
0000
0000
0000
,
0000
0000
0000
0000
,
0000
0000
0000
0000
,
0000
0000
0000
0000
,
0000
1000
0002
0000
,
0103
0000
0010
1000
,
0001
0000
1000
0100
,
0010
0001
10M0
1001
,
0000
0001
0000
0100
,
0000
0010
0000
1000
,
0000
0001
0000
1000
,
0001
0100
0010
2000
,
0000
3001
0000
0200
,
0000
0310
0000
2000
,
0000
3001
1000
0020
,
0000
1030
0001
1001
,
0000
1000
0000
0010
,
0000
0100
0000
0001
,
0000
0010
0000
0100
,
0000
2000
0000
0000
,
0000
3000
0001
1001
,
1000
0010
0100
0001
,
0010
0100
0000
1000
,
0001
1000
0010
0200
,
0300
0000
0000
0001
,
1000
0001
0010
0100
,
1000
0100
0000
0010
,
0001
0010
0100
0020
,
0000
0030
0001
1001
,
1000
0010
0100
0001
,
0010
0100
0000
0010
,
0000
0001
0000
2000
,
3000
0000
0000
0001
,
0000
0100
0000
0010
,
1000
0010
0000
1000
,
0100
0010
0001
0200
,
0000
0300
0000
M001
,
0000
0100
0000
2001
,
0000
3001
0000
1000
,
0000
0100
0000
0020
,
0000
0130
0000
0110
,
0000
0010
0000
0001
,
0000
1000
0010
0200
,
0000
0300
0000
1001
,
0000
0001
0000
0100
,
0000
0010
0000
1000
,
0000
1001
0000
0010
,
0000
0200
0000
0000
,
0000
0300
0001
1001
,
1000
0100
0010
0001
,
0010
0100
0000
1000
,
0001
0010
0100
0020
,
0000
0030
0000
0001
,
1000
0010
0100
0001
,
0010
0100
0000
0010
,
0001
1000
0010
0200
,
0000
0300
0010
1001
,
1000
0100
0010
0001
,
0010
0100
0000
0010
,
0001
1000
0010
0200
,
0300
0000
0001
1000
,
0010
0000
1000
0001
,
0010
0100
0000
0010
,
0001
0100
0010
1000
,
0001
1000
0010
1001
;

//--------------- dance-single - XO ----------------
#NOTES:
     dance-single:
     XO:
     Medium:
     8:
     0,0,0,0,0:
0000
0000
0000
0000
,
0000
0000
0000
0000
,
0000
0000
0000
0000
,
0000
0000
0000
0000
,
0000
0000
1000
0001
1000
0000
0001
0200
,
0000
0301
0200
0302
,
2003
3000
0002
0203
,
0320
0000
0000
0000
1030
0000
0001
0000
1M00
0000
0000
0000
0001
0000
0000
1000
,
0000
0000
0010
0000
1000
0000
0000
0000
0000
0000
0000
0000
0001
0000
0000
0100
,
0000
0000
0010
0000
1000
0000
0000
0000
0100
0000
0000
0000
0010
0000
0000
0001
,
0000
0010
0001
0000
1000
0000
0001
0000
,
0100
0000
0010
0000
0100
0000
0000
0000
0001
0000
0000
0000
1000
0000
0000
0100
,
0000
0000
1000
0000
0100
0000
0000
0000
0000
0000
0000
0000
0010
0000
0000
0001
,
0000
0000
0010
0000
0001
0000
0000
0000
1000
0000
0000
0000
0010
0000
0000
0100
,
0000
0010
1000
0000
0002
0000
2000
0000
,
0000
0000
0000
0000
3003
0000
0000
0000
1000
0000
0000
0000
1001
0000
0000
0001
,
0000
0000
0100
0000
0010
0000
0000
0000
1000
0000
0000
0000
0100
0000
0000
0010
,
0000
0000
0001
0000
0100
0000
0000
0000
0010
0000
0000
0000
1000
0000
0000
0010
,
0000
0000
1000
0000
0001
0000
0000
0000
0010
0000
0000
0000
0100
0000
0000
1000
,
0000
0001
0200
0000
0001
0000
0010
0000
,
0001
0310
0001
0210
,
1000
0000
0301
0000
1000
0001
0020
0000
,
1000
0000
0031
0000
1000
0001
0100
0000
,
0001
0010
0001
0000
1000
0010
0200
0000
,
0301
0000
0010
0000
0001
0010
0001
0000
,
1000
0001
1000
0000
0010
0100
0010
0000
,
1000
1001
0001
0200
,
0301
0010
0100
0000
1000
0100
0020
0000
,
0001
0130
1000
0210
,
0001
0000
1300
0000
0010
1000
0200
0000
,
0001
0000
1300
0000
0010
0100
0001
0000
,
0010
0001
0010
0000
0001
1000
0002
0000
,
0103
0000
0001
0000
1000
0100
0010
0000
,
0001
1000
0010
0000
1000
0100
1000
0000
,
0001
0100
0010
2000
,
3002
0000
0203
0000
0310
1000
0002
0000
,
0100
0013
0100
10M1
,
1000
0000
0000
0000
0001
0000
0000
0000
0100
0000
0001
0000
10M1
0000
0000
1000
,
0000
0010
0100
0000
0001
0000
0010
0000
,
0010
0000
0000
0000
0100
0000
0000
0000
1000
0000
0000
0000
0001
0000
0000
0100
,
0000
0000
0001
0000
0010
0000
0000
0000
0001
0000
0000
0000
0100
0000
0000
0100
,
0000
0000
0100
0000
0001
0000
0000
0000
1000
0000
0100
0000
1000
0000
0000
0001
,
0000
0100
0020
0000
2030
0000
3002
0000
,
1000
0000
0000
0000
0013
0000
0000
0000
0001
0000
0000
0000
1001
0000
0000
1000
,
0000
0000
0010
0000
0100
0000
0000
0001
0000
0000
0100
0000
0010
0000
0000
1000
,
0000
0000
0100
0000
1000
0000
0000
0000
0001
0000
0000
0000
0010
0000
0000
0010
,
0000
0000
0010
0000
0100
0000
0000
0000
1000
0000
0000
0000
0001
0000
0000
0010
,
0000
0001
0200
0000
0010
0000
0310
0000
,
0001
1000
0001
0210
,
1000
0000
0301
0000
1000
0001
0020
0000
,
1000
0000
0031
0000
1000
0001
0100
0000
,
0010
1000
0100
0000
0010
0001
2000
0000
,
3010
0000
1000
0000
0001
0010
0001
0000
,
1000
0100
0020
0000
0031
0100
0001
0000
,
0010
0100
1000
0002
,
0103
0010
0100
0000
0001
0010
0200
0000
,
1000
0310
0100
0210
,
0001
0000
1300
0000
0010
1000
0200
0000
,
0001
0000
1300
0000
0001
0010
0200
0000
,
1300
0010
0100
0000
0001
1000
0020
0000
,
1030
0000
0001
0000
0010
0100
1000
0000
,
0001
0100
0010
0000
1000
0001
1000
0000
,
0010
0100
0001
0020
,
0230
0000
2300
0000
3001
0100
0002
0000
,
1000
0013
0001
1001
;

//--------------- dance-single - XMOD FS- ----------------
#NOTES:
     dance-single:
     XMOD FS-:
     Hard:
     12:
     0,0,0,0,0:
0000
0000
0000
0000
,
0000
0000
0000
0000
,
0000
0000
0000
0000
,
0000
0000
0000
0000
,
0000
0000
1000
0001
1000
0000
0001
0200
,
0010
0000
0301
1000
0010
0000
1000
0000
,
0001
0000
1000
0000
0001
0010
0100
1000
,
0002
0000
0000
0000
1003
0000
0010
0000
1M00
0000
0000
0000
1001
0000
0000
0001
,
0100
0000
0010
0000
1000
0000
0100
0000
0010
0000
0001
0000
1000
0000
0000
0001
,
0100
0000
0010
0000
1000
0000
0001
0000
1000
0000
0100
0000
0010
0000
0000
0001
,
0010
0000
0100
0000
1000
0000
0010
0000
1000
0000
0001
0000
1000
0010
0M00
0010
,
0001
0000
1000
0000
0001
0100
00M0
0100
1000
0000
0001
0000
1000
0000
0000
0001
,
1000
0000
0010
0000
0100
0000
0001
0000
0010
0000
0100
0000
1000
0000
0000
0001
,
1000
0000
0010
0000
0100
0000
0001
0000
0100
0000
0010
0000
1000
0000
0000
0100
,
0010
0001
0100
0010
1000
0001
0020
0100
,
0130
0000
0000
0000
1000
0001
0000
1000
0001
0100
0010
1000
0001
0000
1000
0100
,
1000
0000
0001
0000
0200
0000
0000
0300
0010
0000
1000
0000
0001
0000
0010
0001
,
0010
0000
0001
0000
0100
0000
0010
0000
0100
0000
0000
0000
0001
0000
1000
0100
,
1000
0000
0001
0000
0100
0000
0010
1000
0010
0000
1000
0000
0001
0000
0000
0100
,
0010
1000
0002
0000
1000
0000
1003
0010
,
0100
0001
1000
0000
0001
0100
0110
0000
,
0010
1000
0010
0000
1000
0001
0100
0010
,
0001
0010
0100
0001
1000
0001
0200
0000
,
0310
1000
0002
0000
1003
0100
0010
0001
,
0010
0001
0100
0000
0010
1000
0002
0000
,
0103
0010
2000
0000
3100
0010
0001
0000
,
1000
0001
1001
2000
,
3001
0100
2000
0000
3100
0001
0200
0000
,
0310
0000
0000
0000
0100
0000
0010
0000
1000
0001
1000
0001
0100
0000
0000
0000
,
0110
0000
0110
0000
0010
1000
0100
0001
,
0100
1000
0001
1000
0010
0100
0002
0000
,
1003
0100
2000
0000
3001
0100
0002
0000
,
1003
0000
0001
0000
0100
0010
2000
0000
,
3001
0200
0010
0000
0301
1000
0010
0000
,
1000
0001
1001
2000
,
3002
0000
0203
0000
0310
1000
0002
0000
,
1003
0000
0000
0000
0000
0000
0000
0000
0001
0000
0000
0000
0000
0000
0000
0000
1000
0000
0000
0000
0010
0000
0000
0000
1M10
0000
0000
1000
0000
0000
0001
0000
,
0100
0000
0000
0000
0000
0000
0010
0000
1000
0000
0000
0001
0000
0000
1000
0000
0001
0000
0000
0000
1000
0000
0100
0000
100M
0000
0000
0000
0010
0000
0000
0000
,
1000
0000
0100
0000
0010
0000
0001
0000
1000
0000
0001
0000
0100
0000
0010
1000
,
0010
0000
1000
0000
0001
0100
0001
0100
0001
0000
1000
0000
0001
0000
0000
0100
,
0010
0000
1000
0000
0100
0000
0010
0000
0001
0000
1000
0000
0010
0000
0000
1000
,
0000
0001
0100
0000
0010
1000
0001
0010
,
0100
1000
0001
0100
0020
0000
1030
0000
,
0001
0000
0100
0000
0001
0000
0100
0000
0010
0000
1000
0000
1001
0000
0000
0001
,
0100
0000
0100
0000
0010
0000
0000
1000
0100
0000
0100
0000
0010
0000
0000
0001
,
1000
0000
1000
0000
0010
0000
0100
0000
0001
0000
1000
0000
0001
0000
0000
0100
,
0010
0000
0100
0000
0001
0000
1000
0000
0001
0000
0010
0000
0100
0000
0000
1000
,
0000
0001
0200
0000
0010
0000
0001
0000
,
0010
0000
0301
0000
1000
0010
1010
0000
,
1000
0000
0001
0000
1000
0100
0010
0100
,
1000
0100
0001
0000
0100
0010
0002
0000
,
1003
0010
0200
0000
0301
0010
0200
0000
,
2300
0000
3001
0000
0100
0001
0200
0000
,
0310
1000
0002
0000
0013
0100
2000
0000
,
3002
0000
0103
0000
0010
1000
0002
0000
,
0103
0010
2000
0000
3001
0100
0020
0000
,
1000
0000
0130
0000
0001
1000
1001
0000
,
0101
0000
0110
0000
0010
1000
0001
0100
,
0010
0100
0010
0000
0100
0001
2000
0000
,
3100
0010
0001
0000
1000
0010
2000
0000
,
3001
0000
0100
0010
1000
0001
1000
0000
,
0010
0100
0002
0000
1003
0100
0010
0000
,
0011
1100
1000
0002
,
0203
0000
0320
0000
1030
0001
2000
0000
,
0010
3100
0001
1001
;
