#TITLE:What Dreams Are Made Of;
#SUBTITLE:;
#ARTIST:Hilary Duff;
#TITLETRANSLIT:;
#SUBTITLETRANSLIT:;
#ARTISTTRANSLIT:;
#GENRE:;
#CREDIT:;
#MUSIC:What Dreams are Made Of.ogg;
#BANNER:;
#BACKGROUND:;
#CDTITLE:;
#SAMPLESTART:47.197;
#SAMPLELENGTH:5.000;
#SELECTABLE:YES;
#OFFSET:0.240;
#BPMS:0.000=127.006;
#STOPS:;
#BGCHANGES:;
#FGCHANGES:;

//--------------- dance-single - ----------------
#NOTES:
     dance-single:
     :
     Beginner:
     1:
     0,0,0,0,0:
0000
0000
0000
0000
,
0000
0000
0000
0000
,
1000
0000
0000
0000
,
0000
0000
0000
0000
,
0001
0000
0000
0000
,
1000
0000
0010
0000
,
1001
0000
0000
0000
,
1000
0000
0000
0000
,
0001
0000
0000
0000
,
0100
0000
0000
0000
,
0001
0000
0000
0000
,
1000
0000
0000
0000
,
0001
0000
0000
0000
,
0100
0000
0000
0000
,
1001
0000
0000
0000
,
0001
0000
0000
0000
,
1000
0000
0000
0000
,
0001
0000
0000
0000
,
0010
0000
0000
0000
,
0100
0000
0000
0000
,
1000
0000
0001
0000
,
1000
0000
0000
0000
,
1001
0000
0000
0000
,
0001
0000
0000
0000
,
2000
0000
0000
0000
,
3000
0000
0000
0000
,
1001
0000
0000
0000
,
0001
0000
0000
0000
,
2000
0000
0000
0000
,
3000
0000
0000
0000
,
1001
0000
0000
0000
,
0001
0000
0000
0000
,
0100
0000
0000
0000
,
0010
0000
0000
0000
,
2000
0000
0000
0000
,
3000
0000
0000
0000
,
1001
0000
0000
0000
,
0001
0000
0000
0000
,
0200
0000
0000
0000
,
0300
0000
0000
0000
,
1001
0000
0000
0000
,
0001
0000
0000
0000
,
0010
0000
0000
0000
,
0100
0000
0000
0000
,
1000
0000
0000
0000
,
0010
0000
0000
0000
,
0100
0000
0000
0000
,
0001
0000
1000
0000
,
1001
0000
0000
0000
,
0010
0000
0000
0000
,
0100
0000
0000
0000
,
0010
0000
0000
0000
,
1000
0000
0000
0000
,
0001
0000
0000
0000
,
0100
0000
0000
0000
,
0001
0000
0001
0000
,
1001
0000
0000
0000
,
0010
0000
0000
0000
,
2000
0000
0000
0000
,
3000
0000
0000
0000
,
1001
0000
0000
0000
,
0001
0000
0000
0000
,
2000
0000
0000
0000
,
3000
0000
0000
0000
,
1001
0000
0000
0000
,
0001
0000
0000
0000
,
0100
0000
0000
0000
,
0010
0000
0000
0000
,
0200
0000
0000
0000
,
0300
0000
0001
0000
;

//--------------- dance-single - ----------------
#NOTES:
     dance-single:
     :
     Easy:
     3:
     0,0,0,0,0:
0000
0000
0000
0000
,
0000
0000
0000
0000
,
1001
0000
0001
0000
,
0000
0100
0000
0100
0000
0100
0000
0100
,
0000
0010
0000
1000
,
0001
0010
0200
0300
,
2002
0000
3003
0000
,
0002
0000
0103
0000
,
0020
0000
0030
0000
,
0200
0000
0300
0000
,
0002
0000
0000
0003
,
0200
0000
0300
0000
,
0002
0000
0000
0000
,
2003
0000
3000
0010
,
1001
0001
0100
0000
,
0010
0000
1000
0001
,
0010
0000
0100
0000
0000
1000
0000
0000
,
0002
0000
0003
0000
,
0100
0010
1000
0000
,
0001
0000
0010
0000
,
0100
1000
0001
0000
,
0100
0000
0020
0030
,
1001
2000
3000
0002
,
0003
0000
1000
0002
,
0000
0000
0000
0103
,
0000
0010
0000
1000
,
1001
0002
0003
2000
,
3000
0000
0001
2000
,
0000
0000
0000
3001
,
0000
0100
0000
0010
,
1001
1000
0001
2000
,
0000
3000
0001
0010
,
0000
0001
1000
0002
,
0000
0003
1000
0020
,
0000
0000
0000
0130
,
0001
0010
0100
0000
,
1001
0002
0003
2000
,
3000
0020
0030
1000
,
0001
1000
0010
1000
,
0001
0010
0000
0000
,
1001
0001
0100
0000
,
0010
0000
1000
0002
,
0000
2003
0000
3000
,
0001
0000
0100
0000
,
0001
0010
0100
0000
,
1000
0000
0001
0000
,
1000
0001
2000
3000
,
0010
0000
0100
0000
,
1001
0001
0100
0020
,
0030
1000
0000
0001
,
1000
0000
0001
0000
0000
1000
0000
0000
,
0020
0000
0030
0000
,
1000
0001
0010
0000
,
0001
0000
1000
0000
,
0100
0010
0001
0000
,
1000
0000
0001
0000
,
1001
2000
3000
0002
,
0003
0000
0100
0002
,
0000
0000
0000
1003
,
0010
0100
0001
0000
,
1001
2000
3000
0020
,
0030
0000
1000
0020
,
0000
0000
0000
1030
,
0100
0010
0001
1000
,
1001
0001
0100
0020
,
0000
0030
1000
0001
,
0000
1000
0001
0020
,
0000
0030
0001
0200
,
0000
0000
0000
0300
,
0010
1000
0001
0000
;

//--------------- dance-single - ----------------
#NOTES:
     dance-single:
     :
     Medium:
     7:
     0.149,0.17,0.062,0.054,0:
0000
0000
0000
0000
,
0000
0000
0000
0000
,
1001
0010
0100
0001
,
0010
0100
0000
0100
0000
0100
0000
0100
,
1000
0010
0100
0001
,
0010
0100
0010
0100
1000
0001
1000
0001
,
1001
0000
0010
0100
0010
0100
0000
0010
,
0000
1000
0000
0001
0010
0001
0010
0000
,
0001
0000
0000
1000
0000
0000
0000
0000
,
0010
0000
0000
0100
0000
0000
0000
0000
,
0001
0010
0001
0000
,
0100
0010
1000
0000
,
0001
1000
0001
1000
0000
0000
0000
0000
,
0010
0100
0001
0010
,
0011
0001
0100
0010
,
1000
0001
0010
0100
,
1000
0000
0001
0000
0000
0100
0000
0000
,
0020
0000
1030
0001
,
0010
0000
0100
1000
0100
0010
0000
0001
,
0000
0100
0000
0010
0000
1000
0000
0000
,
0000
0000
0001
1000
0001
0000
0000
0100
,
0010
0000
0010
0100
0000
0100
0000
0000
,
1001
0000
0010
1000
0000
0000
1000
0020
,
0000
0000
0000
0000
0130
0001
0100
0002
,
0000
0000
0000
0000
0000
0000
0013
0100
,
0000
0010
0000
0000
1000
0000
0001
0000
,
1001
0000
0010
1000
0000
0000
0010
2000
,
0000
0000
0000
0000
3001
0100
0010
2000
,
0000
0000
0000
0000
0000
0000
3001
0010
,
0000
0010
0000
0000
0000
0100
1000
0000
,
1100
0000
0100
0000
0010
0001
0100
0020
,
0000
0000
1030
0001
,
0101
0000
0010
0000
1000
0010
0100
0002
,
0000
0000
0000
0000
1003
0100
1000
0200
,
0000
0000
0000
0000
0000
0310
0001
0010
,
0000
0001
0100
0010
,
1010
1000
0001
0100
,
0010
1000
0100
0110
,
0010
0001
0100
0010
,
1010
0010
0000
0000
,
1010
1000
0001
0100
,
0010
0000
1000
0000
0100
0010
0100
0000
,
0010
0001
0100
0010
,
1000
0001
0100
0010
,
1001
0000
0010
0100
0010
0000
1000
0001
,
0000
0100
0000
0010
0000
1000
0000
0000
,
0001
1000
0001
1000
0000
0000
0000
0000
,
0010
0100
0001
0010
,
0011
0001
0100
0010
,
1000
0100
0010
0001
,
0100
0000
0020
0000
0000
2030
0000
0000
,
3002
0000
0103
0010
,
1010
0000
1000
0001
0100
0001
0010
0000
,
0001
0100
0010
1000
,
0001
0000
0100
0010
0100
0000
0001
0000
,
0010
0000
0100
1000
0000
1000
0000
0000
,
1001
0000
0001
0100
0000
0000
0001
0200
,
0000
0000
0000
0000
0310
1000
0010
1000
,
0002
0000
0000
0000
0000
0000
0103
0010
,
0000
1000
0000
0000
0001
0000
1000
0000
,
1001
0000
0001
0100
0000
0000
0010
1000
,
0000
0000
0001
0000
1000
0100
1000
0002
,
0000
0000
0000
0000
0000
0000
1003
0010
,
0000
0100
0000
0000
0000
0001
1000
0000
,
1001
0000
1000
0000
0001
0100
0010
2000
,
0000
3000
0100
0100
,
0010
0000
0001
0000
0100
0010
1000
0002
,
0000
0000
0003
0000
1000
0100
1000
0002
,
0000
0000
0000
0000
0003
0100
0010
1000
,
0000
0001
1001
0000
;

//--------------- dance-single - ----------------
#NOTES:
     dance-single:
     :
     Hard:
     10:
     0,0,0,0,0:
0000
0000
0000
0000
,
0000
0000
0000
0000
,
0001
1000
0010
0000
0100
0001
0100
0000
,
0010
1010
0000
0110
0000
0101
0000
0001
,
1000
0000
0100
1000
0000
0000
0010
0100
,
0001
0010
0001
0100
0010
1000
0100
1000
,
1001
0000
0001
0010
0001
0010
0000
0200
,
0000
2300
0000
3100
1000
0001
0100
0000
,
0020
0000
0000
1030
0000
0000
0000
0000
,
0002
0000
0000
0103
0000
0000
0000
0000
,
0010
0000
1000
0100
1000
0002
0000
2003
,
0000
3001
0010
0200
0000
1300
0010
0100
,
0001
0010
0001
0100
0020
0000
1030
0000
,
0001
1000
0010
1000
0000
0000
0001
0000
,
0101
0000
0100
0010
1000
1100
0100
1000
,
0100
1000
0001
0010
0100
1000
0010
0100
,
0001
0000
0101
0000
0000
0110
0000
0000
,
1010
0000
0000
0000
1000
0000
0010
0000
1000
0000
0000
0001
0000
0000
1000
0000
,
0010
0000
1010
1000
0001
0100
0010
1000
,
0000
0100
1000
0100
0000
0010
0001
0000
,
0101
0000
0100
0010
1000
0000
0000
0001
,
0010
0000
0001
2000
0000
3001
0000
0000
,
1001
0000
0001
0100
0010
1000
1010
0010
,
0100
0001
1000
0100
0010
0001
0100
0020
,
0000
0000
1000
0000
0000
0000
0130
0001
,
0000
1000
0010
0100
0001
0010
0100
1000
,
1001
0000
0001
0100
0010
1000
1010
0100
,
0010
1000
0100
1000
0001
0010
0001
2000
,
0000
0000
0001
0000
0000
0000
3010
0100
,
0000
0010
1000
0000
0001
0100
0010
0000
,
1010
0000
0010
0000
0100
0001
0010
0001
,
0100
0010
1000
0100
1000
0000
0010
0000
,
0101
0000
0010
1000
0001
0010
0001
1000
,
0100
1000
0100
0010
0001
0010
0001
1000
,
1002
0000
0100
0000
0000
0000
1003
1000
,
0010
0101
1001
0000
,
1100
1000
0010
0010
0100
0001
0010
0010
,
0100
1000
0010
0010
0100
0001
0010
0010
,
0100
1000
0010
0100
0010
0100
0010
1000
,
0001
0010
0001
1000
0000
0000
0000
0000
,
0001
0010
0001
1000
0010
0100
0000
0001
,
0000
0010
0000
0100
1000
0010
0100
0000
,
0001
0010
0001
1000
0100
1000
0100
0000
,
0010
0001
0010
0001
1000
0010
0100
0000
,
0101
0000
0001
1000
0002
0000
1003
0100
,
0000
1000
0100
1000
0000
0001
0010
0000
,
0001
1000
0100
1000
0010
0100
0001
0000
,
0010
0001
0010
0001
1000
0100
1000
0000
,
1001
0000
0001
1000
0100
1100
1000
0002
,
0000
1003
0100
1000
0000
1000
0010
0000
,
0100
0000
0101
0000
0000
0011
0000
0000
,
0101
0000
0001
0000
0100
0000
0010
1000
,
0010
0000
0100
0001
0010
0001
1000
0010
,
0000
0100
0001
0010
0000
0001
1000
0000
,
0010
0000
0100
0001
0010
0000
0001
1000
,
0010
0000
0100
0002
0000
0013
0000
0000
,
1100
0000
1000
0010
0100
0010
1010
1000
,
0100
0010
0001
0010
0001
1000
0010
0200
,
0001
0000
0001
0000
0010
0000
0301
0010
,
0001
1000
0100
0010
0001
0100
0010
0000
,
1010
0000
0010
0100
0010
1000
1001
0001
,
0100
0010
1000
0001
0010
0100
1000
0002
,
0010
0000
0100
0000
0010
0000
0103
0100
,
0000
0010
1000
0100
1000
0010
0100
0000
,
0101
0000
0020
0000
1030
0100
1000
0010
,
0100
0001
0010
0001
1000
0010
0100
0001
,
0011
0000
0100
0000
1000
0010
0100
0001
,
1000
0010
0100
0001
0010
0001
1000
0010
,
2010
0000
0001
0000
3010
0010
0010
0100
,
0101
0011
1001
0000
;
