#TITLE:Waiting for Tonight;
#SUBTITLE:;
#ARTIST:Jennifer Lopez;
#TITLETRANSLIT:;
#SUBTITLETRANSLIT:;
#ARTISTTRANSLIT:;
#GENRE:;
#CREDIT:;
#MUSIC:Waiting For Tonight.ogg;
#BANNER:;
#BACKGROUND:;
#CDTITLE:;
#SAMPLESTART:100.000;
#SAMPLELENGTH:12.000;
#SELECTABLE:YES;
#OFFSET:-0.153;
#BPMS:0.000=125.000;
#STOPS:;
#BGCHANGES:;
#FGCHANGES:;

//--------------- dance-single - ----------------
#NOTES:
     dance-single:
     :
     Beginner:
     2:
     0,0,0,0,0,0,0,0,0,0,0,0,0,0,0,0,0,0,0,0,0,0:
0000
0000
0000
0000
,
0000
0001
0000
0000
,
0000
1000
0000
0000
,
0000
0020
0000
0030
,
0000
1001
0000
0000
,
0000
1000
0000
0000
,
0000
0001
0000
0000
,
0000
0100
0000
0000
,
0000
1001
0000
0000
,
0000
0001
0000
0000
,
0000
1000
0000
0000
,
0000
0010
0000
0000
,
0000
1001
0000
0000
,
0000
0100
0000
0000
,
0000
0010
0000
0000
,
0000
1000
0000
0000
,
0000
1001
0000
0000
,
0000
0001
0000
0000
,
0000
1000
0000
0000
,
0000
0010
0000
0000
,
0000
1000
0000
0000
,
0000
0001
0000
0000
,
0000
0100
0000
0000
,
0000
0010
0000
0000
,
0000
1001
0000
0001
,
0000
1000
0000
0010
,
0000
1000
0000
0001
,
0000
0100
0000
0000
,
0000
0010
0000
1000
,
0000
0001
0000
1000
,
0000
0001
0000
1000
,
0000
0010
0000
0000
,
0000
1001
0000
0000
,
0200
0000
0300
0000
,
0000
1000
0000
0001
,
0000
0100
0000
0010
,
0000
1000
0000
0000
,
0002
0000
0003
0000
,
0000
1000
0000
0001
,
0000
0100
0000
0010
,
0000
1001
0000
0000
,
0000
2000
0000
3000
,
0000
0002
0000
0000
,
0000
0003
0000
0000
,
0000
1001
0000
0000
;

//--------------- dance-single - ----------------
#NOTES:
     dance-single:
     :
     Easy:
     4:
     0,0,0,0,0:
0000
0000
0000
0000
,
0000
1000
0000
0000
,
0000
0001
0000
0000
,
0000
1000
0000
0000
,
0001
2001
0000
0000
,
3000
0002
0000
0000
,
0003
0020
0000
0000
,
0030
0001
0000
1000
,
0001
2002
0000
0000
,
3003
2000
0000
0000
,
3000
0002
0000
0000
,
0003
0100
0000
0010
,
1000
2002
0000
0000
,
3003
2000
0010
0000
,
3000
0002
1000
0000
,
0003
0100
0010
0000
,
1000
1001
0001
0100
,
0010
1000
0100
0010
,
0001
0100
0010
1000
,
0100
2000
3002
0003
,
0000
1001
1000
0001
,
0100
0001
1000
0100
,
0010
0001
0100
0010
,
1000
0200
0320
0030
,
0000
2002
3003
0002
,
0003
2000
3000
0020
,
0030
2000
3000
0002
,
0003
0200
0300
0010
,
0000
2000
3000
0002
,
0003
0200
0300
0020
,
0030
2000
3000
0002
,
0003
2000
3000
0001
,
1000
2002
0000
3003
,
0020
0000
2030
0000
,
3000
0020
0030
2000
,
3000
0001
0000
1000
,
0001
2000
0000
3000
,
0001
0200
0000
0300
,
0000
0020
0030
2000
,
3000
0002
0003
1000
,
0001
1001
1000
0000
,
0001
1000
0010
0000
,
0100
0001
0100
0000
,
0002
0000
1003
0100
,
0001
1001
0000
0000
;

//--------------- dance-single - ----------------
#NOTES:
     dance-single:
     :
     Medium:
     7:
     0,0,0,0,0:
0000
0000
0000
0000
,
0000
1001
1000
0010
,
1000
1001
0001
0100
,
0010
0000
2000
0000
0000
0000
3000
0001
,
1000
0000
0010
0000
1000
0000
0000
0000
0001
0000
0000
1000
0000
0000
0001
0000
,
0000
0000
0000
0000
0200
0000
0000
0000
0310
0000
0000
1000
0000
0000
0001
0000
,
0000
0000
0000
0000
0200
0000
0000
0000
0310
0000
0000
1000
0000
0000
0001
0000
,
0000
0000
1000
0000
0000
0000
0001
0100
,
0001
0000
0000
0000
1001
0000
0000
0000
1000
0000
0000
0010
0000
0000
1000
0000
,
0000
0000
0000
0000
0002
0000
0000
0000
1000
0003
0000
0010
0000
0000
0100
0000
,
0000
0000
0000
0000
0002
0000
0000
0000
1003
0000
0000
0100
0000
0000
1000
0000
,
0000
0000
0000
0000
0001
0000
0000
0000
1000
0000
0000
0001
0000
0000
0100
0000
,
0010
0000
0000
0000
1010
0000
0000
0000
1000
0000
0000
0001
0000
0000
1000
0000
,
0000
0000
0000
0000
0002
0000
0000
0000
1003
0000
0000
0100
0000
0000
0010
0000
,
0000
0000
0000
0000
0002
0000
0000
0000
1003
0000
0000
0010
0000
0000
0100
0000
,
0000
0000
0000
0000
0001
0000
0000
0000
1000
0000
0000
0001
0000
0000
0100
0000
,
0001
0000
0000
0000
0110
0000
0000
0000
0100
0000
0000
0001
0000
0000
1000
0000
,
0010
0000
0000
0000
1000
0000
0000
0000
0100
0000
0000
0010
0000
0000
0001
0000
,
0100
0000
0000
0000
0010
0000
0000
0000
1000
0000
0000
0100
0000
0000
1000
0000
,
0010
1000
0002
0000
0103
0000
0000
0000
,
0010
0000
1000
0000
0001
0000
0000
0000
1000
0000
0000
0010
0000
0000
1000
0000
,
0001
0000
0000
0000
0010
0000
0000
0000
0100
0000
0000
1000
0000
0000
0010
0000
,
0100
0000
0000
0000
0001
0000
0000
0000
1000
0000
0000
0100
0000
0000
0010
0000
,
0100
1000
0002
0000
0103
0000
0000
0000
,
0000
0000
0000
0000
1001
0000
0000
0001
0000
0000
0000
0000
1000
0000
0000
0010
,
0000
0000
0000
0000
0100
0000
0000
0001
0000
0000
0100
0000
0010
0000
0000
0000
,
0000
0000
0000
0000
1000
0000
0000
0100
0000
0000
0000
0000
0010
0000
0000
0001
,
0000
0000
0000
0000
0100
0000
0000
0010
0000
0000
1000
0000
0001
0000
0000
0000
,
0000
0000
0000
0000
1000
0000
0000
0100
0000
0000
0010
0000
0001
0000
0000
0100
,
0000
0000
0000
0000
0010
0000
0000
1000
0000
0000
0100
0000
1000
0000
0000
0000
,
0000
0000
0000
0000
0001
0000
0000
0001
0000
0000
0001
0000
1000
0000
0000
1000
,
0000
1000
0001
0000
0000
0000
1000
0001
,
1000
0001
2000
0000
3001
0000
0000
0000
,
0100
0000
0020
0000
0000
0000
0030
0000
1000
0000
0000
0001
0000
0000
1000
0000
,
0010
0000
0000
0000
0100
0000
0000
0100
0000
0000
0000
0000
0001
0000
0000
0001
,
0000
1000
0001
0000
0000
0000
1000
0010
,
1000
0001
1000
0000
0000
0000
0000
0000
,
0001
0100
0010
0200
0000
0300
0000
0000
,
0000
0000
0001
0000
1000
0000
0000
0010
0000
0000
1000
0000
0001
0000
0000
1000
,
0000
0010
1000
0000
0000
0000
0001
0100
,
0001
0100
0001
0000
1000
0000
0010
0000
,
0100
0000
0001
0010
0001
0010
0000
0000
,
0000
0000
0100
1000
0100
2000
0000
3001
,
0100
0010
1000
0000
0001
0000
1000
0000
,
0010
1001
0000
0000
;

//--------------- dance-single - SJ- ----------------
#NOTES:
     dance-single:
     SJ-:
     Hard:
     10:
     0,0,0,0,0,256,241,15,22,0,0,0,0,0,0,0,256,241,15,22,0,0:
0000
0000
0000
0000
,
0000
2020
0000
3030
,
0000
0202
0000
0303
,
0000
0020
0000
0000
0000
0000
0000
1030
,
0010
0000
0100
0000
0010
0000
0000
0000
1000
0000
0000
0001
0000
0000
1000
0000
,
0000
0000
0010
0000
0010
0000
0000
0000
0100
0000
0000
0001
0000
0000
0010
0000
,
0000
0000
0100
0000
0100
0000
0000
0000
1000
0000
0000
0100
0000
0000
0010
0000
,
0000
0000
0001
0000
1000
0000
0001
0100
0000
0001
0100
0001
0100
0000
0010
0000
,
1000
0001
0000
0000
2001
0000
0000
0000
3001
0000
0000
0010
0000
0000
0100
0000
,
0000
0000
1000
0000
0002
0000
0000
0000
0100
0000
0000
0100
0000
0000
0103
0000
,
0000
0000
0000
0000
2001
0000
0000
0000
0100
0000
0000
0100
0000
0000
3100
0000
,
0000
0000
0000
0010
0000
0000
0000
0000
1000
0000
0100
0000
1000
0000
0000
0000
0000
0000
0000
0000
0001
0000
0100
0000
,
0001
0000
1000
0000
1001
0000
0000
0000
0200
0000
0000
0010
0000
0000
0310
0000
,
0000
0000
1000
0000
0200
0000
0000
0000
0010
0000
0000
0010
0000
0000
0310
0000
,
0000
0000
0000
0000
0002
0000
0000
0000
0100
0000
0000
0100
0000
0000
0103
0000
,
0000
0000
0010
0000
1000
0010
0000
0000
1000
0000
0001
0100
0000
0001
0100
0000
,
0010
0000
1000
0000
1001
0000
0000
0000
0001
0000
0100
0001
0000
0000
0100
0000
,
0010
0000
0000
0000
1010
0000
0000
0000
0010
0000
0100
0010
0000
0000
0010
0000
,
1000
0000
0010
0000
0100
0000
0000
0000
0001
0000
0100
0010
0000
0000
1000
0000
,
0010
0100
0002
0000
1003
0000
0001
0100
,
0010
0000
0000
0000
1010
0000
0000
0000
1000
0000
0001
1000
0000
0000
0010
0000
,
0100
0000
0000
0000
1010
0000
0000
0000
1000
0000
0001
0100
0000
0000
0001
0000
,
0100
0000
0000
0000
0101
0000
0000
0000
0010
0000
1000
0010
0000
0000
1000
0000
,
0010
0100
0020
0000
2030
0000
3000
0001
,
0100
0000
0010
0000
1010
0000
0000
1000
0000
0000
0010
0000
0100
0000
0000
0100
,
0000
0000
0001
0000
0010
0000
0000
0010
0000
0000
0100
0000
1000
0000
0000
0000
,
0000
0000
0001
0000
0100
0000
0000
0100
0000
0000
0010
0000
1000
0000
0000
1000
,
0000
0000
0100
0000
0010
0000
0000
0001
0000
0000
0100
0000
0010
0000
0000
0000
,
0000
0000
1000
0000
0010
0000
0000
0010
0000
0000
0100
0000
0001
0000
0000
0010
,
0000
0000
0100
0000
1000
0000
0000
0100
0000
0000
0010
0000
0001
0000
0000
0000
,
0000
0000
0000
0000
0100
0000
0000
0100
0000
0000
0010
0000
1000
0000
0000
0001
,
0000
0100
0010
1000
0010
0000
0100
0001
,
0010
0000
0001
0000
0011
0000
0000
0000
0001
0000
0000
0001
0000
0000
1000
0000
,
0010
0000
0100
0000
0020
0000
0000
0000
1030
0000
0000
1000
0000
0000
0100
0000
,
0000
0000
1000
0000
0001
0000
0000
0100
0000
0000
0010
0000
1000
0000
0000
0100
,
0000
0010
0100
0000
1001
0000
1000
0010
,
0100
0000
0010
0000
1000
0000
0000
0000
0100
0000
0000
1000
0000
0000
0100
0000
,
2000
0000
3002
0000
0203
0000
0302
0000
1003
0000
0000
0010
0000
0000
0100
0000
,
0000
0000
0001
0000
0010
0000
0000
0010
0000
0000
0010
0000
0100
0000
0000
0100
,
0000
0100
2000
0000
0000
0000
3001
0100
,
0010
0000
1000
0000
1010
0000
0000
0000
1000
0000
0000
0001
0000
0000
0100
0000
,
0000
0010
1000
0010
0100
0020
0000
0030
,
0000
1000
0001
0100
0010
2000
0000
3010
,
0100
0000
0010
0000
1000
0000
0000
0000
1000
0001
0000
1000
0000
0100
0000
0010
,
0001
1000
1001
0000
0000
0000
0000
0000
;

//--------------- dance-double - XO ----------------
#NOTES:
     dance-double:
     XO:
     Hard:
     12:
     0,0,0,0,0:
00000000
00000000
00000000
00000000
,
00000000
00000000
00011000
00001000
00010000
00001000
00100000
00010000
,
00100000
00001000
00101000
00100000
00010000
10000000
01000000
00100000
,
00010000
01000000
02002000
00000000
00000000
00000000
03003000
00001000
,
01000000
00000000
00010000
00000000
10010000
00000000
00000000
00000000
00010000
00000000
00000000
00010000
00000000
00000000
00010000
00000000
,
00000000
00000000
01000000
00000000
00002000
00000000
00000000
00000000
00010000
00000000
00000000
00010000
00000000
00000000
00013000
00000000
,
00000000
00000000
00000010
00000000
00000200
00000000
00000000
00000000
00000001
00000000
00000000
00000001
00000000
00000000
00000301
00000000
,
00000000
00000000
00001000
00000000
00000001
00000000
00001000
00000100
00000000
00000010
00000001
00000010
00000100
00000000
00001000
00000000
,
00000010
00000000
00000000
00000000
00001010
00000000
00001000
00000000
00000001
00000000
00001000
00000010
00000000
00001000
00000100
00000000
,
00000010
00000000
00000001
00000000
00001000
00000000
00000100
00000000
00010000
00000000
00001000
00010000
00000000
00001000
00100000
00000000
,
00010000
00000000
00000000
00000000
10010000
00000000
00000000
00000000
10000000
00000000
00010000
01000000
00000000
00010000
00100000
00000000
,
00010000
00000000
00000000
00000000
00000000
00000000
10000000
00000000
00000000
00000000
00000000
00000000
00010000
00000000
00000000
00000000
01000000
00000000
00000000
00000000
00001000
00000000
00000000
00000000
00010000
00000000
00000000
00000000
00000000
00000000
00000000
00000000
00000000
00001000
00000000
00000000
00000000
00000000
00000000
00000000
00010000
00000000
00000000
00000000
00000100
00000000
00000000
00000000
,
00010000
00000000
00001000
00000000
00011000
00000000
00000000
00000000
00010100
00000000
00001000
00000100
00000000
00001000
00000100
00000000
,
00001000
00000000
00000001
00000000
00001000
00000000
00000010
00000000
00000100
00000001
00000000
00000100
00000000
00000000
00000010
00000000
,
00010000
00000000
00000000
00000000
00000100
00000000
00001000
00000000
00000010
00001000
00000000
00000010
00000000
00000000
00001000
00000000
,
00000001
00001000
00000000
00000000
00000001
00000010
00000000
00000000
00000100
00000000
00000000
00001000
00000000
00000100
00010000
00001000
,
00010000
00000000
00001000
00000000
00101000
00000000
00000000
00000000
00100000
00000000
00010000
00100000
00001000
00000000
01000000
00000000
,
00100000
00000000
00000000
00000000
02100000
00000000
00000000
00000000
03100000
10000000
00000000
00100000
10000000
00000000
00010000
00000000
,
01000000
00000000
00001000
00000000
00021000
00000000
00000000
00000000
00031000
01000000
00000000
00100000
00000000
00000000
01000000
00000000
,
00001000
00000000
00010000
00000000
00000200
00000000
00000000
00000000
00001300
00000000
00000000
00001000
00000000
00000000
00000100
00000000
,
00010000
00000000
00000010
00000000
00000120
00000000
00000000
00000000
00000130
00000000
00000001
00001000
00000000
00000000
00000010
00000000
,
00010000
00000000
00001000
00000000
00201000
00000000
00000000
00300000
00010000
00000000
10000000
00100000
00000000
00000000
10000000
00000000
,
10000000
00000000
01000000
00000000
20000000
00000000
00000000
00000000
30010000
00000000
01000000
00010000
00000000
00000000
00100000
00000000
,
00001000
00010000
00002000
00000000
00023000
00000000
00030100
00001000
,
00000001
00000000
00001000
00000000
00001001
00000000
00000000
00000001
00000000
00000000
00000100
00000010
00000100
00000000
00000000
00000001
,
00000000
00000000
00000010
00000000
00001000
00000000
00000000
00010000
00000000
00000000
01000000
00000000
10000000
00000000
00000000
00000000
,
00010000
00000000
10000000
00000000
00010000
00000000
00100000
00000000
00010000
00000000
01000000
00000000
00010000
00000000
00000000
01000000
,
00000000
00000000
00100000
00000000
00010000
00000000
00000000
00100000
00000000
00000000
01000000
00000000
00001000
00000000
00010000
00000000
,
00000010
00000000
00001000
00000000
00000001
00000000
00000010
00000000
00000100
00000000
00000010
00000000
00000001
00000000
00000000
00001000
,
00000000
00000000
00000100
00000000
00000010
00000000
00000000
00001000
00000000
00000000
00000010
00000000
00000100
00000000
00010000
00000000
,
00001000
00000000
00000000
00000000
00100000
00000000
00000000
00000010
00000000
00000000
00010000
00000000
00001000
00000000
00000000
10000000
,
00000000
00010000
01000000
00001000
00020000
00000000
00031000
00010000
,
00000010
00000000
00000100
00000000
00000110
00000000
00000000
00000000
00000010
00000000
00000000
00000100
00000010
00000000
00001000
00000000
,
00000002
00000000
00000010
00000000
00000000
00000000
00001003
00000000
00000010
00000000
00000000
00001000
00000100
00000000
00000010
00000000
,
00000001
00001000
00000100
00000001
00000100
00001000
00010000
01000000
,
00001000
00010000
00001000
00000000
01001000
00000000
01000000
00100000
,
01000000
00000000
10000000
00000000
02000000
00000000
00000000
00000000
03100000
00000000
00000000
10000000
00000000
00000000
00010000
00000000
,
00100000
00000000
00001000
00000000
00100000
00000000
00001000
00000000
00010000
00000000
00000000
00000100
00001000
00000000
00000001
00000000
,
00001000
00000001
00001000
00000100
00000001
00000100
00001000
00010000
,
00100000
00001000
02000000
00000000
03010000
00000000
10000000
01000000
,
00010000
00000000
01000000
00000000
21000000
00000000
00000000
00000000
30010000
00000000
00000000
01000000
00100000
00000000
01000000
00000000
,
00001000
00010000
00001000
00000100
00001000
00010000
00000010
00000100
,
00000001
00001000
00000100
00000001
00000100
00002000
00000000
00003100
,
00010000
00000000
00001000
00000000
01000000
00000000
00000000
00000000
00001000
00010000
00000000
00001000
00000000
00010000
00000000
00000100
,
00010000
00000100
00001010
00000000
00000000
00000000
00000000
00000000
;
