#TITLE:Unlucky Number;
#SUBTITLE:;
#ARTIST:Z-I-v Sound Team "Braeden";
#TITLETRANSLIT:;
#SUBTITLETRANSLIT:;
#ARTISTTRANSLIT:;
#GENRE:;
#CREDIT:;
#MUSIC:Unlucky Number.ogg;
#BANNER:;
#BACKGROUND:;
#CDTITLE:;
#SAMPLESTART:0.000;
#SAMPLELENGTH:0.000;
#SELECTABLE:YES;
#OFFSET:0.013;
#BPMS:0.000=150.000
,45.500=140.000
,48.500=132.500
,52.000=127.500
,110.500=120.000
,143.000=127.500
,149.500=140.000
,156.000=150.000
,162.500=155.000
,169.000=160.000
,175.500=165.000
,182.000=170.000
,188.500=150.000
,195.000=175.000
;
#STOPS:;
#BGCHANGES:;
#FGCHANGES:;

//--------------- dance-single - ----------------
#NOTES:
     dance-single:
     :
     Beginner:
     2:
     0,0,0,0,0:
0000
0000
0000
0000
,
0000
0000
0000
0000
0000
1000
0000
0000
,
0000
0000
0000
0002
0000
0000
0000
0000
,
0003
1000
0000
0000
,
0010
0000
0000
0000
0000
0000
0000
1000
,
0000
0000
0000
0000
0000
0002
0000
0000
,
0000
0003
1000
0000
,
0000
1000
0000
0000
,
0000
0001
0000
0000
0000
0000
0000
0100
,
0000
0000
0000
0010
,
0000
0000
0000
0000
1000
0000
0000
1000
,
0000
0000
0000
0000
,
0000
0001
0000
0000
0000
1000
0000
0000
,
0001
0000
0000
0100
,
0000
0000
0000
0000
0000
0010
0000
0000
,
0000
0000
0000
1000
0000
0000
0000
0000
,
0000
0100
0000
0000
,
0010
0000
0000
0000
0000
0001
0000
0001
,
0000
0000
0000
0000
0000
1000
0000
0000
,
0000
0010
0010
0000
,
0000
0000
1000
0000
0000
0000
0000
0001
,
0000
0001
0000
0000
0000
0000
0000
1000
,
0000
0000
0010
0010
,
0000
0000
0100
0000
,
0000
0000
0000
0001
0000
0000
0000
0000
,
0000
1000
0000
0000
0000
0000
0000
0000
,
0001
0000
0000
0010
,
0000
0000
0000
0000
0000
0100
0000
0000
,
0000
0000
0000
1000
0000
0000
0000
0000
,
0001
0001
0000
0000
,
0010
0000
0000
0100
,
0000
0000
0000
0000
0000
1000
0000
0000
,
0000
0000
0001
0000
,
0000
0100
0000
0000
,
0000
0010
0000
0000
0000
0000
0000
1000
,
0000
0000
0000
0001
,
0000
0000
1000
0000
,
0000
0000
0000
0001
0000
0000
0000
0000
,
0000
0100
0000
0000
0000
0000
0000
0000
,
0010
0000
0000
1000
,
0000
0000
0000
0000
0000
0001
0000
0000
,
0000
0000
0000
0010
0000
0000
0000
0000
,
0000
0100
0000
0000
,
1000
0000
0000
0000
0000
0000
0000
0001
,
0000
0000
0000
0000
0000
0010
0000
0000
,
0000
0000
0100
0000
,
0000
0010
0000
0000
,
0000
0000
0000
0000
,
0000
0000
0000
0001
,
0000
0000
1000
0000
,
0000
0000
0000
0010
0000
0000
0000
0000
,
0000
0100
0000
0000
0000
0000
0000
0000
,
0001
0000
0000
1000
;

//--------------- dance-single - XMOD JA ----------------
#NOTES:
     dance-single:
     XMOD JA:
     Easy:
     6:
     0,0,0,0,0:
0000
0000
0000
0000
,
0000
0000
0000
0000
0000
2000
0000
0000
,
3002
0000
0000
0203
0000
0000
0000
0000
,
0000
0000
0302
0000
0000
0023
0000
0000
,
0230
0000
0000
1300
0000
0001
0000
0200
,
0000
0000
0320
0000
0000
2030
0000
0000
,
0000
0000
0000
0000
3001
0000
0000
0100
,
0000
0000
0010
0000
0000
1000
0000
0001
,
0000
0010
0000
0000
0100
0000
0000
1000
,
0000
0000
0001
0000
0100
0000
0001
1000
,
0000
0001
0000
0000
0100
0000
0000
0020
,
0000
0000
0000
1030
0000
0000
0001
0000
,
0000
1000
0000
0001
0000
1000
0000
0001
,
1000
0000
1000
0001
0000
0010
0001
0000
,
1000
0001
0000
1000
0000
0001
0000
0100
,
0010
0000
1000
0100
0000
0010
0001
0000
,
1000
0000
0001
0000
0010
0100
0000
1000
,
0001
0000
0010
0100
0000
0100
0000
1000
,
0000
0001
0100
0000
0010
1000
0000
0100
,
0010
0000
0010
0000
0001
0000
0100
0100
,
0000
0001
0001
0000
1000
1000
0000
0010
,
0000
0100
0000
0001
0001
0000
0010
0010
,
0000
0100
0100
0000
1000
0000
0001
0000
,
0000
0100
0000
0000
0010
0000
0000
1000
,
0000
0001
0000
1000
0100
1000
0100
0000
,
0000
0010
0001
0010
0001
0000
1000
0000
,
0001
0000
0100
0010
0000
1000
0100
0000
,
0010
0001
0000
0100
0000
0001
1000
0001
,
1000
0000
0000
0001
0010
0001
0100
0000
,
0100
0000
0010
0000
0000
1000
0000
0000
,
0001
0000
0000
0010
0100
0000
1000
0000
,
0000
0000
0001
0000
0000
1000
0000
0000
,
0100
0000
0010
0000
0001
0001
0000
0100
,
0100
0000
0010
0010
0000
1000
0000
0001
,
0000
1000
1000
0000
0010
0010
0000
0100
,
0100
0001
1000
0002
,
0000
0203
0000
0000
0320
0000
0000
2030
,
0000
3002
0000
1003
0000
0000
0100
0000
,
0000
0010
0000
0000
0001
0000
0000
0000
,
2001
0000
0000
3020
0000
0000
0230
0000
,
0000
0302
0000
0203
0000
0301
0000
0100
,
0001
0000
1000
0010
0000
0100
0001
0000
,
1000
0000
0001
0000
0000
0010
0000
0000
,
0100
0000
0000
1000
0000
0001
0000
1000
,
0000
0000
0100
0000
0000
0010
0000
0000
,
0001
0000
1000
0000
0002
0000
0000
0203
,
0000
0000
0320
0000
0000
2030
0000
3002
,
0000
0003
0000
0000
0000
0000
0000
0000
,
0000
0000
0000
0001
,
1000
0010
0000
0100
0001
0000
0100
0010
,
0000
0010
0000
2000
0000
0000
3001
0000
,
0000
0020
0000
0000
0130
0000
0010
0000
,
0002
0000
0000
2003
0000
0000
3020
0000
,
0000
0230
0000
0302
0000
0003
0000
0000
;

//--------------- dance-single - XMOD XO- JA+ RH- ----------------
#NOTES:
     dance-single:
     XMOD XO- JA+ RH-:
     Medium:
     11:
     0,0,0,0,0:
0000
0000
0000
0000
,
0000
0000
0000
0000
0000
2000
0000
0000
,
3002
0000
0000
0023
0000
0000
0000
0000
,
0000
0000
0031
0100
0001
1000
0100
1000
,
0001
0010
0001
0100
0000
0101
0000
0001
,
0010
0100
1000
0100
0010
0002
0000
0000
,
1000
0000
1000
0000
1003
0100
1000
0001
,
0010
0001
1000
0010
1000
0001
0010
0100
,
1000
0001
0100
0001
1000
0100
0010
0001
,
0100
0001
0010
0100
0010
0100
1000
1000
,
0000
0002
0000
0003
0200
0300
0000
0020
,
0000
0000
0030
1000
0000
0000
0001
0000
,
0000
1000
0001
1000
0001
0100
0010
0100
,
0001
1000
0100
0010
0001
0010
0100
1000
,
0001
1000
0100
0001
0100
1000
0001
0010
,
0001
1000
0010
1000
0001
0010
0100
1000
,
0100
0001
0100
1000
1000
0010
0100
0100
,
0001
0010
0010
0100
1000
0001
0010
0001
,
0010
0010
0100
1000
1000
0001
0100
0100
,
0010
0000
0000
1000
0000
0000
0010
0000
0000
1000
0000
0000
0001
0000
0100
0000
0001
0000
0100
0000
0000
0010
0000
1000
,
0000
0010
0000
1000
0000
0000
0001
0000
0010
0000
0100
0000
1000
0000
0000
0001
0000
0000
0000
0000
0000
0100
0000
0000
,
0000
0000
0000
0001
0000
0010
0000
0100
0000
1000
0000
0000
0001
0000
0100
0000
0010
0000
1000
0000
0000
0001
0000
0010
,
0000
0100
0000
1000
0000
0000
0001
0000
0000
0000
0000
0000
0100
0000
0000
0000
0000
0000
0001
0000
0000
0100
0000
0000
,
0100
0010
1000
1000
0100
0010
0010
0001
,
1000
0001
1000
0001
0010
0100
1000
0001
,
0001
0100
0010
1000
0010
0100
0001
0100
,
0001
0010
0100
0010
0001
0100
0001
0010
,
0001
0100
0010
0100
0010
1000
0001
1000
,
0001
0100
0100
0010
1000
0010
1000
0001
,
0100
0001
0200
0000
0300
0020
0000
0030
,
2000
0000
3000
0001
0010
0100
1000
0002
,
0000
0003
2000
0000
3000
0002
0000
0003
,
0010
0100
1000
0001
1000
1000
0010
0100
,
0100
0000
0000
0001
0000
0000
0010
0000
0000
0010
0000
0000
0100
0000
0000
1000
0000
0010
0000
1000
0000
0001
0000
0100
,
0000
0001
0000
1000
0000
0000
1000
0000
0000
0010
0000
0000
0100
0000
0000
0100
0000
0000
0001
0000
0000
0010
0000
0000
,
0010
0000
0000
0100
0000
0000
1000
0000
0010
0000
1000
0000
0001
0000
0100
0000
0010
0000
2000
0000
0000
0000
0000
0000
,
0000
3002
0000
0000
0203
0000
0000
0320
,
0000
2030
0000
3001
0100
0010
0100
0001
,
0010
0100
1000
0100
0010
0001
1000
0000
,
0002
0000
0000
0203
0000
0000
0320
0000
,
0000
2030
0000
3002
0000
1003
0100
1000
,
0001
0010
0001
1000
0010
1000
0001
0010
,
0001
0100
0001
0010
0100
1000
0010
0100
,
0001
0010
0100
1000
0001
1000
0001
1000
,
0000
0000
0010
0000
0000
0100
0000
0000
,
1001
0000
1001
0000
2000
0000
0000
3002
,
0000
0000
0203
0000
0000
0320
0000
2030
,
0000
3000
0000
0000
0000
0000
0000
0000
,
0000
0000
0000
0000
0000
0000
0001
0100
,
0001
0010
0001
0010
0100
1000
0100
1000
,
0001
1000
0001
1000
0100
1000
0100
0000
,
0000
0010
0001
0010
0001
0000
0101
0000
,
2000
0000
0000
3020
0000
0000
0230
0000
,
0000
0302
0000
0023
0000
0030
0000
0000
;

//--------------- dance-single - XMOD FS JA BU ----------------
#NOTES:
     dance-single:
     XMOD FS JA BU:
     Hard:
     15:
     0,0,0,0,0:
0000
0000
0000
0000
,
0000
0000
0000
0000
0000
0002
0000
0000
,
2003
0000
0000
3020
0000
0000
0000
0000
,
0000
0000
2030
0100
3100
0020
0001
0031
,
2000
0010
3010
0001
0100
1000
0100
0002
,
0010
0013
0200
1000
1300
0002
0100
0103
,
0001
0000
0010
0000
0001
0000
0010
0000
0001
0000
0100
00M0
0100
0000
1000
0000
,
0010
0M00
0010
0000
0001
0000
0100
00M0
0100
0000
1000
0010
1000
0100
0010
0001
,
1000
0001
1000
0000
0100
00M0
0100
0000
0001
0000
0010
0M00
0010
0000
1000
0000
,
0100
00M0
0100
0000
0001
0010
0100
1000
0001
0010
0001
1000
0101
0000
1010
0000
,
0000
0202
0000
0303
0022
0000
0033
2200
,
0000
0000
3300
0001
0100
0100
0010
1000
,
1000
0100
0010
0100
0010
0100
0010
0100
,
1000
0000
0001
0010
0001
0010
0001
0000
1000
0100
1000
0100
1000
0000
0001
0100
,
0001
0100
0001
0000
0010
0000
0100
0000
1000
0000
0001
0000
1000
0100
0010
0100
,
1000
0000
0001
0010
0100
0010
0001
0000
1000
0010
0100
0010
1000
0000
0010
0000
,
2000
0000
0100
0000
3001
0000
0100
00M0
0100
0000
1000
0000
0010
0M00
0010
0000
,
0001
0000
0010
0M00
0010
0000
1000
0000
0001
0000
1000
0000
0001
0000
1000
0000
,
0100
00M0
0100
0000
0001
0000
0010
0000
0010
0000
0100
0000
0010
0000
0010
0000
,
0001
0000
0000
1000
0000
0000
0001
0000
0000
1000
0000
0000
0001
0000
0100
0000
0001
0000
0200
0000
0000
0310
0000
1000
,
0000
0010
0000
0200
0000
0000
0301
0000
0010
0000
0100
0000
0020
0000
0000
0031
0000
0010
0000
0100
0000
1000
0000
0010
,
0000
0100
0000
0001
0000
0010
0000
0100
0000
2000
0000
0000
3001
0000
0100
0000
0010
0000
0200
0000
0000
0301
0000
0010
,
0000
0000
0100
0000
0000
0000
0020
0000
0000
0000
0000
0000
0031
0000
0000
0000
1000
0000
0000
0000
0001
0000
0000
0000
0100
0000
0000
0000
0010
0000
0000
0000
1000
0000
0000
0000
0001
0000
0000
0010
0000
0000
0100
0000
0000
1000
0000
0000
,
0001
0100
0001
0010
0100
1000
0001
1000
0001
0100
0010
0100
0001
0100
0001
0010
,
0100
1000
0001
0100
0010
1000
0100
0000
0100
0000
0100
0000
0010
0000
0010
0000
,
0010
0001
0001
0001
1000
1000
0001
0001
,
1000
0100
0010
0001
0010
0100
1000
0100
0010
0100
1000
0001
0100
0010
1000
0001
,
0010
0100
1000
0001
0100
0010
1000
0100
0010
0001
0100
0000
0100
0000
0100
0000
,
0010
0010
0010
1000
1000
1000
0001
0001
,
1000
1000
2000
0000
3000
0002
0000
0003
,
2000
0000
3000
1000
0100
0010
0001
2000
,
0000
3000
0200
0000
0300
2000
0000
3000
,
1000
0000
0000
0100
0000
0000
0010
0000
0000
0001
0000
0000
1000
0100
0010
0001
0000
0000
1000
0000
0000
0100
1000
0001
,
1000
0000
0000
0001
0000
0000
1000
0010
0100
0001
0000
0000
1000
0000
0000
0001
0000
0100
0000
0010
0000
1000
0000
0010
,
0000
0100
0000
0001
0010
0100
1000
0000
0000
0010
0000
0000
0100
0001
1000
0010
0000
0000
1000
0000
0000
0010
0100
0001
,
1000
0000
0000
0001
0000
0000
1000
0000
0010
0000
0100
0000
0001
0000
1000
0000
0100
0000
2000
0000
0000
0000
0000
0000
,
0000
3002
0000
0000
0203
0000
0000
0320
,
0000
0000
2030
0000
0000
0000
3001
0000
0100
00M0
0100
0000
1000
0000
0010
0M00
,
0010
0001
0010
0010
0100
0010
0001
0010
,
0002
0100
0103
0020
0100
0130
0002
1000
,
1003
0000
0010
0000
1000
0000
0001
0000
1000
0000
0001
0000
0100
00M0
0100
0000
,
1000
0000
0010
0M00
0010
0000
0001
0000
0010
000M
0010
0000
1000
0000
0001
0000
,
1000
0001
1000
0010
0010
0100
0001
0001
,
0010
0000
0100
0000
0100
0000
1000
0000
0001
0000
1000
0000
0001
0000
1000
0100
,
1000
0000
0001
0000
0100
0010
0100
0000
0001
0000
1000
0100
1000
0000
0001
0000
,
1000
0100
0010
0001
1000
0010
0100
0001
2000
0000
0000
0000
0000
0000
3002
0000
,
0000
0000
0203
0000
0000
0320
0000
2030
,
0000
3000
0000
0000
0000
0000
0000
0000
,
0000
0000
0000
0000
0000
0000
0000
0000
0000
0000
0000
0000
0001
0100
0001
0000
,
1000
0000
0010
0100
0010
0000
1000
0000
0001
0010
0001
0000
0100
0000
0001
0010
,
0100
1000
0001
0100
0010
1000
0001
0000
0001
0000
0001
0000
0100
0000
0100
0000
,
0100
0010
0010
0010
1000
1000
0001
0001
,
2000
0000
0000
3002
0000
0000
2003
0000
,
0000
3010
0000
1001
0000
0000
0000
0000
;

//--------------- dance-single - XMOD FS+ XO RH BU ----------------
#NOTES:
     dance-single:
     XMOD FS+ XO RH BU:
     Challenge:
     18:
     0,0,0,0,0:
0000
0000
0000
0000
,
0000
0000
0000
0000
0000
0002
0000
0000
,
2003
0000
0000
3020
0000
0000
0000
0000
,
0000
0000
2030
0100
3100
0020
0001
0031
,
2000
0010
3010
0001
0100
1000
0100
0002
,
0010
0013
0200
1000
1300
0002
0100
0103
,
0001
0000
0010
0000
0001
0000
0010
0000
0001
0000
0100
00M0
0100
0000
1000
0000
,
0010
0M00
0010
0000
0001
0000
0100
00M0
0100
0000
1000
0010
1000
0100
0010
0001
,
0100
0001
1000
0000
0100
00M0
0100
0000
0001
0000
0010
0M00
0010
0000
1000
0000
,
0100
00M0
0100
0000
0001
0010
0100
1000
0001
0010
0001
1000
0001
0000
0100
0000
,
0000
0202
0000
0303
0022
0000
0033
2200
,
0000
0000
3300
0001
0100
0100
0010
1000
,
1000
0000
0100
00M0
0100
0000
0100
0000
0100
0000
0100
0000
0100
0000
0100
0000
,
1000
0000
0001
0100
0010
0001
0010
0000
0100
0001
1000
0010
0100
0000
1000
0100
,
0010
1000
0001
0000
0100
0000
0001
0000
0100
0000
0010
0000
1000
0100
0001
0100
,
0010
0000
0001
0100
0010
1000
0010
0000
0100
1000
0100
0001
1000
0000
0010
0000
,
2000
0000
0100
0000
3001
0000
0100
00M0
0100
0000
1000
0000
0010
0M00
0010
0000
,
0001
0000
0000
0000
0000
0000
0010
0000
0000
0M00
0000
0000
0010
0000
0000
0000
0000
0000
1000
0000
0001
0000
0010
0000
0100
0000
0000
0000
0000
0000
1000
0000
0000
0000
0000
0000
0001
0000
0000
0000
0000
0000
1000
0000
0000
0000
0000
0000
,
0100
00M0
0100
0000
0001
0000
0010
0000
0010
0000
0100
0000
0010
0000
0010
0000
,
0001
0100
0010
1000
0000
0000
0001
0000
0000
1000
0000
0000
0001
0000
0100
0000
0001
0000
1000
0100
0010
0001
0000
0100
,
0000
0010
0000
1000
0010
1000
0001
0000
0100
0000
0001
0000
1000
0010
0100
0010
0000
1000
0000
0001
0000
1010
0000
0001
,
0000
0100
0000
0001
0000
0010
0000
0100
0000
1000
0010
0100
0001
0000
0010
0000
0001
0000
1000
0010
0100
0001
0000
0100
,
0000
0000
0010
0000
0000
0000
1000
0000
0100
0000
0010
0000
0001
0000
0000
0000
0100
0000
0000
0000
0001
0000
0000
0000
0010
0000
0000
0000
0001
0000
0000
0000
1000
0000
0000
0000
0001
0000
0000
0100
0000
0000
0001
0000
0000
0010
0000
0000
,
0001
0100
1000
0100
0010
0100
1000
0100
0001
1000
0001
0010
0001
1000
0001
0010
,
0100
0000
0000
1000
0000
0000
0001
0000
0000
0100
0000
0000
0010
0000
0000
1000
0000
0000
0001
0000
0010
0000
0001
0000
1000
0000
0100
0000
0010
0000
0001
0000
0100
0000
0010
0000
1000
0000
0000
0000
0000
0000
0011
0000
0000
0000
0000
0000
,
1100
0000
0000
1000
0100
0010
0001
1000
0010
0100
0001
1000
0001
0000
0000
0100
0000
0000
0010
0000
0000
0100
0000
0000
,
0001
0100
0001
0010
0001
0100
1000
0100
0010
0100
1000
0100
0001
1000
0010
1000
,
0001
0000
0000
0010
0000
0000
0001
0000
0000
0100
0000
0000
0010
0000
0000
1000
0000
0000
0001
0000
0000
0010
0000
0000
0100
0000
0000
1000
0000
0000
0001
0000
0010
0000
0001
0000
1000
0000
0010
0000
0100
0000
0001
0000
0010
0000
0100
0000
,
1000
0000
0000
0101
0000
0000
0101
0000
0000
1000
0100
0010
0001
0010
0100
1000
0001
0100
0001
0000
0000
1000
0000
0000
,
0101
1000
2002
0000
3003
0202
0000
0303
,
2002
0000
3003
1000
0100
0010
0001
2002
,
0000
3003
0202
0000
0303
2002
0000
3003
,
1000
0000
0000
0100
0000
0000
0010
0000
0000
0001
0000
0000
1000
0100
0010
0100
0000
0000
0001
0000
0000
0100
1000
0001
,
1000
0000
0000
0001
0000
0000
1000
0010
0100
0001
0000
0000
1000
0000
0000
0001
0000
0100
00M0
0100
0000
1000
0000
0010
,
0M00
0010
0000
0001
0100
0010
0001
0000
0000
0010
0000
0000
0100
0001
1000
0010
0000
0000
1000
0000
0000
0010
0100
0001
,
1000
0000
0000
0001
0000
0000
1000
0000
0010
0M00
0010
0000
0001
0000
0100
00M0
0100
0000
2000
0000
0000
0000
0000
0000
,
0000
3002
0000
0000
0203
0000
0000
0320
,
0000
0000
2030
0000
0000
0000
3001
0000
0100
00M0
0100
0000
1000
0000
0010
0M00
,
0010
0001
0010
0010
0100
0010
0001
0010
,
0002
0100
0103
0020
0100
0130
0002
1000
,
1003
0000
0010
0000
1000
0000
0001
0000
1000
0000
0001
0000
0100
00M0
0100
0000
,
1000
0000
0010
0M00
0010
0000
0001
0000
0010
000M
0010
0000
0100
0000
0001
0000
,
0010
0001
1000
0010
0010
0100
0001
0001
,
0010
0000
0100
0000
0100
0000
1000
0000
0001
0000
1000
0000
0001
0000
1000
0100
,
0010
0001
1000
0100
1000
0010
0100
0001
0100
0010
1000
0100
0010
0001
1000
0010
,
1000
0100
0010
0001
1000
0010
0100
0001
2000
0000
0000
0000
0000
0000
3002
0000
,
0000
0000
0203
0000
0000
0320
0000
2030
,
0000
3000
0000
0000
0000
0000
0000
0000
,
0000
0000
0000
0000
0000
0000
0000
0000
0000
0000
0000
0000
0001
0010
0100
1000
,
0001
0100
0001
0010
0100
1000
0001
1000
0010
0100
0001
0100
0010
1000
0001
0010
,
0100
0000
0000
1000
0000
0000
0001
0000
0000
0100
0000
0000
0010
0000
0000
1000
0000
0000
0001
0000
0010
0000
0100
0000
1000
0000
0001
0000
0100
0000
0010
0000
1000
0000
0001
0000
1000
0000
0000
0000
0000
0000
0010
0000
0000
0000
0000
0000
,
0010
0000
0000
1000
0100
0010
0001
1000
0010
0100
0001
1000
0100
0000
0000
0010
0000
0000
0100
0000
0000
1000
0000
0000
,
0002
0000
0000
2003
0000
0000
3002
0000
,
0000
0103
0000
1000
0000
0000
0000
0000
;
