#TITLE:The Koto Chill;
#SUBTITLE:;
#ARTIST:zircon;
#TITLETRANSLIT:;
#SUBTITLETRANSLIT:;
#ARTISTTRANSLIT:;
#GENRE:;
#CREDIT:;
#MUSIC:The Koto Chill.ogg;
#BANNER:;
#BACKGROUND:;
#CDTITLE:;
#SAMPLESTART:96.062;
#SAMPLELENGTH:12.000;
#SELECTABLE:YES;
#OFFSET:-0.025;
#BPMS:0.000=130.000
,112.000=65.000
,128.000=130.000
;
#STOPS:;
#BGCHANGES:;
#FGCHANGES:;

//--------------- dance-single - ----------------
#NOTES:
     dance-single:
     :
     Beginner:
     2:
     0.104,0.169,0.032,0,0:
0000
0000
0000
0000
,
0000
0000
0000
0000
,
0000
0000
0000
0000
,
0000
0000
0000
0000
,
1000
0000
0000
0000
,
0001
0000
0000
0000
,
0010
0000
0000
0000
,
0100
0000
0000
0000
,
1001
0000
0000
0000
,
1000
0000
0000
0000
,
0001
0000
0000
0000
,
0010
0000
0000
0000
,
0100
0000
0000
0000
,
1000
0000
0000
0000
,
0001
0000
0000
0000
,
1000
0000
0000
0000
,
0010
0000
0000
0000
,
1000
1000
1000
0000
,
0001
0000
0010
0000
,
0100
0000
0000
0000
,
1000
0000
0000
0000
,
0000
0001
0001
0000
,
1000
0000
0000
0000
,
0010
0010
0010
0010
,
0010
0000
0000
0000
,
1000
0000
0001
0000
,
0010
0000
0000
0000
,
1000
0000
0001
0000
,
1001
0000
0010
0000
,
1000
0000
0000
0000
,
1000
0000
0001
0000
,
0010
0000
1000
0000
,
1001
0000
0010
0010
,
0010
0000
0100
0000
,
0100
0000
1000
0000
,
1000
0000
0000
0000
,
0001
0000
0001
0000
,
0010
0000
0100
0100
,
0100
0000
1000
0000
,
0001
0000
0010
0000
,
1000
0000
0000
0000
,
0001
0000
0000
0000
,
0010
0000
0000
0000
,
1000
0000
0000
0000
,
1001
0000
0000
0000
,
0010
0000
0010
0000
,
0010
0000
0000
0000
,
1000
0000
1000
0000
,
1000
0000
0000
0000
,
0001
0000
0010
0010
,
0010
0000
0000
0000
,
1000
0000
1000
0000
,
0001
0000
0000
0000
,
0000
0010
0010
0000
,
0000
0000
0000
0000
,
1000
0000
1000
0000
,
0010
0000
0000
0000
,
0000
1000
1000
0000
,
0001
0000
0000
0000
,
1000
0000
0001
0000
,
1000
0000
0000
0000
;

//--------------- dance-single - ----------------
#NOTES:
     dance-single:
     :
     Easy:
     5:
     0.195,0.242,0.04,0.048,0.004:
0000
0000
0000
0000
,
0000
0000
0000
0000
,
0000
0000
0000
0000
,
0000
0000
0000
0000
,
1000
0000
1000
0000
,
0001
0000
0001
0000
,
0010
0000
0010
0000
,
0100
0000
0100
0000
,
1000
0000
0001
0000
,
1000
0010
0100
0100
,
0001
1000
0100
0100
,
0010
0010
0001
1000
,
0002
0000
1003
0010
,
0200
0000
0301
0010
,
0200
0000
1300
0001
,
1000
0000
1000
0000
,
0010
0000
0000
0010
0000
0000
0000
0000
,
0100
0000
0000
0000
0001
0000
0000
0001
,
0000
0000
1000
0000
,
1000
0000
0001
0000
,
0010
0000
0000
0010
0000
0000
0000
0000
,
1000
0000
0000
0000
0001
0000
0000
1000
,
0000
0000
0010
0000
,
1000
0100
1000
0000
0001
0010
0001
0000
,
1001
0000
0000
0000
,
0010
0000
0010
0000
,
0100
0000
0000
0000
,
1000
0000
0001
0000
,
1000
0000
0001
0010
,
0100
0000
0000
1000
0000
0000
0000
0000
0001
0000
0000
0000
0010
0000
0000
0000
,
0100
0000
1000
0000
,
0001
0000
0000
0000
0010
0000
0100
1000
,
1001
0000
1000
0000
,
0002
0000
0013
0010
,
0011
0000
0002
0000
,
1003
1000
0010
0010
,
1001
0000
1100
0000
,
0010
1000
0100
0001
,
0100
0100
1000
0100
,
0010
0010
0100
0100
,
0002
0000
1003
0010
,
0100
0000
0001
1000
,
0010
0000
0100
0001
,
1000
0000
1000
0000
,
1000
0001
0000
0010
,
0100
1000
0000
0001
,
0010
0100
0000
1000
,
0100
0001
0100
1000
,
0010
0000
0010
0000
,
1000
0000
0100
0000
1000
0100
1000
0000
,
0001
0001
0010
0000
,
0100
0000
1000
0000
,
0001
0000
0000
0001
0000
0000
0010
0000
,
0010
0000
0000
0000
1000
0000
0000
1000
,
0000
0010
0010
0100
,
0001
0000
0000
0001
0000
0000
0000
0000
,
1000
0000
0000
1000
0000
0000
0000
0000
,
0010
0000
0100
0000
0001
0000
0000
1000
,
0000
0000
0001
0000
,
1000
0001
1000
0000
0001
0100
0001
0000
,
0010
0000
0000
0000
;

//--------------- dance-single - ----------------
#NOTES:
     dance-single:
     :
     Medium:
     10:
     0.403,0.533,0.097,0.121,0.133:
0000
0000
0000
0000
,
0000
0000
0000
0000
,
0000
0000
0000
0000
,
0000
0000
0000
0000
,
1000
0001
1000
0001
,
1000
0000
0010
0000
1000
0001
0100
0000
,
0010
1000
0100
0010
,
0001
0100
0010
0000
1000
0000
0001
0000
,
1000
0010
1000
0010
1000
0001
1000
0000
,
0001
0100
0001
0000
1000
0001
1000
0000
,
0010
1000
0010
1000
0001
1000
0001
0000
,
1000
0100
0010
0001
0100
0010
1000
0000
,
0001
0100
0001
1000
0001
1000
0010
0000
,
1000
0100
1000
0000
0002
0000
1003
0000
,
0010
1000
0010
0000
0100
0001
0010
0000
,
0100
1000
0100
0000
1000
0000
0001
0000
,
1000
0010
0100
0002
0000
0000
1003
0000
,
0010
0000
0100
0001
0010
0000
0100
2000
,
0000
0000
3001
0000
0100
0000
0010
1000
,
0010
1000
0000
0010
0000
1000
0000
0000
,
0001
0100
0010
2000
0000
0000
3001
0000
,
0100
0010
1000
0000
0100
0010
0001
0000
,
1000
0000
0010
0000
0100
0100
0100
0000
,
0001
1000
0001
1000
0001
1000
0001
1000
0001
1000
0001
1000
0001
1000
0001
1000
,
0002
0000
0000
1003
0000
0000
0000
0000
,
2000
0000
0000
0001
3002
0000
0000
1000
,
1003
0000
0000
0010
0000
0000
0100
0000
0000
0000
0000
0000
1001
0000
0000
0000
,
1000
0000
0000
1000
0000
0000
1000
0000
0010
0000
0000
0010
0000
0000
0010
0000
,
1000
0000
0000
1000
0000
0000
0000
0000
0010
0000
0000
0010
1000
0000
0000
0000
,
1001
0000
0000
0110
0000
0000
0000
0000
1000
0000
0000
0001
1000
0000
0000
0000
,
1000
0100
1000
0000
0000
0000
0000
0000
0001
0010
0001
0000
0000
0000
0000
0000
,
1000
0001
1000
0000
0000
0000
0000
0000
0010
0100
0010
0000
1000
0000
0001
0000
,
1001
0000
1000
0000
0001
0100
0001
0000
,
1001
1010
1001
1100
,
0001
0100
0010
1000
0100
0010
0001
0000
,
1000
0010
1000
0000
0001
0001
1000
0000
,
0010
0100
0001
0000
0010
0100
1000
0000
,
0002
1003
0010
1000
,
0001
0100
0010
0000
1000
0100
0010
0000
,
0001
1000
0010
0100
0001
0010
0100
1000
,
0002
1000
1000
1003
,
2000
0010
0010
3010
,
0100
0000
0001
0010
0100
0000
1001
0000
,
0020
1030
0002
0103
,
1000
0000
0000
0001
0000
0000
1000
0000
0000
0000
0000
0000
1001
0000
0000
0000
,
1000
0000
0000
0010
0000
0000
0100
0000
0001
0000
0000
0010
0000
0000
0100
0000
,
1000
0000
0000
0001
0000
0000
0010
0000
0000
0000
0000
0000
1001
0000
0000
0000
,
1000
0000
0000
0100
0000
0000
0010
0000
0001
0000
0000
1000
0000
0000
0010
0000
,
1000
0001
1000
0001
0100
0010
0100
0000
,
1000
0100
0010
0001
0100
0010
1000
0000
,
1000
0100
1000
0001
1000
0010
1000
0001
,
0100
0100
0001
0000
1000
1000
0001
0000
,
1000
0100
0010
0002
0000
0000
1003
0000
,
0010
0000
0100
0001
0010
0000
0100
2000
,
0000
0000
3001
0000
0100
0000
0000
0010
,
1000
0010
0000
1000
0000
0001
2000
0000
,
3001
1000
0010
0100
0000
0001
0010
0000
,
0011
0000
0001
1000
0001
0000
0100
0010
,
1000
0000
0001
0000
0010
0100
1000
0000
,
0001
1000
0001
1000
0001
1000
0001
1000
0001
1000
0001
1000
0001
1000
0001
1000
,
0001
0000
0000
0000
;

//--------------- dance-single - ----------------
#NOTES:
     dance-single:
     :
     Hard:
     14:
     0.579,0.702,0.121,0.089,0.44:
0000
0000
0000
0000
,
0000
0000
0000
0000
,
0000
0000
0000
0000
,
0000
0000
0000
0000
,
1000
0100
1000
0100
0010
0001
0010
0001
,
1000
0000
0000
0010
0000
0000
1000
0000
0000
0010
0000
0000
0100
0000
0000
0001
0100
0001
0100
0000
0000
0010
0000
0000
,
1000
0100
1000
0100
0001
0100
0001
0100
,
1000
0010
1000
0000
0001
0100
0001
0000
,
1001
0000
0010
0000
1000
0001
0100
0000
,
0001
0000
0000
0010
0000
0000
0100
0000
0000
1000
0000
0000
0001
0000
0000
1000
0010
1000
0010
0000
0000
1000
0000
0000
,
0001
0001
0100
0010
1000
0100
0010
0000
,
0001
0100
0010
1000
0100
0100
1000
0001
,
1001
0000
1000
0010
0000
0010
1000
0001
,
0100
0000
0000
0100
0000
0000
0010
0000
0000
1000
0000
0000
0001
0000
0000
1000
0001
1000
0001
0000
0000
1000
0000
0000
,
0010
0010
0100
0001
0010
0100
1000
0000
,
0001
0000
0000
0001
1000
0000
0100
0000
0000
0000
0010
0000
0010
0000
0001
0000
,
1000
0100
0010
0002
0000
0000
1003
0000
,
0000
0000
0000
0010
0000
0000
0100
0000
0000
0001
0000
0000
0010
0000
0000
0100
1000
0100
1000
0000
0000
0001
0000
0000
,
1000
0100
1000
0100
0010
0001
0010
0001
,
0001
0002
0000
2003
0000
3020
0000
0030
,
1010
1000
0100
0001
0000
0001
0100
1000
,
0001
0000
0000
1000
0000
0000
0010
0000
0000
1000
0000
0000
0001
0000
0000
1000
0010
1000
0010
0000
0000
0100
0000
0000
,
0001
0000
0000
0001
0100
0000
0010
0000
1000
0000
0100
0000
0010
0000
0001
0000
,
1000
0100
1000
0100
0010
0001
0010
0001
1000
0010
1000
0010
0100
0001
0100
0001
,
1000
0000
0000
1000
0100
0000
0010
0000
0000
0000
0001
0000
1000
0000
0000
0000
,
0001
0000
0000
0010
0000
0000
0100
0000
1000
0000
0000
0100
0000
0000
0010
0000
,
0001
0000
0000
1000
0010
0000
0100
0000
0000
0000
0001
0000
0100
0000
0010
0000
,
1000
0000
0000
0100
0000
0000
0001
0000
1000
0000
0000
0010
0000
0000
0001
0000
,
1000
0000
0000
1000
0000
0000
1000
0000
0000
0000
0000
0000
0000
0000
0000
0000
0010
0000
0000
0010
0000
0000
0010
0000
1000
0000
0000
1000
0000
0000
1000
0000
,
0002
0000
0000
0000
0000
0000
0203
0000
0000
0000
0000
0000
0300
0000
0000
0000
0010
0000
0000
1000
0000
0000
0100
0000
0001
0000
0000
0100
0000
0000
1000
0000
,
0001
0000
0010
0000
0100
0000
0000
1000
0000
0000
0010
0000
0000
0100
0000
0000
0001
0000
1000
0000
0100
0000
0000
0001
0000
0000
0100
0000
0000
1000
0000
0000
,
0001
0000
0100
0000
0010
0000
0000
1000
0000
0000
0001
0000
0000
0100
0000
0000
0010
0000
1000
0000
0100
0000
0000
0010
0000
0000
0001
0010
0100
1000
0100
0010
,
0001
0100
0100
0010
1000
1000
0001
0000
,
1000
0000
0000
0001
0010
0001
0010
0000
0000
0100
0000
0000
1100
0000
0000
0000
0000
0000
1001
0000
0000
0000
0000
0000
,
0101
0000
0001
0000
0100
0010
0100
0000
0001
0000
1000
0000
0001
0000
1000
0000
,
1000
0000
0000
0001
0010
0001
0010
0000
0000
0100
0000
0000
1000
0000
0000
0001
0000
0000
1000
0000
0000
0000
0000
0000
,
0001
0100
0100
0100
0010
1000
1000
0000
,
0100
0000
0000
0010
0001
0010
0001
0000
0000
0000
0000
0000
1001
0000
0000
0000
0000
0000
1010
0000
0000
0000
0000
0000
,
1001
0000
0001
0000
1000
0100
1000
0000
0001
0000
1000
0000
0010
0000
0000
0000
,
0100
0000
0000
0000
0000
0000
0001
0000
0100
0000
0001
0000
0100
0000
0000
0000
0000
0000
0010
0000
0000
0000
0000
0000
1000
0000
0000
0100
0000
0000
1000
0000
0000
0100
0000
0000
0010
0000
0000
0001
0000
0000
0010
0000
0000
0001
0000
0000
,
1000
0000
0001
0010
0001
0000
1000
0100
1000
0100
1000
0001
1000
0000
0001
0000
,
1001
0000
1000
0100
0010
0000
0001
0000
1000
0100
0000
1000
0100
0000
0010
0001
,
0010
0000
0001
1000
0001
0000
1000
0100
1000
0001
0100
0001
1000
0000
0001
0000
,
0101
0000
0010
1000
0100
0000
0010
0000
0001
1000
0000
0001
1000
0000
0100
0000
,
1100
0000
0000
1000
0010
0000
0200
0000
0000
0000
0301
0000
1001
0000
1000
0000
,
0001
0000
0000
0100
0000
0000
0100
0000
0010
0000
0000
1000
0000
0000
1000
0000
,
0001
0000
0000
1000
0000
0000
0020
0000
0000
0000
0100
0000
0130
0000
0001
0000
,
2000
0000
0000
0010
0000
0000
3010
0000
2000
0000
0000
0100
0000
0000
3100
0000
,
0010
0001
0001
0001
0010
0001
0001
1000
,
0100
0000
0000
0000
0000
0000
0010
0000
0000
0000
0000
0000
0001
0000
0000
0000
0000
0000
0010
0000
0000
0000
0000
0000
0100
0000
0000
0000
0000
0000
1000
0000
0001
0000
1000
0000
0001
0000
0000
0000
0000
0000
1000
0000
0000
0100
0000
0000
,
1000
0000
0001
0010
0001
0000
1000
0000
0100
0000
0100
0000
0001
0000
0100
0000
,
1000
0001
0010
0100
1000
0001
1000
0000
,
1001
1000
0010
0100
0000
0001
0010
0000
,
0001
0000
0000
1000
0000
0000
1000
0000
0000
0010
0000
0000
0100
0000
0000
0100
0001
1000
0001
0000
0000
1000
0000
0000
,
0010
1000
0001
0100
0010
0010
0100
1000
,
0002
0100
0000
0010
0000
1000
0000
0103
,
0101
0010
1000
0100
0000
0010
0001
0100
,
0010
0000
0000
0000
0000
0000
1000
0000
0000
0000
0000
0000
0100
0000
0000
0000
0000
0000
0010
0000
0000
0000
0000
0000
0100
0000
0000
0000
0000
0000
1000
0000
0010
0000
1000
0000
0010
0000
0000
0000
0000
0000
0100
0000
0000
0001
0000
0000
,
0100
0000
0010
1000
0010
0000
1000
0000
0100
0000
0001
0000
0100
0000
1000
0000
,
0001
0010
0100
0010
0001
1000
0100
1000
0001
1000
0100
0010
0001
0100
0010
1000
,
0100
0000
0000
0000
;

//--------------- dance-double - ----------------
#NOTES:
     dance-double:
     :
     Easy:
     6:
     0.208,0.315,0.056,0.032,0:
00000000
00000000
00000000
00000000
,
00010000
00000000
00000000
00000000
,
00001000
00010000
00001000
00000000
,
00100000
00001000
00100000
00000000
,
00010000
10000000
00010000
00000000
,
10000000
01000000
00010000
00000000
,
00001000
00000100
00000001
00000000
,
00000100
00001000
00010000
00000000
,
10010000
00000000
10000000
00000000
,
00010000
01000000
00010000
00000000
,
00001000
00100000
00001000
00100000
,
00001000
00001000
00010000
00000000
,
00011000
00000000
00001000
00000100
,
00001000
00000000
00000001
00001000
,
00000100
00000000
00000100
00000001
,
00000100
00000000
00001000
00000100
,
00011000
00000000
00010000
00000000
,
00001000
00000000
00200000
00000000
,
00310000
00000000
10000000
00000000
,
00010000
00000000
00000000
10000000
00000000
00010000
00000000
00000000
,
10010000
00000000
00000000
10000000
00000000
00000000
00010000
00000000
,
01000000
00001000
00010000
00001000
,
00010000
00000000
00000100
00000000
,
00010000
00001000
00010000
00001000
00010000
00001000
00010000
00001000
,
00010000
00000000
00000000
00000000
,
00001000
00000000
00100000
00000000
,
00001000
00000000
00000000
00000000
,
10000000
00000000
00010000
00000000
,
10010000
00000000
10000000
00100000
,
01000000
00000000
00010000
00100000
,
00001000
00000000
00010000
00000000
,
00000100
00000000
00010000
00000000
,
00011000
00000000
00010000
00000000
,
00000200
00000000
00010000
00001000
,
00010300
00000000
00000000
00000000
00010000
00000100
00000000
00000000
,
00010000
00000100
00010000
00010000
,
00000010
00000010
00001000
00000001
,
00000100
00001000
00000100
00000001
,
00000100
00001000
00000100
00001000
,
00010000
00001000
00010000
00001000
,
00100000
00000000
00100000
00000000
,
00001000
00000000
01000000
00000000
,
00010000
00000000
10000000
00000000
,
00010000
00000000
00001000
00000000
,
00011000
00000000
00000000
00000000
,
00020000
00000000
00001000
00000100
,
00031000
00000000
00000100
00000000
,
00020000
00000000
00000010
00030010
,
00001000
00000100
00000001
00000000
,
00010000
01000000
10000000
00000000
,
00001000
00000100
00000001
00000000
,
01000000
00000010
01000000
00000000
,
00000001
00000000
00000000
00000000
,
00000000
00010000
00001000
00010000
,
00000000
00000100
00000000
00010000
,
00000000
00000010
00000000
00010000
,
00000000
00000010
00000100
00000000
00000000
00000000
00001000
00000000
,
00000000
00010000
00001000
00100000
,
00001000
00010000
00001000
00010000
,
00000100
00010000
00000100
00010000
00000100
00010000
00000100
00010000
,
00000100
00000000
00000000
00000000
;

//--------------- dance-double - ----------------
#NOTES:
     dance-double:
     :
     Medium:
     10:
     0.427,0.557,0.097,0,0.153:
00000000
00000000
00000000
00000000
,
00010000
00001000
00010000
00000000
00000010
00010000
00000010
00000000
,
00010000
00001000
00010000
00000000
00001000
00000000
00100000
00000000
,
00001000
00010000
00001000
00000000
00010000
00000010
00010000
00000000
,
00001000
00010000
00001000
00000000
00010000
00000010
00010000
00000000
,
00001000
00000000
00001000
00000000
00010000
00001000
00010000
00000000
,
00001000
00010000
00000010
00000010
,
00001000
00000001
00001000
00000100
,
00001100
00000000
00000100
00000000
00010000
00001000
00010000
00000000
,
00001000
00100000
00001000
00000000
00010000
00000000
00010000
00000000
,
00100000
00000000
00100000
00000000
01000000
10000000
01000000
00000000
,
00100000
00010000
10000000
00010000
,
01010000
00000000
01000000
00000000
00001000
00010000
00001000
00000000
,
00010000
00010000
00010000
00000000
00001000
00001000
00001000
00000000
,
00100000
00010000
00100000
00000000
00001000
00100000
00001000
00000000
,
00100000
00010000
10000000
00010000
,
10010000
00000000
10000000
00010000
00000000
00010000
01000000
00000000
,
00000000
00001000
00010000
00000000
00001000
00010000
00001000
00000000
,
00010000
00000010
00001000
00000001
,
00001000
00000001
00000000
00001000
00000000
00000001
00000000
00000000
,
00001001
00000000
00000001
00001000
00000000
00000010
00010000
00000000
,
00001000
00010000
00001000
00000000
00001000
00100000
00001000
00000000
,
00010000
00001000
00010000
00000010
,
00010000
00001000
00010000
00001000
00010000
00001000
00010000
00001000
00010000
00001000
00010000
00001000
00010000
00001000
00010000
00001000
,
00010000
00001000
00010000
00000010
,
00001000
00000000
00000000
00001000
00000000
00000000
00001000
00000000
00000001
00000000
00000000
00000001
00000000
00000000
00000001
00000000
,
00001000
00000000
00000000
00001000
00000000
00000000
00001000
00000000
00000000
00000000
00000010
00000000
00000010
00000000
00000000
00000000
,
00010000
00000000
00000000
00010000
00000000
00000000
00010000
00000000
00001000
00000000
00000000
00001000
00000000
00000000
00001000
00000000
,
00011000
00000000
00000000
00001000
00000000
00000000
00000000
00000000
00010000
00000000
00000000
00001000
00100000
00000000
00000000
00010000
,
10000000
00000000
00000000
10010000
00000000
00000000
00000000
00000000
10000000
00000000
00000000
00010000
01000000
00000000
00000000
00000000
,
01000000
00010000
01000000
00000000
00001000
00000000
00010000
00000000
00001000
00010000
00001000
00000000
00010000
00000000
00000010
00000000
,
00001000
00000001
00001000
00000000
00000001
00000000
00000100
00000000
00000100
00001000
00000100
00000000
00000001
00000100
00001000
00000100
,
00000001
00001000
00000100
00001000
00000100
00001000
00000100
00000000
,
00010000
00001000
00010000
00000000
00001000
00000000
00100000
00000000
,
00010000
10000000
00010000
10000000
01000000
00010000
01000000
00000000
,
10000000
10000000
10000000
00010000
00010000
00010000
00100000
00100000
,
00001000
00010000
00001000
00000000
00010000
00000010
00010000
00000000
,
00000010
00001000
00000001
00001000
,
00000100
00010000
00001000
00010000
00000100
00010000
00001000
00010000
,
00001000
00100000
00001000
00010000
00001000
00001000
00100000
00100000
,
00011000
00000000
00001000
00000000
00100000
00100000
00100000
00000000
,
00001000
00010000
00001000
00100000
,
00001000
00010000
00001000
00010000
00000010
00010000
00000010
00000000
,
00001000
00000001
00001000
00001000
,
00001001
00000000
00000000
00000001
00000000
00000000
00000100
00000000
00000000
00000000
00001000
00000000
00010000
00000000
01000000
00000000
,
10000000
00000000
00000000
10000000
00000000
00000000
01000000
00000000
01000000
00000000
00000000
00010000
00000000
00000000
00001000
00000000
,
00000100
00000000
00000000
00000001
00000000
00000000
00000100
00000000
00000000
00000000
00001000
00000000
00001000
00000000
00000100
00000000
,
00000001
00000000
00000000
00001000
00000000
00000000
00000000
00000000
00000100
00000000
00000000
00010000
00000000
00000000
00010000
00000000
,
00011000
00001000
00100000
00000000
00010000
10000000
00010000
00000000
,
10000000
01000000
00010000
01000000
10000000
00010000
01000000
00000000
,
00001000
00010000
00001000
00000000
00010000
00000010
00010000
00000000
,
00000001
00000100
00001000
00000100
00000001
00000100
00001000
00000100
,
00001001
00000000
00000001
00000100
00000000
00000100
00001000
00000000
,
00000000
00010000
01000000
10000000
01000000
00010000
00001000
00000100
,
00000001
00000000
00000001
00000001
00000000
00000100
00000100
00000000
,
00000010
00000000
00010000
00001000
00000000
00001000
00010000
00000000
,
00011000
00000000
00001000
00100000
00000000
00100000
00001000
00000000
,
00011000
00000000
00010000
00000010
00010000
00001000
00010000
00000100
,
00010000
00000000
00001000
00010000
00000000
00010000
00000010
00000000
,
00010000
00001000
00010000
00001000
00010000
00000010
00010000
00000010
00010000
00000100
00010000
00000100
00010000
00000010
00010000
00000010
,
00000100
00000000
00000000
00000000
;

//--------------- dance-double - ----------------
#NOTES:
     dance-double:
     :
     Hard:
     13:
     0.523,0.654,0.121,0.105,0.303:
00000000
00000000
00000000
00000000
,
00000000
00000000
00000000
00000000
,
00010000
00001000
00010000
00000000
00001000
00010000
00001000
00000000
,
00010000
00000100
00010000
00000000
00001000
00100000
00001000
00000000
,
10000000
00100000
10000000
00100000
01000000
00010000
01000000
00000000
,
00100000
00000000
00000000
10000000
00000000
00000000
00010000
00000000
00000000
01000000
00000000
00000000
00010000
00000000
00000000
00000000
00000000
00010000
01000000
00000000
00000000
00000000
00000000
00000000
,
10000000
00010000
00110000
00000000
00000000
00010000
00011000
00000000
,
00010000
00000100
00001000
00000000
00000001
00001000
00000010
00000100
,
00000101
00000000
00000010
00001000
00000000
00001000
00000100
00000000
,
00010000
00001000
00010000
00001000
01000000
00100000
00100000
10000000
,
00010000
00100000
00001000
00100000
00000000
00001000
00010000
00001000
,
00010000
00000000
00000000
00000100
00001000
00000000
00001000
00000100
00000000
00000000
00001000
00000000
00000001
00000000
00000010
00000000
,
00000011
00000001
00001000
00000100
00000000
00000100
00010000
00000000
,
00001000
00010000
00000010
00000100
00000010
00001000
00001000
00000010
,
00000100
00000001
00001000
00000100
00010000
00001000
00010000
00000100
,
00010000
00001000
00010000
00000000
00001000
00010000
00001000
00000000
,
00101000
00100000
00010000
02000000
00000000
00100000
03100000
00000000
,
10000000
01000000
00010000
01000000
00100000
00010000
00001000
00010000
,
00001000
00000000
00010000
00000100
00000000
00001000
00000001
00000200
,
00000320
00000230
00000300
00000020
00000000
00002030
00000100
00003100
,
00001100
00000000
00001000
00000100
00000000
00000100
00010000
00000000
,
00001000
00100000
00010000
00100000
00001000
00100000
00010000
10000000
,
00010000
00000000
00000000
10000000
00100000
00000000
00100000
00000000
00000000
00000000
01000000
00000000
00010000
00000000
01000000
00000000
,
00010000
00100000
00010000
00100000
00001000
00100000
00001000
00100000
00001000
00010000
00001000
00010000
00000100
00010000
00000100
00010000
,
00000010
00000000
00000000
00001000
00000010
00000000
00000200
00000000
00000000
00000000
00000010
00000000
00000310
00000000
00001000
00000000
,
00000001
00000000
00000000
00000100
00000000
00000000
00001000
00000000
00000001
00000000
00000000
00000010
00000000
00000000
00001000
00000000
,
00000001
00000000
00000000
00000001
00001000
00000000
00000100
00000000
00000000
00010000
00001000
00000000
00010000
00000000
00001000
00000000
,
01000000
00000000
00000000
00100000
00000000
00000000
01000000
00000000
00010000
00000000
00000000
00100000
00000000
00000000
00010000
00000000
,
10000000
00000000
00000000
10000000
00000000
00000000
10000000
00000000
00000000
00000000
00000000
00000000
00000000
00000000
00000000
00000000
00001000
00000000
00000000
00010000
00000000
00000000
00000100
00000000
00001000
00000000
00000000
00000001
00000000
00000000
00000100
00000000
,
00000110
00000000
00000000
00000000
00000000
00000000
00011000
00000000
00000000
00000000
00000000
00000000
00000000
00000000
00000000
00000000
10000000
00000000
00000000
01000000
00000000
00000000
00010000
00000000
10000000
00000000
00000000
00100000
00000000
00000000
00010000
00000000
,
10000000
00000000
00100000
00000000
01000000
00000000
00000000
00010000
00000000
00000000
00100000
00000000
00000000
00010000
00000000
00000000
00100000
00000000
00001000
00000000
00010000
00000000
00000000
00000100
00000000
00000000
00001000
00000000
00000000
00000010
00000000
00001000
,
00000001
00000000
00000100
00000000
00000010
00000000
00000000
00001000
00000000
00000000
00001000
00000000
00000000
00000100
00000000
00000000
00010000
00000000
00001000
00000000
00100000
00000000
00000000
00000000
00010000
00000000
10000000
00000000
00100000
00000000
10000000
00000000
,
00010000
01000000
00001000
00001000
00010000
00000100
00001000
00000000
,
00001000
00001000
00000010
00000100
00000101
00000000
00001001
00000000
,
00000001
00000000
00000100
00000000
00001000
00000100
00000010
00000000
00001000
00000000
00000100
00000000
00001000
00000000
00000100
00000000
,
00000100
00000100
00010000
00010000
00010000
00001000
01000000
00000000
,
00010000
10000000
10000000
01000000
00010000
01000000
10000000
00000000
,
00010000
00000000
00100000
00000000
00100000
00000000
00000000
00000000
00001000
00010000
00000000
00001000
00010000
00000000
00000100
00000000
,
00001000
00000000
00000001
00001000
00000001
00001000
00000010
00000000
00001000
00000000
00000100
00000000
00010000
00000000
00000000
00000000
,
00001000
00000000
01000000
00000000
00010000
00000000
00100000
00000000
00001000
00010000
00001000
00010000
00000100
00010000
00000100
00010000
,
00001000
00000000
00010000
00000000
00001000
01000000
00010000
00000000
,
00001000
00000000
00010000
00001000
00010000
00000000
00000100
00000000
00001000
00000100
00000000
00001000
00000100
00000000
00010000
00000000
,
00001000
00000000
01000000
00000000
00100000
10000000
01000000
00010000
,
01000000
00000000
00000000
01000000
00000000
00000000
10000000
00000000
00010000
00100000
00000000
00010000
00100000
00000000
01000000
00000000
,
10000000
00000000
00000000
00010000
01000000
00000000
00002000
00000000
00000000
00000000
00010000
00000000
00013000
00000000
00000010
00000000
,
00001000
00000000
00000000
00000100
00000000
00000000
00000001
00000000
00000100
00000000
00000000
00001000
00000000
00000000
00000100
00000000
,
00000010
00000000
00000000
00000010
00000100
00000000
00002000
00000000
00000000
00000000
00000100
00000000
00003100
00000000
00000010
00000000
,
00000100
00000000
00000000
00010000
00000000
00000000
00000100
00000000
00001000
00000000
00000000
00010000
00000000
00000000
00001000
00000000
,
00011000
00000000
00001000
01000000
00100000
00000000
00100000
01000000
,
00001000
00000000
00001000
00010000
00000010
00000100
00000010
00000000
,
00010000
00001000
00100000
00010000
01000000
10000000
01000000
00000000
,
00010000
01000000
00001000
00000100
00000001
00000100
00001000
00000000
,
00001010
00000010
00001000
00000002
00000000
00000100
00000103
00000000
,
00000000
00000001
00000010
00000100
00000010
00000001
00001000
00000200
,
00000000
00001000
00001300
00000000
00000000
00000000
00000000
10000000
,
10000000
20000000
00000000
00100000
00000000
30010000
00000000
00000000
,
10010000
10000000
00100000
02000000
00000000
00010000
03010000
00000000
,
00000000
01000000
00001000
00010000
00001000
00010000
00000100
00010000
,
00000000
00000000
00011000
00001000
00000000
00000010
00001001
00000000
,
00000001
00000100
00000010
00001000
00000010
00001000
00000100
00010000
00001000
00010000
00001000
00100000
00010000
01000000
00010000
10000000
,
01000000
00000000
00000000
00000000
;
