#TITLE:Strangeprogram;
#SUBTITLE:;
#ARTIST:DJ Sharpnel;
#TITLETRANSLIT:;
#SUBTITLETRANSLIT:;
#ARTISTTRANSLIT:;
#GENRE:;
#CREDIT:;
#MUSIC:Strangeprogram.ogg;
#BANNER:;
#BACKGROUND:;
#CDTITLE:;
#SAMPLESTART:59.704;
#SAMPLELENGTH:12.000;
#SELECTABLE:YES;
#OFFSET:-0.528;
#BPMS:0.000=214.991
,16.000=215.000
;
#STOPS:76.000=4.186;
#BGCHANGES:;
#FGCHANGES:;

//--------------- dance-single - ----------------
#NOTES:
     dance-single:
     :
     Beginner:
     5:
     0.201,0.237,0.039,0.095,0:
0000
0000
0000
0000
,
0000
0000
0000
0000
,
0000
0000
0000
0000
,
1001
0000
0000
0000
,
0001
0000
0000
0000
,
0100
0000
0000
0000
,
0020
0000
0000
0000
,
0130
0000
0000
0000
,
0010
0000
0000
0000
,
0100
0000
0000
0000
,
0001
0000
1000
0000
,
1001
0000
0000
0000
,
0001
0000
0000
0000
,
0100
0000
0000
0000
,
0020
0000
0000
0000
,
0130
0000
0000
0000
,
0001
0000
0000
0000
,
0010
0000
0000
0000
,
0100
0000
1000
0000
,
1001
0001
0000
1000
,
0000
0010
0000
0100
,
0000
0001
0000
0010
,
0000
0100
0000
1000
,
0000
0001
0000
0100
,
0000
0010
0000
1000
,
0000
0001
0000
0010
,
0000
0200
0000
0000
,
0000
1300
0000
0001
,
0000
0100
0000
0010
,
0000
1000
0000
0100
,
0000
0010
0000
0001
,
0000
1000
0000
0001
,
0000
0100
0000
0000
,
0000
0010
0000
0000
,
0000
1000
0000
0000
,
0000
0001
1000
0001
,
0000
0100
0010
0100
,
0000
0001
0010
0001
,
0000
1000
0010
1000
,
0000
0001
0100
0010
,
0000
1000
0010
0100
,
0000
0001
0010
0100
,
0000
1000
0001
1000
,
0000
0001
0010
0100
,
0000
1000
0001
0100
,
0000
0001
0010
0001
,
0000
0100
0010
1000
,
0000
0002
0000
0000
,
0000
2003
0000
0000
,
0000
3020
0000
0000
,
0000
0130
0000
0000
,
0000
0001
1000
0001
,
0000
0000
0000
0010
,
0000
1000
0100
1000
,
0000
0000
0000
0001
,
0000
0100
0010
0100
,
0001
0000
1000
0000
,
0001
0000
0010
0000
,
0100
0000
1000
0000
,
0001
0100
0001
0010
,
0001
0000
0100
0000
,
0010
1000
0100
1000
,
0001
0000
0100
0000
,
0000
0010
1000
0010
,
0000
0000
1000
0000
,
0001
0000
0010
0000
,
0100
0000
1000
0000
,
0000
0001
0100
0001
,
0100
0001
0000
0000
,
0000
1000
0010
0100
,
0001
0010
0000
0000
,
0000
0100
1000
0001
,
0010
0001
0000
0000
,
0000
0100
0010
1000
,
0000
0000
0000
0000
,
0000
1001
1000
0000
,
0001
0000
0100
0000
,
0001
0000
1000
0000
,
0010
0000
0100
0000
,
0001
0000
0010
0000
,
0100
0000
1000
0000
,
0001
0000
0010
0000
,
0001
0000
0100
0000
,
0010
0000
1000
0000
,
0001
0000
0010
0000
,
0100
0000
1000
0000
,
0001
0000
0100
0000
,
0001
0000
1000
0000
,
0100
0000
0010
0000
,
0001
0000
1000
0000
,
0001
0000
0000
0000
,
0000
1001
0001
0000
,
1000
0000
0010
0000
,
0100
0000
0001
0000
,
0010
0000
0100
0000
,
0010
0000
0001
0000
,
1000
0000
0010
0000
,
0100
0000
0001
0000
,
1000
0000
0100
0000
,
0010
0000
0001
0000
,
0100
0000
0010
0000
,
1000
0000
0001
0000
,
1000
0000
0010
0000
,
0100
0000
0001
0000
,
0010
0000
0100
0000
,
1000
0000
0000
0000
,
0000
0000
0000
0000
,
0000
0020
0000
0000
,
0000
0000
0000
0000
,
0030
0000
0000
0000
;

//--------------- dance-single - ----------------
#NOTES:
     dance-single:
     :
     Easy:
     11:
     0.379,0.402,0.158,0.016,0:
0000
0000
0000
0000
,
0000
0000
0000
0000
,
0000
0000
0000
0000
,
1001
0000
0000
1000
0000
0000
0001
0000
,
0010
0000
0000
0100
0000
0000
1000
0000
,
0001
0000
0000
0100
0000
0000
0010
0000
,
2000
0000
0000
0001
0000
0000
3100
0000
,
1100
0000
0000
1000
0000
0000
0010
0000
,
0100
0000
0000
0001
0000
0000
0010
0000
,
0100
0000
0000
1000
0000
0000
0001
0000
,
0100
0010
0100
0010
,
1010
1000
0001
0010
,
0100
1000
0001
0100
,
0010
1000
0001
0010
,
0200
1000
0010
1300
,
1001
0001
0010
0001
,
0100
0010
0100
0001
,
1000
0100
0010
0001
,
1000
0010
1000
0010
0100
0001
0100
0001
,
1000
1001
0001
0100
,
0010
1000
0100
0010
,
0001
1000
0010
1000
,
0001
0010
0100
1000
,
0001
1000
0100
0000
1000
0000
0010
0000
,
0100
0001
0010
0100
,
1000
0001
0100
0010
,
1000
0002
0100
0010
,
1003
1001
1000
0010
,
0100
0110
0100
0001
,
0010
0110
0100
1000
,
0001
0101
0100
0010
,
1000
0001
1000
0000
0010
0000
1000
0001
,
0000
1000
0010
0000
1000
0100
0000
1000
,
0001
0000
0100
0010
0000
1000
0001
0000
,
0010
0100
0000
1000
0001
0000
0200
0000
,
0000
0000
0310
1000
0010
1000
0010
0000
,
0100
0000
0001
0010
0001
0010
0001
0000
,
1000
0000
0010
0100
0010
0100
0010
0000
,
1000
0000
0001
0100
0001
0100
0001
0000
,
0000
0000
1000
0100
1000
0100
1000
0000
,
0001
0000
0100
0010
0100
0010
0100
0000
,
0001
0000
1000
0010
1000
0010
1000
0000
,
0001
0000
0010
0100
0010
0100
0010
0000
,
0000
0000
0001
1000
0010
1000
0001
0000
,
1000
0000
0001
0010
0001
1000
0001
0000
,
1000
0000
0001
0010
0001
1000
0001
0000
,
1000
0000
0010
1000
0100
1000
0001
0000
,
0010
0200
2300
3020
,
0230
0302
2003
3020
,
0230
0302
2003
3020
,
0230
0302
0000
1003
,
0001
1001
1000
0001
,
0100
0001
0000
0100
0010
0000
1000
0000
,
0001
0020
0130
1000
,
0001
0100
0000
0010
1000
0000
0001
0000
,
0010
0200
0310
0001
,
1000
0010
0000
1000
0100
1000
0000
0001
,
0010
0001
0000
1000
0010
1000
0000
0001
,
0100
0010
0000
1000
0001
0000
0100
0000
,
0001
1001
1000
0010
,
1000
0001
0000
0100
0010
0000
1000
0000
,
0001
0010
0011
0001
,
1000
0100
0000
0010
0001
0000
1000
0000
,
0010
2000
3001
0100
,
0010
1000
0000
0010
1000
0010
0000
1000
,
0100
1000
0000
0001
0010
0001
0000
1000
,
0010
1000
0000
0001
0100
0000
0010
0000
,
1000
1010
0010
1000
,
0001
0000
0100
0001
0000
1000
0000
0010
,
0000
0100
0001
0000
0010
0000
0100
0000
,
1000
0000
0001
0010
0000
0001
0000
0100
,
0000
0001
1000
0000
0010
0000
0100
0000
,
0001
0000
0010
0100
0000
1000
0000
0001
,
0000
0100
0001
0000
1000
0000
0001
0100
,
0000
0001
0000
1000
0000
0010
0000
1000
,
0000
1001
0001
0100
,
0010
1000
0010
0000
1000
0000
0100
0000
,
0010
0001
0010
0000
0001
0000
0100
0000
,
0010
1000
0010
0000
1000
0000
0100
0000
,
0010
0001
0010
0000
0001
0000
1000
0000
,
0010
0100
0010
0000
1000
0000
0001
0000
,
0010
0100
0010
0000
0001
0000
1000
0000
,
0010
1000
0010
0000
1000
0000
0001
0000
,
0010
0100
0010
0000
0001
0000
1000
0000
,
0100
0010
0001
0000
0010
0000
0100
0000
,
1000
0001
1000
0000
0010
0000
0100
0000
,
0001
0010
0001
0000
1000
0000
0100
0000
,
1000
0001
1000
0000
0001
0000
0100
0000
,
0010
1000
0010
0000
1000
0000
0100
0000
,
0010
0001
0010
0000
0001
0000
1000
0000
,
0001
1000
0001
0100
0000
0010
0000
0000
,
0000
1001
0001
0010
,
0001
1000
0001
0000
0010
0000
0100
0000
,
1000
0001
1000
0000
0001
0000
0100
0000
,
0010
1000
0010
0000
1000
0000
0100
0000
,
0010
0001
0010
0000
0100
0000
1000
0000
,
0001
0100
0001
0000
1000
0000
0100
0000
,
0010
0001
0010
0000
0100
0000
1000
0000
,
0001
1000
0001
0000
0100
0000
0010
0000
,
1000
0010
1000
0000
0001
0000
0010
0000
,
0100
1000
0100
0000
0010
0000
0001
0000
,
1000
0001
1000
0000
0010
0000
0100
0000
,
0001
0010
0001
0000
1000
0000
0100
0000
,
0010
0001
0010
0000
0100
0000
1000
0000
,
0001
1000
0001
0000
0100
0000
0010
0000
,
1000
0001
0100
0010
,
1000
0000
0001
1000
0000
0001
0000
0100
,
0010
0020
0000
0000
,
0000
0000
0000
0000
,
0030
0000
0000
0000
;

//--------------- dance-single - FS ----------------
#NOTES:
     dance-single:
     FS:
     Medium:
     15:
     0.65,0.684,0.039,0.134,0.028:
0000
0000
0000
0000
,
0000
0000
0000
0000
,
0000
0000
0000
0000
,
1001
0000
1000
0100
0000
0010
0001
0000
,
1000
0000
0001
0100
0000
0010
1000
0000
,
0001
0000
0010
0100
0000
1000
0001
0000
,
2000
0000
3001
0100
0000
0001
0010
0000
,
0011
0000
0001
0100
0000
0010
1000
0000
,
0100
0000
0010
0001
0000
0010
0001
0000
,
1000
0000
0010
0100
0000
0010
0100
0000
,
0001
0010
0100
1000
0001
0100
0010
1000
,
0001
0000
0100
0010
0100
0001
0100
0000
,
0010
0000
1000
0100
0010
0100
1000
0000
,
0001
0000
0100
0010
0100
0001
0010
0000
,
0200
0000
1300
0010
0100
0001
1000
0000
,
1001
0000
0001
0010
0001
0100
0001
0000
,
1000
0000
0010
1000
0100
1000
0010
0000
,
0100
0000
0001
0010
0100
1000
0001
0000
,
0010
0100
0010
0100
0001
1000
0001
1000
,
0M01
0000
1000
0010
0100
0001
1000
0100
,
0010
0001
1000
0010
1000
0010
0100
0001
,
0100
0010
1000
0100
0010
0001
0010
0100
,
1000
0001
0100
0010
0100
0001
0010
0100
,
1000
0000
0001
0010
0001
0100
0010
1000
,
0001
0010
0100
1000
0010
0100
0001
1000
,
0100
0010
0100
1000
0001
0010
0001
0100
,
0010
1000
0002
0000
0203
0000
0320
0000
,
1030
1001
0001
0100
,
0010
1000
0100
0010
,
0001
0100
0010
1000
,
0001
0010
0100
1000
,
0001
1000
0001
0010
0100
1000
0020
0000
,
0030
0100
0020
0000
0130
0002
0000
1003
,
0200
0000
0310
0001
0000
0100
0010
0000
,
1000
0001
0000
0010
0100
0000
1000
0001
,
1000
0000
0001
0010
0001
0100
0010
0000
,
0110
0000
1000
0100
0010
0001
1000
0000
,
1001
0000
0001
0100
0010
1000
0001
0000
,
1001
0000
0010
0100
1000
0001
1000
0000
,
0001
0010
0001
0100
0010
1000
0010
0000
,
1010
0000
1000
0100
0010
0001
0010
0000
,
0011
0000
0001
0100
0001
0010
0001
0000
,
1001
0000
1000
0010
1000
0001
0100
0000
,
0001
0010
0100
1000
0100
1000
0001
0000
,
1001
0000
0001
0010
0100
1000
0010
0000
,
1010
0000
1000
0100
0010
0100
1000
0000
,
1001
0000
0001
0100
0010
1000
0001
0000
,
1000
0010
1000
0100
1000
0001
0020
0000
,
0031
0010
0001
0100
0010
1000
0001
0000
,
0010
0100
2000
0000
3001
0100
0020
0000
,
1030
0100
0020
0000
0000
0000
0031
1000
,
0100
0010
0001
0000
1001
0000
1000
0000
,
0001
0100
00M0
0100
1000
0010
0100
0001
,
1000
0100
1000
0000
1001
0000
0001
0000
,
1000
0010
0M00
0010
0001
1000
0010
1000
,
0001
0010
0100
0000
1100
0000
1000
0000
,
0001
0100
00M0
0100
1000
0010
0000
0100
,
0001
0100
0000
0001
0010
0001
0000
1000
,
0010
1000
0000
0001
0100
0000
0001
0010
,
0100
1000
0001
0000
1001
0000
1000
0000
,
0001
0010
M000
0010
0100
0010
0100
0001
,
1000
0100
0010
0000
0011
0000
0001
0000
,
1000
0010
0M00
0010
0001
1000
0010
0100
,
0001
0010
0100
0000
1100
0000
1000
0000
,
0010
0100
000M
0100
1000
0010
0000
1000
,
0100
1000
0000
0001
0010
0001
0000
0100
,
0010
1000
0000
0001
0010
0000
0100
0000
,
1100
0000
1000
0010
0100
0001
0010
0100
,
1000
0000
0001
0010
0001
0100
0000
0100
,
0000
0100
0010
1000
0001
0010
0100
1000
,
0010
0100
0001
0100
00M0
0100
0000
1000
,
0001
0010
0100
0000
1100
0000
1000
0000
,
0001
0000
1000
0010
0M00
0010
0000
0001
,
0100
0010
1000
0000
1001
0000
0001
0100
,
0010
1000
0000
0001
0000
0010
0000
0100
,
0000
1000
0001
0010
0100
1000
0001
1000
,
0100
00M0
0100
0000
0001
0000
0010
0000
0100
0000
1000
0000
0001
0000
1000
0000
,
0010
0M00
0010
0000
0001
0000
0100
0000
0010
0000
1000
0000
0001
0000
0010
0000
,
0100
M000
0100
0000
0001
0000
0010
0000
0100
0000
1000
0000
0001
0000
1000
0000
,
0100
00M0
0100
0000
0001
0000
0010
0000
0100
0000
1000
0000
0001
0000
1000
0000
,
0010
0M00
0010
0000
0001
0000
0100
0000
0010
0000
1000
0000
0001
0000
0010
0000
,
0100
M000
0100
0000
0001
0000
1000
0000
0010
0000
0100
0000
0001
0000
0010
0000
,
0100
1000
0001
0100
0010
1000
0000
0001
,
0100
0010
1000
0100
0010
0001
0010
0001
,
1000
0100
0001
0100
0010
0001
0100
0001
,
1000
0100
0001
0100
0010
0100
1000
0001
,
1000
0100
0001
0100
0010
0100
1000
0001
,
1000
0010
0001
0010
0100
0001
1000
0010
,
1000
0001
0000
0100
0000
0010
0000
1000
,
0100
0010
0001
0000
0001
0100
0000
0010
,
0100
0001
1000
0010
0000
1000
0000
0010
,
0000
1000
0001
0010
0100
1000
0001
1000
,
0010
0100
0010
1000
0001
0010
0100
1000
,
0001
0100
0001
1000
0100
0010
0001
0100
,
0010
1000
0010
1000
0001
0010
0100
1000
,
0001
0010
0001
0100
0010
1000
0001
0010
,
0100
1000
0100
0010
0001
0100
0010
1000
,
0001
0100
0001
0100
0010
1000
0001
0010
,
0100
0010
0100
1000
0001
0010
0100
1000
,
0001
0100
0001
0100
0010
1000
0001
0010
,
0100
1000
0100
0010
0001
0100
0010
1000
,
0001
0100
0001
0100
0010
1000
0001
0010
,
0100
1000
0100
0010
0001
0100
0010
1000
,
0001
0100
0001
0010
0100
1000
0100
0010
,
0001
1000
0001
0010
0100
1000
0010
0100
,
0001
1000
0001
0000
0010
0000
0100
0000
,
1000
0000
0001
1000
0000
0010
0000
0100
,
0000
0001
0002
0000
0000
0000
0000
0000
,
0000
0000
0000
0000
,
0003
0000
0000
0000
;

//--------------- dance-single - BU+ ----------------
#NOTES:
     dance-single:
     BU+:
     Hard:
     18:
     1,1,0.182,0.126,0.627:
0000
0000
0000
0000
,
0000
0000
0000
0000
,
0000
0000
0000
0000
,
1001
0000
1000
0100
0000
0100
0010
0000
,
0001
0000
1000
0001
0000
0001
1000
0000
,
0100
0000
1000
0100
0000
0100
1000
0000
,
2000
0000
3010
0100
0000
0001
0100
0000
,
0101
0000
0010
1000
0000
0100
1000
0000
,
0001
0000
0010
0001
0000
0001
0010
0000
,
0001
0000
1000
0001
0000
0001
1000
0000
,
0001
0100
0010
1000
0010
0100
0001
0010
,
0011
0000
0001
0000
1000
0000
0100
0000
0010
0000
0001
0000
1000
0000
0010
0100
,
0001
0000
1000
0010
1000
0000
0010
0000
0100
0000
0010
0000
1000
0000
0001
0100
,
0001
0000
1000
0010
1000
0000
0100
0000
0010
0000
0001
0000
1000
0000
0010
0000
,
0100
0000
0001
1000
0001
0000
1000
0000
0010
0000
1000
0000
0100
0000
0010
0001
,
0010
0000
0100
0000
1000
0000
0100
0000
0010
0000
0001
0000
1000
0000
0010
0100
,
0010
0000
1000
0001
0010
0000
0100
0000
1000
0000
0010
0000
0100
0000
0001
1000
,
0001
0000
0010
0001
0010
0000
0100
0000
1000
0001
1000
0000
0100
0000
0010
0001
,
1000
0100
1000
0100
0010
0001
0010
0001
,
1M00
0000
0000
0000
1001
0000
0001
1000
0100
0000
0010
0001
1000
0000
0100
0010
,
0100
0000
1000
0010
0100
0000
0001
1000
0001
0000
1000
0010
1000
0000
0100
0010
,
0100
0000
1000
0010
0100
0000
0001
1000
0001
0000
0100
0010
1000
0000
0001
0010
,
0001
0000
1000
0100
0010
0000
0001
0100
0010
0000
1000
0001
1000
0000
0100
0010
,
0001
0000
1000
0000
0001
0000
1000
0010
1000
0000
0100
0010
0100
0000
1000
0001
,
1000
0000
0010
0100
0001
0000
1000
0100
0010
0000
0001
0100
0010
0000
1000
0001
,
1000
0000
0100
0010
0100
0000
1000
0010
0100
0000
0001
1000
0001
0000
0010
0100
,
2000
0000
3020
0000
1030
0001
0100
0010
,
1000
0001
1000
0010
1000
0010
0100
0001
,
0100
0001
1000
0100
1000
0100
0010
0001
,
0010
0001
1000
0010
1000
0100
0010
0001
,
0100
0001
1000
0010
1000
0010
0100
0001
,
1000
0010
1000
0100
0010
0100
2000
0000
,
0000
3001
0020
0000
0130
2000
0000
3100
,
0020
0000
0130
0020
0000
0031
0200
0000
,
0310
2000
0000
3001
0020
0000
0002
0000
,
0033
0000
0000
0000
1000
0000
0010
0000
0100
0000
0001
0000
1000
0010
1000
0000
,
0100
0010
0100
0000
1000
0000
0010
0000
0100
0000
0001
0000
1000
0100
1000
0000
,
0001
0010
0001
0000
1000
0000
0010
0000
0100
0000
0001
0000
1000
0100
1000
0000
,
0001
0010
0001
0000
1000
0000
0010
0000
0100
0000
0001
0000
1000
0001
1000
0000
,
0001
0000
0001
0000
1000
0000
0010
0000
1000
0000
0100
0000
0010
0001
0010
0000
,
0001
1000
0001
0000
0100
0000
0001
0000
1000
0000
0010
0000
0100
0001
0100
0000
,
0010
1000
0010
0000
0100
0000
0010
0000
1000
0000
0100
0000
0010
0001
0010
0000
,
0100
1000
0100
0000
1000
0000
0010
0000
0100
0000
0001
0000
1000
0100
1000
0000
,
0001
0000
1000
0000
0001
0000
0010
0000
0100
0000
1000
0000
0001
0010
0100
0000
,
1000
0100
0010
0000
0001
0000
0100
0000
0010
0000
1000
0000
0001
1000
0100
0000
,
1000
0001
0010
0000
0001
0000
0100
0000
0010
0000
1000
0000
0001
0010
0100
0000
,
1000
0010
0100
0000
0001
0000
0010
0000
0100
0000
1000
0000
0001
1000
0001
0000
,
0010
0100
1000
0100
1000
0100
2000
0000
,
0000
3010
0200
0000
0301
0020
0000
0130
,
2000
0000
3100
0010
0001
0100
0010
0100
,
0001
1000
0002
0000
0000
0000
0003
1000
,
0001
1000
1001
0000
1100
0000
1010
0000
,
1000
0100
0000
0100
0010
0001
0010
0100
,
0000
1000
0001
0000
1001
0000
1001
0000
,
1000
0100
0000
0010
0100
0010
0100
1000
,
0000
1000
0001
0000
0011
0000
0110
0000
,
0010
0001
0000
1000
0010
0200
0000
0301
,
0100
0002
0000
0013
0001
0020
0000
0031
,
0010
0200
0000
1300
0100
0000
0000
0010
,
0001
0010
0011
0000
1100
0000
1010
0000
,
1000
0100
0000
0100
0010
0001
0010
0100
,
0010
0001
0011
0000
0011
0000
1100
0000
,
1000
0010
0000
0010
1000
0100
1000
0001
,
0000
0010
0001
0000
0011
0000
0110
0000
,
1000
0001
0000
0001
0010
0100
0000
0100
,
0010
0001
0000
0001
0010
0100
0000
0100
,
1000
0100
0000
0100
0010
0001
0000
0001
,
1000
0000
0100
0000
1000
0010
0100
0001
1000
0000
0100
0000
1000
0100
0010
0100
,
1000
0000
0001
0100
0001
0000
1000
0100
0010
0100
1000
0000
0001
0100
0010
1000
,
0001
0000
1000
0000
0100
0000
0010
0001
0010
0001
1000
0000
0001
1000
0010
1000
,
0001
0000
1000
0100
0010
0000
0001
1000
0010
1000
0100
0000
1000
0001
0100
0001
,
1000
0000
0010
0100
0001
0000
1000
0100
1000
0000
0001
0000
1000
0010
0100
0001
,
0100
0000
0010
1000
0001
0000
1000
0100
0010
0001
1000
0000
0010
0100
0001
1000
,
0001
0000
0010
0000
0100
0000
1000
0001
1000
0001
0100
0000
0010
1000
0010
1000
,
0001
1000
0001
0100
0000
0010
0000
0100
,
0000
0000
0010
0000
1000
0000
0001
0010
0001
0000
1000
0000
0010
0100
0001
1000
,
0100
0000
0010
0000
0100
0000
1000
0001
1000
0000
0100
0000
1000
0010
0100
0001
,
1000
0000
0100
0000
1000
0000
0001
0010
0001
0000
1000
0000
0001
0010
0100
1000
,
0001
0000
0100
0000
0010
0000
0100
0001
1000
0000
0100
0000
1000
0010
1000
0100
,
1000
0000
0001
0000
1000
0000
0100
0010
0001
0000
1000
0000
0010
0100
0001
0010
,
0001
0000
1000
0000
0001
0000
0100
0000
0010
0000
0100
0000
0010
1000
0001
1000
,
0001
0000
0010
0000
0001
0000
1000
0100
0010
0000
0001
0000
1000
0010
0100
0001
,
1000
0000
0100
0000
0010
0000
0001
0100
0010
0000
1000
0000
0100
0010
0100
1000
,
0001
0000
0100
0000
0010
0000
1000
0001
1000
0000
0100
0000
1000
0010
0100
0001
,
1000
0000
0100
0000
0010
0000
0001
1000
0001
0000
0100
0000
0010
1000
0001
0010
,
0001
0000
1000
0000
0100
0000
0010
0001
0010
0000
0100
0000
1000
0010
0100
0001
,
1000
0000
0100
0000
0010
0000
0001
1000
0010
0000
0100
0000
0001
1000
0010
1000
,
0001
0000
0100
0000
0010
0000
1000
0001
1000
0000
0100
0000
0010
0001
0100
0001
,
1000
0000
0010
0000
0100
0000
0001
1000
0001
0000
0010
0000
0100
1000
0010
0100
,
0001
0000
0010
0000
0100
0000
1000
0001
1000
0000
0010
0000
0100
0001
0010
0100
,
1000
0001
0000
1000
0000
0001
0000
1000
,
0010
0000
0000
0000
1000
0000
0001
0100
0010
1000
0001
0000
1000
0100
0010
0001
,
1000
0000
0010
0000
1000
0000
0001
0100
0010
1000
0001
0000
1000
0100
0010
0001
,
1000
0000
0100
0000
1000
0000
0001
0010
0100
0010
0001
0000
1000
0010
0100
0001
,
1000
0000
0100
0000
0010
0000
0001
0100
0010
1000
0001
0000
1000
0100
0010
0001
,
1000
0000
0010
0000
0100
0000
0001
1000
0100
0010
0001
0000
1000
0010
0100
0001
,
1000
0000
0100
0000
0010
0000
0001
0100
0001
1000
0001
0000
1000
0100
0010
0001
,
1000
0000
0010
0000
0100
0000
0001
1000
0010
1000
0100
0000
0010
0001
0100
0001
,
1000
0000
0100
0000
0010
0000
0001
0100
0010
1000
0001
0000
1000
0010
0100
0001
,
1000
0000
0100
0000
1000
0000
0010
0100
0001
1000
0100
0000
0010
0001
0100
0001
,
1000
0000
0100
0000
1000
0000
0010
0100
0001
1000
0010
0000
1000
0100
0010
0001
,
1000
0000
0010
0000
0100
0000
0010
1000
0001
0010
0001
0000
1000
0100
0010
0001
,
1000
0000
0010
0000
0100
0000
0001
1000
0010
1000
0001
0000
0010
0100
1000
0010
,
0100
0000
0001
0000
1000
0000
0100
0010
0100
0010
0001
0000
1000
0010
0100
0001
,
1000
0000
0100
0000
1000
0000
0001
0100
0010
1000
0001
0000
1000
0010
0100
0001
,
1000
0100
1000
0010
1000
0001
0010
0001
,
1000
0010
0100
0001
0000
0001
0000
0100
,
0010
0200
0000
0000
,
0000
0000
0000
0000
,
0000
0300
0000
0000
0000
0000
0000
0000
0000
0000
0000
0000
0000
0000
0000
0000
0000
0000
0000
0000
0000
0000
0000
0000
0000
0000
0000
0000
0000
0000
0000
0000
0000
0000
0000
0000
0000
0000
0000
0000
0000
0000
0000
0000
0000
0000
0000
0000
0000
0000
0000
0000
0000
0000
0000
0000
0000
0000
0000
0000
0000
0000
0000
0000
0000
0000
0000
0000
0000
0000
0000
0000
0000
0000
0000
0000
0000
0000
0000
0000
0000
0000
0000
0000
0000
0000
0000
0000
0000
0000
0000
0000
0000
0000
0000
0000
0000
0000
0000
0000
0000
0000
0000
0000
0000
0000
0000
0000
0000
0000
0000
0000
0000
0000
0000
0000
0000
0000
0000
0000
0000
0000
0000
0000
0000
0000
0000
0000
0000
0000
0000
0000
0000
0000
0000
0000
0000
0000
0000
0000
0000
0000
0000
0000
0000
0000
0000
0000
0000
0000
0000
0000
0000
0000
0000
0000
0000
0000
0000
0000
0000
0000
0000
0000
0000
0000
0000
0000
0000
0000
0000
0000
0000
0000
0000
0000
0000
0000
0000
0000
0000
0000
0000
0000
0000
0000
0000
0000
0000
0000
0000
0000
;

//--------------- dance-single - STR 7/8/12*/38* ----------------
#NOTES:
     dance-single:
     STR 7/8/12*/38*:
     Challenge:
     20:
     1,1,0.182,0.126,1:
0000
0000
0000
0000
,
0000
0000
0000
0000
,
0000
0000
0000
0000
,
1001
0000
0001
0100
0000
0100
0010
0000
,
1000
0000
0001
1000
0000
1000
0001
0000
,
0100
0000
0001
0100
0000
0100
0010
0000
,
1000
0000
0001
0010
0000
0001
1000
0000
,
1001
0000
0001
0010
0000
0100
1000
0000
,
0001
0000
0001
1000
0000
1000
0100
0000
,
0010
0000
0010
0001
0000
1000
0001
0000
,
1000
0100
0010
0001
0010
0100
1000
0001
,
1000
0010
1000
0001
0100
0010
1000
0001
0010
0100
0010
0001
1000
0100
1000
0001
,
0010
0001
1000
0010
1000
0100
0010
0001
1000
0001
0100
0010
1000
0100
0010
0001
,
1000
0010
0100
0001
0100
0010
1000
0001
0010
0001
1000
0100
1000
0001
0100
0010
,
1000
0001
0010
0100
1000
0001
0100
0010
1000
0100
0010
0001
1000
0010
0100
0001
,
1000
0100
1000
0001
1000
0010
0100
0001
1000
0100
0010
0001
0010
0100
1000
0001
,
1000
0010
0100
0001
1000
0100
1000
0100
0010
0001
1000
0001
0100
0001
1000
0100
,
0010
0001
1000
0010
1000
0100
0010
0100
1000
0001
0100
0010
1000
0001
1000
0100
,
1000
0100
1000
0100
0010
0001
0010
0001
,
1M00
0000
0000
0000
0001
0100
0001
0010
0100
1000
0100
0010
0001
1000
0010
0100
,
0001
1000
0010
1000
0001
0100
0010
1000
0001
0010
0100
1000
0001
0100
0001
1000
,
0100
0010
0001
1000
0001
0100
0010
1000
0001
0010
0001
1000
0010
0100
0010
1000
,
0100
0010
0001
1000
0010
0100
0010
1000
0001
1000
0001
0010
0100
1000
0010
0100
,
0001
0010
0001
0010
0100
1000
0001
0010
0001
0100
0010
1000
0001
0010
0001
1000
,
0010
0100
0010
1000
0001
0010
0100
1000
0001
0100
0001
1000
0010
0100
0001
1000
,
0100
0010
0001
0100
0010
1000
0001
0010
0001
1000
0001
0010
0100
1000
0001
0100
,
0010
1000
0100
0010
0001
0100
0010
1000
0001
0010
0100
1000
0001
0100
0010
1000
,
0001
1000
0010
1000
0001
0000
0010
0000
0001
0000
0010
0000
0100
0000
1000
0000
,
0100
1000
0001
0100
0001
0100
0010
1000
,
0010
1000
0001
0010
0001
0100
0010
1000
,
0100
1000
0001
0010
0001
0010
0100
1000
,
0001
0010
0001
0100
0010
0100
0002
0000
,
0000
1003
0020
0000
0130
0002
0000
0103
,
0020
0000
0130
0020
0000
1030
0200
0000
,
0310
0002
0000
1003
0020
0000
2000
0000
,
3030
0000
0000
0000
0001
0010
0100
0010
0001
0010
0100
1000
0001
0100
0010
1000
,
0001
0010
0100
1000
0001
0100
0010
0100
0001
0100
0010
1000
0001
0010
0100
1000
,
0001
0100
0010
1000
0100
0010
0100
1000
0100
0010
0001
1000
0001
0100
0010
1000
,
0001
0010
0100
1000
0001
0010
0001
0100
0010
1000
0100
0010
0001
0100
0010
1000
,
0001
0000
1000
0000
0001
0100
0001
0010
0001
1000
0100
0010
0001
0100
0010
1000
,
0001
0010
0100
1000
0001
0100
0010
0100
0001
0100
0010
1000
0001
0010
0100
1000
,
0001
0100
0010
1000
0001
0010
0100
0010
0001
1000
0010
0100
0001
0010
0100
1000
,
0001
0100
0010
1000
0001
0010
0001
1000
0100
0010
0001
1000
0010
0100
0001
1000
,
0010
0000
1000
0000
0001
0010
0100
0010
0001
0010
0100
1000
0001
0100
0010
1000
,
0001
0010
0100
1000
0001
0100
0010
0100
0001
0100
0010
1000
0001
0010
0100
1000
,
0001
0100
0010
1000
0001
1000
0100
1000
0001
0010
0100
1000
0001
0100
0010
1000
,
0001
0010
0100
1000
0001
0010
0001
1000
0010
1000
0001
0010
0001
0000
1000
0000
,
0010
0100
0001
0100
0001
0100
0002
0000
,
0000
0013
0200
0000
1300
0020
0000
0130
,
0002
0000
0103
0010
1000
0100
0010
0100
,
1000
0001
2000
0000
0000
0000
3000
0001
,
1000
0001
1001
0000
0101
0000
0011
0000
,
0001
0100
0000
0100
0010
1000
0010
0100
,
0000
0001
1000
0000
1001
0000
1001
0000
,
0001
0100
0000
0010
0100
0010
0100
0001
,
0000
0001
1000
0000
1010
0000
0110
0000
,
0010
1000
0000
0001
0010
0200
0000
1300
,
0100
2000
0000
3010
1000
0020
0000
1030
,
0010
0200
0000
0301
0100
0000
0000
0010
,
1000
0010
1010
0000
0101
0000
0011
0000
,
0001
0100
0000
0100
0010
1000
0010
0100
,
0010
1000
1010
0000
1010
0000
0101
0000
,
0001
0010
0000
0010
0001
0100
0001
1000
,
0000
0010
1000
0000
1010
0000
0110
0000
,
0001
1000
0000
1000
0010
0100
0000
0100
,
0010
1000
0000
1000
0010
0100
0000
0100
,
0001
0100
0000
0100
0010
1000
0000
1000
,
0001
0000
0100
0000
0001
0100
0010
1000
0001
0010
0100
1000
0010
0100
0001
1000
,
0100
0010
0001
0100
0010
1000
0010
0100
0010
1000
0001
0010
0100
1000
0010
1000
,
0001
0100
0010
1000
0100
0010
0001
0010
0100
1000
0001
0010
0001
1000
0010
1000
,
0001
0100
0010
1000
0001
0010
0100
1000
0001
0100
0010
1000
0100
1000
0001
0010
,
0001
1000
0010
0100
0001
0100
0010
1000
0001
0010
0100
1000
0001
0100
0010
1000
,
0001
0010
0001
1000
0100
0010
0100
0010
0001
1000
0100
0010
0001
1000
0010
0100
,
0001
0010
0100
1000
0001
0100
0010
1000
0001
1000
0100
0010
0001
0100
0010
1000
,
0001
0010
0100
1000
0001
0000
0100
0000
0000
0000
0010
0000
0000
0000
0100
0000
,
0000
0000
0010
0000
1000
0100
1000
0010
1000
0001
0010
0100
1000
0001
0100
0010
,
1000
0001
0010
0001
1000
0001
0100
0010
1000
0100
0010
0001
0010
0100
1000
0001
,
0010
0001
1000
0001
0010
0100
1000
0010
1000
0001
0010
0100
1000
0001
0010
0001
,
1000
0100
0010
0001
1000
0010
0100
0001
1000
0001
0100
0010
1000
0100
0010
0001
,
0010
0100
1000
0001
0010
0001
1000
0100
0010
0001
0100
0010
1000
0001
0010
0100
,
1000
0001
0010
0001
1000
0010
0100
0001
1000
0100
0010
0001
1000
0010
0100
0001
,
1000
0100
1000
0010
1000
0001
0010
0100
1000
0010
0100
0001
0100
0010
1000
0001
,
0010
0100
0010
0001
1000
0010
0100
0001
0010
0100
1000
0010
0100
0001
0010
0001
,
1000
0100
1000
0010
1000
0100
0010
0001
1000
0010
0100
0001
1000
0100
0010
0001
,
1000
0010
1000
0100
1000
0001
0010
0100
1000
0010
0100
0001
1000
0100
0010
0001
,
0010
0100
1000
0010
0100
0001
1000
0100
0010
0100
1000
0001
0100
0010
0100
0001
,
1000
0100
1000
0010
0100
0001
0010
0100
1000
0010
0100
0001
1000
0100
0010
0001
,
0100
0010
1000
0001
0010
0100
1000
0010
0100
0001
1000
0100
0010
0001
1000
0010
,
0100
0001
0010
0100
1000
0001
0010
0001
1000
0010
0100
0001
1000
0100
0010
0001
,
1000
0010
1000
0100
0010
0001
0100
0010
1000
0100
0010
0001
0010
0100
1000
0001
,
0010
0001
0000
1000
0000
0001
0000
1000
,
0100
0000
0000
0000
1000
0010
0100
0001
1000
0100
0010
0001
1000
0010
0100
0010
,
1000
0001
0010
0100
1000
0010
0100
0001
1000
0100
0010
0001
1000
0010
0100
0010
,
1000
0001
0010
0100
1000
0010
0100
0001
1000
0001
0010
0100
1000
0010
0100
0010
,
1000
0001
0010
0100
1000
0001
0100
0010
1000
0100
0010
0001
1000
0100
0010
0001
,
1000
0010
0100
0010
1000
0100
0010
0001
1000
0010
0100
0001
1000
0100
0010
0100
,
1000
0001
0100
0010
1000
0001
0010
0100
1000
0010
0100
0001
1000
0100
0010
0100
,
1000
0001
0100
0001
0010
0100
1000
0001
0100
0010
1000
0100
1000
0010
0100
0001
,
1000
0100
1000
0010
0100
0001
0010
0100
1000
0010
1000
0001
0010
0100
0010
0001
,
1000
0100
1000
0010
0100
0001
0100
0010
1000
0100
0010
0001
0100
0010
0100
0001
,
1000
0100
1000
0001
1000
0010
0100
0001
0100
0010
1000
0001
0010
0100
1000
0001
,
0100
0010
0100
0001
1000
0100
0010
0001
1000
0010
0100
0001
0010
0100
1000
0010
,
0100
0001
1000
0100
0010
0001
1000
0010
0100
0001
0010
0100
1000
0001
0100
0001
,
1000
0100
0010
0001
1000
0010
0100
0001
0010
0100
1000
0010
0100
0001
1000
0100
,
0010
0001
1000
0010
1000
0001
0010
0100
1000
0010
0100
0001
1000
0100
0010
0001
,
0100
0010
1000
0001
1000
0000
0100
0000
1000
0000
0100
0000
1000
0000
0100
0000
,
1000
0100
0010
0001
0000
0100
0000
0010
,
1000
0000
0000
0000
;
