#TITLE:Speed it Up;
#SUBTITLE:;
#ARTIST:Alex Tune;
#TITLETRANSLIT:;
#SUBTITLETRANSLIT:;
#ARTISTTRANSLIT:;
#GENRE:;
#CREDIT:;
#MUSIC:Speed it Up.ogg;
#BANNER:;
#BACKGROUND:;
#CDTITLE:;
#SAMPLESTART:33.333;
#SAMPLELENGTH:12.000;
#SELECTABLE:YES;
#OFFSET:-0.272;
#BPMS:0.000=100.000
,18.000=200.000
;
#STOPS:;
#BGCHANGES:;
#FGCHANGES:;

//--------------- dance-single - ----------------
#NOTES:
     dance-single:
     :
     Beginner:
     4:
     0,0,0,0,0:
0000
0000
0000
0000
,
0001
0000
1000
0000
,
0010
0000
0100
0000
,
0001
0000
0010
0000
,
0100
0000
1001
0000
,
0000
0000
0001
0000
,
0000
0000
1000
0000
,
0000
0000
0001
0000
,
0000
0000
0110
0000
,
0000
0000
0100
0000
,
0000
0000
0010
0000
,
0000
0000
1000
0000
,
0000
0000
1001
0000
,
0001
0000
1000
0000
,
0010
0000
0100
0000
,
0000
0000
0001
0000
,
0000
0000
1001
0000
,
1000
0000
0010
0000
,
0100
0000
0100
0000
,
0001
0000
0010
0000
,
0100
0000
2000
0000
,
3000
0000
0001
0000
,
0100
0000
0010
0000
,
1000
0000
0002
0000
,
0003
0000
1001
0000
,
1000
0000
0010
0000
,
0100
0000
0100
0000
,
0001
0000
0010
0000
,
0100
0000
0020
0000
,
0030
0000
0001
0000
,
0000
0000
1000
0000
,
0001
0000
0020
0000
,
0030
0000
1001
0000
,
0000
0000
0001
0000
,
0000
0000
0100
0000
,
0000
0000
0020
0000
,
0030
0000
0100
0000
,
0100
0000
0001
0000
,
1000
0000
0001
0000
,
0010
0000
0100
0000
,
1000
0000
0001
0000
,
0000
0000
1000
0000
,
0000
0000
0010
0000
,
0000
0000
0100
0000
,
0000
0000
0001
0000
,
0000
0000
0010
0000
,
0000
0000
0100
0000
,
0000
0000
0010
0000
,
0000
0000
0001
0000
,
0000
0000
0100
0000
,
0000
0000
0010
0000
,
0000
0000
1000
0000
,
0000
0000
0010
0000
,
0000
0000
0100
0000
,
0000
0000
0001
0000
,
0000
0000
1000
0000
,
0000
0000
0001
0000
,
1000
0000
0010
0000
,
0100
0000
0001
0000
,
0010
0000
0100
0000
,
1000
0000
0001
0000
,
1000
0000
0010
0000
,
0100
0000
0001
0000
,
0010
0000
0100
0000
,
1000
0000
1001
0000
,
0001
0000
0100
0000
,
0001
0000
0010
0000
,
0100
0000
1000
0000
,
0001
0000
0100
0000
,
0010
0000
0100
0000
,
0001
0000
1000
0000
,
0100
0000
0010
0000
,
0000
0000
0001
0000
,
0001
0000
0100
0000
,
0010
0000
1000
0000
,
0100
0000
0010
0000
,
0001
0000
0200
0000
,
0300
0000
0010
0000
,
1000
0000
0001
0000
,
0000
0000
0200
0000
,
0300
0000
1001
0000
,
0010
0000
0100
0000
,
0001
0000
0010
0000
,
0100
0000
0010
0000
,
0001
0000
0020
0000
,
0030
0000
0001
0000
,
0000
0000
0100
0000
,
0001
0000
0200
0000
,
0300
0000
1001
0000
,
0000
0000
1000
0000
,
0000
0000
0001
0000
,
0000
0000
0100
0000
,
0000
0000
0110
0000
,
0000
0000
0010
0000
,
0000
0000
1000
0000
,
0000
0000
0010
0000
,
0000
0000
0110
0000
,
0100
0000
0001
0000
,
0010
0000
0100
0000
,
1000
0000
0001
0000
,
1000
0000
1001
0000
;

//--------------- dance-single - ----------------
#NOTES:
     dance-single:
     :
     Easy:
     8:
     0,0,0,0,0:
0000
0000
0000
0000
,
2000
3000
0002
0003
,
0100
0000
0020
0030
,
2000
3000
0001
0000
,
1000
0000
0000
0000
1M01
0000
0000
0001
,
0000
0000
0100
0100
,
0010
0000
1000
0000
1001
0000
0000
0001
,
0000
0000
0100
0000
0010
0000
0000
1000
,
0000
0000
0100
0000
0100
0000
0000
1000
,
0000
0001
0100
0100
,
0010
0000
1000
0000
1001
0000
0000
0001
,
0000
0000
0100
0000
0010
0000
0000
1000
,
0000
0100
0020
0030
,
0001
0000
1001
0000
,
1000
0001
0200
0000
,
0300
0000
0000
0000
0010
0000
0000
1000
,
0000
0001
1001
1000
,
0010
0100
0001
0010
,
0100
1000
0001
0001
,
0100
0010
1000
0001
,
0010
0100
2000
0000
,
3001
0000
0100
0000
,
0001
1000
0010
0100
,
0001
0010
0200
0000
,
0300
0010
1001
1000
,
0001
0100
0010
0100
,
0001
1000
0001
0010
,
0100
1000
0001
0100
,
0010
1000
0200
0000
,
0310
0000
0001
0000
,
1000
0000
0001
0000
,
0100
0000
0010
1000
,
0001
1000
1001
0001
,
0000
0100
0010
0010
,
1000
0000
0100
0000
1100
0000
0000
0100
,
0000
0000
1000
0000
0001
0000
0000
0100
,
0000
0010
0000
0000
0100
0000
0001
0000
,
0010
0100
1000
0001
,
1000
0010
0100
0100
,
0001
0001
1000
0100
,
0010
0001
1000
0001
,
0100
0010
1000
0001
,
0010
0100
1000
0001
,
0100
0010
1000
0001
,
0100
0010
0100
0001
,
0010
0100
1000
0001
,
0100
0001
0010
0100
,
1000
0001
0100
0010
,
1000
0001
1000
0010
,
0100
0001
0010
0100
,
1000
0001
0010
0001
,
0100
0010
1000
0100
,
0010
0001
0100
0010
,
1000
0001
0010
0100
,
1000
0001
0010
0001
,
0100
0010
1000
0000
,
0000
0000
0001
1000
,
0001
0100
0010
1000
,
0001
1001
1000
0010
,
0100
0000
0001
1000
,
0001
0000
0011
0010
,
0001
1000
0010
0010
,
0100
0001
0100
0100
,
0010
0010
1000
0001
,
0100
0010
1010
1000
,
0001
0010
0100
0100
,
1000
0001
0100
0100
,
0001
1000
0001
0100
,
0010
1000
0001
1000
,
0010
0100
0001
0010
,
0100
1000
0001
0100
,
0001
0010
0001
0000
,
1000
0000
1001
0001
,
0100
0001
0010
0001
,
0100
0010
1000
0100
,
0010
0100
1000
0001
,
0010
0100
2000
0000
,
3010
0000
0100
0000
,
0001
0010
0001
0100
,
0010
1000
0002
0000
,
0003
1000
1001
0001
,
0010
0001
0100
0010
,
1000
0100
0010
0001
,
0100
0010
1000
0001
,
0010
0100
2000
0000
,
3001
0000
0010
0000
,
0001
1000
0010
0100
,
0001
0010
0100
1000
,
0001
1000
1001
0001
,
0000
0100
0010
1000
,
0000
0100
0010
0001
,
0000
0000
1000
0000
0001
0000
0000
0100
,
0000
0001
0010
0100
,
0000
1000
0001
0010
,
0000
0100
1000
0001
,
0000
0000
0010
0000
0100
0000
0000
1000
,
0000
0001
1001
1000
,
0010
0100
0001
0010
,
0100
1000
0001
0010
,
0001
0000
0100
0000
0010
0000
0000
1000
,
0000
0001
1001
0000
;

//--------------- dance-single - ----------------
#NOTES:
     dance-single:
     :
     Medium:
     11:
     0,0,0,0,0:
0000
0000
2002
3003
,
0002
0003
0200
0300
,
0010
0000
0000
1000
0000
0000
0001
0000
2000
0000
0000
0000
3000
0000
0000
0000
,
0002
0003
0200
0300
,
0010
0000
0000
1000
0000
0000
0001
0000
10M1
0000
0000
0000
1000
0000
0100
0000
,
0000
2000
0000
3000
0001
0100
0001
0000
,
0010
0000
0011
0000
1001
0000
0001
1000
,
0000
0020
0000
1030
0001
0010
0000
0001
,
0000
1000
0100
0000
0011
0000
0001
0100
,
0000
0020
0000
0030
1000
0001
1000
0000
,
0010
0000
1010
0000
1000
0000
0001
0010
,
0000
0200
0000
0300
2000
0000
0000
3001
,
0000
0100
0010
0000
1010
0000
1000
0000
,
0001
0000
1001
0000
,
1000
0001
2000
0000
,
3000
0000
0000
0000
0001
0000
0000
1000
,
0000
0001
1001
1000
,
0001
0000
0000
0100
0000
0000
0010
0000
1000
0000
0000
0001
0000
0000
0100
0000
,
0010
0000
1000
0000
0001
0010
0001
0000
,
1000
0000
0000
0100
0000
0000
0010
0000
0001
0000
0000
0010
0000
0000
0100
0000
,
1000
0000
0000
0001
0000
0000
1000
0000
0002
0000
0000
0000
0000
0000
0000
0000
,
1003
0000
0001
0000
0100
0000
0010
1000
,
0010
0000
0000
1000
0000
0000
0100
0000
0010
0000
0000
0000
0001
0000
0200
0000
,
0000
0000
0301
1000
0010
0000
0100
0000
,
0001
1000
1010
0010
,
0100
0000
0000
0001
0000
0000
0100
0000
0010
0000
0000
0100
0000
0000
0001
0000
,
1000
0000
0010
0000
1000
0100
1000
0000
,
0001
0000
0000
0010
0000
0000
0100
0000
1000
0000
0000
0001
0000
0000
0100
0000
,
0010
0000
0000
1000
0000
0000
0100
0000
0020
0000
0000
0000
0000
0000
0000
0000
,
0130
1000
0001
0100
,
0010
0000
0000
1000
0000
0000
0010
0000
1000
0000
0000
0000
0001
0000
0100
0000
,
0000
0000
0001
0020
0001
0000
0100
0000
,
0031
0000
1000
0000
1001
0000
0001
0100
,
0000
0010
0000
0000
1000
0001
1000
0000
,
0001
0000
0101
0000
0110
0000
0010
1000
,
0000
0001
0100
0000
0010
1000
0001
0100
,
0000
0110
0000
0000
1010
0000
0010
0000
,
1000
0001
1000
0000
0010
1000
0010
0000
,
1000
0000
0001
0000
1000
0100
1000
0100
,
0010
0001
0010
0001
1000
0100
1000
0010
,
1000
0000
0001
0000
0100
0000
0010
0000
1000
0000
0001
0000
0000
0100
0000
0000
,
0010
0000
0000
1000
0000
0000
0100
0000
0000
0000
1000
0000
0000
0001
0000
0000
,
1000
0000
0000
0001
0000
0000
1000
0000
0000
0000
0001
0000
0000
0100
0000
0000
,
0001
0000
0000
0100
0000
0000
0001
0000
0000
0000
1000
0000
0000
0100
0000
0000
,
0020
0000
0000
0000
0032
0000
0000
0000
1003
0000
0010
0000
0000
1000
0000
0000
,
0100
0000
0000
1000
0000
0000
0010
0000
0000
0000
0100
0000
0000
0001
0000
0000
,
0100
0000
0000
0010
0000
0000
0100
0000
0000
0000
0001
0000
0000
0010
0000
0000
,
0100
0000
0000
1000
0000
0000
0100
0000
0000
0000
0010
0000
0000
0001
0000
0000
,
2000
0000
0000
0000
3002
0000
0000
0000
1003
0000
0100
0000
0000
0010
0000
0000
,
0001
0000
0000
0010
0000
0000
0100
0000
0000
0000
1000
0000
0000
0010
0000
0000
,
0100
0000
0000
0001
0000
0000
0100
0000
0000
0000
0010
0000
0000
1000
0000
0000
,
0100
0000
0000
0010
0000
0000
0001
0000
0000
0000
1000
0000
0000
0010
0000
0000
,
0200
0000
0000
0000
0320
0000
0000
0000
1030
0000
0100
0000
0000
1000
0000
0000
,
0001
0000
0000
0100
0000
0000
0010
0000
0000
0000
1000
0000
0000
0100
0000
0000
,
0010
0000
0000
0001
0000
0000
0010
0000
0000
0000
0100
0000
0000
1000
0000
0000
,
0001
0000
0000
0100
0000
0000
0010
0000
1000
0000
0000
0000
0000
0000
0000
0000
,
0000
0000
1001
0001
,
0100
0010
0100
0000
0001
0000
0010
0000
,
0100
1100
1001
0001
,
0100
0100
0010
1000
,
0001
0010
0110
0100
,
1000
0000
0010
0000
1000
0100
1000
0000
,
0100
0000
0110
0000
0010
0000
0010
0001
,
1000
0000
0010
0000
1000
0001
1000
0010
,
0100
0001
0100
0010
1000
0000
0100
0000
,
0010
0001
1000
0000
0010
0100
0010
0000
,
1000
0000
1001
0000
0001
1000
0001
0100
,
0010
1000
0010
0000
1000
0100
0010
0000
,
0001
0000
0011
0000
0010
0100
0010
0000
,
0001
1000
0010
0100
,
0001
0000
0010
0000
0001
1000
0010
1000
,
0001
0100
0010
1000
,
0100
0010
0011
0001
,
1000
0000
0000
0100
0000
0000
1000
0000
0010
0000
0000
1000
0000
0000
0010
0000
,
1000
0000
0001
0000
0100
0010
0100
0000
,
0001
0000
0000
0010
0000
0000
0100
0000
1000
0000
0000
0100
0000
0000
0010
0000
,
0001
0000
0000
1000
0000
0000
0010
0000
0200
0000
0000
0000
0000
0000
0000
0000
,
0301
0010
0100
1000
,
0001
0000
0000
0100
0000
0000
0001
0000
0010
0000
0000
0000
0001
0000
2000
0000
,
0000
0000
3100
2000
0000
0000
0001
0000
,
3001
0100
0101
0100
,
0001
0000
0000
0010
0000
0000
0100
0000
0010
0000
0000
0001
0000
0000
0010
0000
,
0100
0000
1000
0000
0001
0100
0001
0000
,
1000
0000
0000
0100
0000
0000
0010
0000
0100
0000
0000
1000
0000
0000
0010
0000
,
0100
0000
0000
0001
0000
0000
0100
0000
0020
0000
0000
0000
0000
0000
0000
0000
,
0130
0010
1000
0001
,
1000
0000
0000
0100
0000
0000
0010
0000
0001
0000
0000
0000
1000
0000
0200
0000
,
0000
0000
1300
0001
0100
0010
0100
0001
,
1000
0001
1001
1000
,
0001
0000
0100
0000
0010
0100
0010
0000
,
1000
0001
0101
0100
,
0010
0100
0001
0000
0010
0000
0000
0001
,
0000
0100
0110
0010
,
1000
0000
1000
0000
0010
0100
0010
0000
,
1000
0001
0110
0100
,
0001
0000
1000
0000
0001
0000
0000
0100
,
0000
0010
1001
1000
,
0001
0000
0100
0000
0010
1000
0001
0000
,
0010
0100
1100
1000
,
0001
0000
0100
0000
0010
0000
0000
1000
,
0000
0001
1001
0000
;

//--------------- dance-single - DS JA XODS- XO ----------------
#NOTES:
     dance-single:
     DS JA XODS- XO:
     Hard:
     13:
     0.917594,0.893391,0.126629,0.056765,1.33179,1471,1442,29,13,0,0,0.917594,0.893391,0.126629,0.056765,1.33179,1471,1442,29,13,0,0:
0000
0000
2002
3003
,
2000
3000
0002
0003
,
0100
0000
0000
0010
0000
0000
1000
0000
0002
0000
0000
0000
0003
0000
0000
0000
,
0200
0300
0020
0030
,
1000
0000
0000
0100
0000
0000
0010
0000
M001
0000
0100
0000
0001
0000
0000
0000
,
2000
0100
3001
1000
0001
0100
0100
0000
,
0010
0000
1010
0000
2000
0000
3001
0100
,
0000
0M00
1000
0000
0001
0000
0100
0000
0010
0000
0000
0000
0000
0000
1000
0000
,
0000
0001
0100
0001
0101
0000
0100
0010
,
0000
00M0
0001
0000
0100
0000
0010
0000
1000
0000
0100
0000
0100
0000
0010
0000
,
0001
0000
1001
0000
2000
0000
3010
0100
,
0000
0M00
1000
0000
0001
0000
0000
0000
0100
0000
0010
0000
0100
0000
0001
0000
,
0000
1000
0100
0010
0001
1000
0001
0000
,
0100
0000
0000
0010
0000
0000
0100
0000
0001
0000
0000
0100
0000
0000
0001
0000
,
1000
0001
0200
0300
,
0000
0000
0000
0000
0010
0000
0000
1000
,
0000
0001
0100
0001
1000
0100
0001
0000
,
0100
0000
0000
1000
0000
0000
1000
0000
0010
0000
0000
0100
0000
0000
0100
0000
,
0001
0000
0101
0000
0001
0100
1000
0000
,
0100
0000
0000
0010
0000
0000
1000
0000
0001
0000
0000
0010
0000
0000
0100
0000
,
1000
0000
0000
0001
0000
0000
0100
0000
0020
0000
0000
0000
1000
0000
0000
0000
,
0130
0000
0001
0000
2000
0000
3010
0100
,
0001
0000
0000
0100
0000
0000
0100
0000
0010
0000
0000
0000
1000
0000
0020
0000
,
0000
0000
0130
0020
0000
0000
1030
0000
,
0001
1000
0001
1000
0001
0010
1000
0010
,
0001
0000
0000
0100
0000
0000
0010
0000
1000
0000
0000
0100
0000
0000
0010
0000
,
0001
0000
1001
0000
1000
0100
0001
0000
,
1000
0000
0000
0010
0000
0000
0001
0000
1000
0000
0000
0100
0000
0000
0010
0000
,
0001
0000
0000
0100
0000
0000
0010
0000
2000
0000
0000
0000
0001
0000
0000
0000
,
3100
0000
1000
0001
1000
0000
0010
0100
,
0001
0000
0000
0010
0000
0000
0100
0000
1000
0000
0010
0000
0100
0000
0001
0000
,
0010
0100
1000
0001
0100
0010
0100
0010
,
0100
0001
1000
0001
1000
0100
0001
0100
,
0000
0M00
0001
0000
0010
0000
0100
0000
1000
0000
0010
0000
0010
0000
1000
0000
,
0000
0001
0000
1000
1001
0000
0001
0100
,
0000
0M00
1000
0000
0010
0000
0100
0000
0001
0000
0000
0000
0000
0000
0010
0000
,
0000
0011
0000
0001
1000
0100
0001
0100
,
0020
0001
0130
1000
0010
0100
0001
0000
,
1000
0000
1001
0000
0001
0100
0001
0100
,
0010
1000
0010
1000
0001
0010
0100
1000
,
0001
0000
0100
0000
0001
0000
0100
0000
0001
0000
0100
0000
0000
0010
0000
0000
,
1000
0000
0000
0100
0000
0000
0020
0000
0000
0000
0031
0000
0000
0100
0000
0000
,
0010
0000
0000
0001
0000
0000
0020
0000
0000
0000
0130
0000
0000
0001
0000
0000
,
0100
0000
0000
0010
0000
0000
1000
0000
0000
0000
0100
0000
0000
0010
0000
0000
,
0004
0000
0000
0000
0000
0000
0000
0000
1003
0000
0001
0000
0000
0100
0000
0000
,
1000
0000
0000
0100
0000
0000
0001
0000
0000
0000
1000
0000
0000
0010
0000
0000
,
0001
0000
0000
0010
0000
0000
1000
0000
0000
0000
0001
0000
0000
0100
0000
0000
,
1000
0000
0000
0100
0000
0000
0001
0000
0000
0000
1000
0000
0000
0010
0000
0000
,
0400
0000
0000
0000
0000
0000
0000
0000
0310
0000
1000
0000
0000
0010
0000
0000
,
1000
0000
0000
0010
0000
0000
1000
0000
0000
0000
0001
0000
0000
0100
0000
0000
,
0001
0000
0000
0010
0000
0000
0001
0000
0000
0000
1000
0000
0000
0100
0000
0000
,
0010
0000
0000
0001
0000
0000
0010
0000
0000
0000
0100
0000
0000
1000
0000
0000
,
0040
0000
0000
0000
0000
0000
0000
0000
1030
0000
0001
0000
0000
0100
0000
0000
,
0010
0000
0000
1000
0000
0000
0100
0000
0000
0000
0010
0000
0000
0001
0000
0000
,
0010
0000
0000
0100
0000
0000
1000
0000
0002
0000
0000
0000
0000
0000
0000
0000
,
1003
0000
0000
0010
0000
0000
1000
0000
1010
0000
0000
0000
0000
0000
0000
0000
,
0000
0000
0000
0000
1000
0001
2000
0000
,
0100
3001
1000
0000
0001
0100
0100
0010
,
1000
0100
0010
0000
0011
0000
0001
1000
,
0002
0100
1003
0000
0001
0010
0100
1000
,
0001
0000
0101
0000
0100
0010
2000
0000
,
0100
3001
1000
0010
0100
0001
0010
0000
,
0100
1000
0100
1000
1001
0000
0001
0100
,
0001
0010
0100
0000
1000
0001
1000
0010
,
0100
0001
0010
0100
1100
0000
1000
0000
,
0002
0100
1003
0000
0001
0010
0100
0000
,
1000
0000
1001
0000
0001
0100
0001
0100
,
0010
1000
0001
0000
0010
0100
1000
0100
,
0010
0000
0000
0000
0001
0000
0000
0000
1000
0001
1000
0001
1000
0000
0000
0000
,
0001
0010
1000
0010
0100
1000
0001
0000
,
0100
0000
0010
0000
0100
0000
0001
0000
1000
0001
1000
0001
0010
0000
0000
0000
,
0001
0100
0010
0000
1010
0000
1000
0000
,
0001
0010
0100
1000
0001
0010
1000
0010
,
0100
0000
0000
0010
0000
0000
0001
0000
1000
0000
0000
0001
0000
0000
1000
0000
,
0010
0000
1001
0000
0001
0100
1000
0100
,
0001
0000
0000
0010
0000
0000
0100
0000
1000
0000
0000
0001
0000
0000
0100
0000
,
0010
0000
0000
1000
0000
0000
0100
0000
0020
0000
0000
0000
0001
0000
0000
0000
,
0130
0000
1000
0001
1000
0000
0010
0100
,
0001
0000
0000
0010
0000
0000
0100
0000
1000
0000
0000
0000
0001
0000
0100
0000
,
0001
0000
1000
0010
2000
0000
0001
0000
,
3010
1000
0001
1000
0001
0100
1000
0100
,
0010
0000
0000
0100
0000
0000
0001
0000
0010
0000
0000
0100
0000
0000
1000
0000
,
0001
0000
1001
0000
1000
0100
0001
0100
,
0010
0000
0000
0100
0000
0000
0010
0000
0001
0000
0000
1000
0000
0000
0010
0000
,
0100
0000
0000
0001
0000
0000
0010
0000
0200
0000
0000
0000
0010
0000
0000
0000
,
1300
0000
0001
0000
1000
0000
0010
0100
,
0001
0000
0000
0010
0000
0000
0001
0000
2000
0000
0000
0000
3001
0000
0100
0000
,
0010
0000
1000
0001
0100
0001
0100
0001
,
0100
0010
1000
0001
0100
0010
0001
0010
,
0000
00M0
0001
0000
1000
0000
0000
0000
1000
0000
0001
0000
0001
0000
0100
0000
,
0000
0010
0110
0000
1001
0000
1000
0010
,
0000
00M0
0001
0000
0100
0000
0010
0000
1000
0000
0001
0000
0010
0000
0100
0000
,
0000
1000
0001
1000
0100
0010
1000
0010
,
0000
0M00
1000
0000
0001
0000
0000
0000
1000
0000
0010
0000
0010
0000
1000
0000
,
0000
0010
1010
0000
1001
0000
0002
0100
,
0000
1003
0001
0100
0001
0010
0100
1000
,
0000
0001
0100
0000
0001
0100
1000
0000
,
0100
0010
0100
0000
0001
1000
1000
0000
,
0010
0100
0001
0000
1001
0000
1000
0000
,
0001
0100
0010
0000
1000
0000
0000
0001
,
0000
1000
0100
0010
0001
0000
0000
0000
;

//--------------- dance-single - XO JA SJ ----------------
#NOTES:
     dance-single:
     XO JA SJ:
     Challenge:
     17:
     0.079845,0.1513,0.082964,0,0,128,109,19,0,0,0,0.079845,0.1513,0.082964,0,0,128,109,19,0,0,0:
0000
0000
1001
0000
,
0002
0003
2000
3000
,
0001
0000
0000
0100
0000
0010
1000
0001
1000
0100
0020
0000
0000
0000
0000
0000
,
0032
0003
2000
3000
,
0001
0000
0000
0100
0000
0010
1000
0001
0M10
0000
0001
0000
1000
0000
0000
0000
,
0001
0000
0100
0001
0100
0000
0010
0000
1000
0000
0100
0000
0100
0000
0010
0000
,
0001
0100
0110
0000
0020
0000
1030
0100
,
0000
0000
0010
0001
0010
0000
0001
0000
0100
0000
1000
0000
0100
0000
0010
0000
,
1000
1001
0000
0000
0001
0100
0001
0010
,
0000
0000
0100
1000
0100
0000
0010
0000
0001
0000
1000
0000
1000
0000
0001
0000
,
0100
0010
1010
0000
2000
0000
3001
0100
,
0000
0000
0001
1000
0010
0000
1000
0000
0100
0000
0001
0000
0100
0000
0010
0000
,
0100
0010
0001
1000
1001
0000
0001
0000
,
0100
0000
0000
0010
0000
0000
1000
0000
0001
0000
0000
0100
0000
0000
0010
0000
,
1000
0001
0020
0030
,
0000
0000
0000
0000
0200
0000
0000
1300
,
0000
0001
0100
0001
1001
1000
0100
0000
,
0001
0000
0000
0100
0000
0000
1000
0000
0001
0000
0000
0010
0000
0000
1000
0000
,
0001
0100
0001
1000
0001
0010
0100
0010
,
0001
0000
0000
0100
0000
0000
1000
0000
0001
0000
0000
0010
0000
0000
1000
0000
,
0001
0010
0001
0010
0200
0000
1000
0000
,
0310
0001
0100
0010
1000
0100
0010
0001
,
1000
0000
0000
0100
0000
0000
0001
0000
0100
0000
0000
0000
1000
0000
0010
0000
,
1000
0100
0010
0001
2000
0000
0001
0000
,
3100
1000
0001
0010
0011
0001
0100
0010
,
1000
0000
0000
0100
0000
0000
0001
0000
1000
0000
0000
0010
0000
0000
0001
0000
,
1000
0000
1001
0000
0001
0100
0010
0100
,
0001
0000
0000
0100
0000
0000
1000
0000
0001
0000
0000
0010
0000
0000
1000
0000
,
0001
0100
0001
0010
0200
0000
0001
0000
,
1300
0010
0100
0001
1000
0100
1000
0001
,
1000
0000
0000
0100
0000
0000
0001
0000
0200
0000
0000
0000
1300
0000
0010
0000
,
0100
0001
0010
0100
1000
0001
1000
0001
,
1000
0010
0100
0001
0101
0000
0100
0010
,
0000
0000
1000
0001
1000
0000
0100
0000
0010
0000
0100
0000
0100
0000
0010
0000
,
0001
1000
1001
0000
0102
0000
0103
0100
,
0010
0000
1000
0001
0100
0000
0010
0000
1000
0000
0001
0000
0001
0000
0100
0000
,
0000
0110
0000
1000
1010
0010
0100
0000
,
0001
0000
1000
0010
0100
0000
0001
0000
0010
0000
0001
0000
0001
0000
1000
0000
,
0001
0000
0101
0000
0100
0001
0100
0001
,
1000
0000
0010
0000
1000
0000
0010
0000
1000
0100
1000
0001
0010
0100
1000
0001
,
0100
0010
1000
0100
0010
0001
1000
0010
1000
0100
1000
0000
0001
0100
0000
0001
,
0100
0000
0010
1000
0000
0010
1000
0000
0001
0010
0001
0000
1000
0010
0000
0100
,
0001
0000
1000
0100
0000
0010
0001
0000
1000
0001
1000
0000
0001
0100
0000
0010
,
1000
0000
0100
0010
0000
0001
0100
0000
0001
1000
0001
0000
1000
0100
0000
0010
,
0001
0000
0000
0000
0100
0000
0000
0000
0001
0000
0000
0000
1000
0000
0000
0000
0010
0000
0000
0000
1000
0000
0000
0000
0001
0000
0000
0000
0000
0000
1000
0000
0000
0000
0000
0000
0001
0000
0000
0010
0000
0000
0000
0000
0000
0001
0000
0000
,
0010
0000
0100
1000
0000
0100
1000
0000
0001
0000
0100
0000
0010
1000
0000
0100
,
1000
0000
0001
0100
0000
0001
0010
0000
0100
0000
1000
0000
0001
0100
0000
0010
,
1000
0000
0100
0010
0000
0001
1000
0000
0001
0000
0100
0000
0001
0010
0000
0100
,
1000
0000
0000
0000
0010
0000
0000
0000
0100
0000
0000
0000
0001
0000
0000
0000
0010
0000
0000
0000
0100
0000
0000
0000
1000
0000
0000
0000
0000
0000
0001
0000
0000
0000
0000
0000
0100
0000
0000
0010
0000
0000
0000
0000
0000
0100
0000
0000
,
0010
0000
1000
0001
0000
1000
0001
0000
1000
0000
0100
0000
0010
0001
0000
0010
,
0001
0000
0100
0010
0000
1000
0010
0000
1000
0000
0001
0000
1000
0100
0000
0010
,
0001
0000
1000
0010
0000
0100
0001
0000
0010
0000
0100
0000
1000
0100
0000
0010
,
0001
0000
1000
0010
0000
1000
0100
0000
0010
0000
0001
0000
1000
0010
0000
0100
,
0001
0000
1000
0100
0000
0010
0001
0000
1000
0000
0010
0000
0100
0001
0000
0100
,
0010
0000
1000
0100
0000
1000
0001
0000
0100
0000
0010
0000
1000
0100
0000
1000
,
0010
0000
0100
0001
0000
0010
0001
0000
1001
0000
0000
0000
1000
0000
0000
0000
,
0000
0000
0000
0000
1001
1000
0001
0100
,
0010
0000
1000
0000
0100
0000
0000
0000
0010
0000
0001
0000
0001
0000
0100
0001
,
0100
0000
0010
0000
0110
0000
0000
0000
0100
0001
0100
0001
0100
0000
0001
0000
,
0010
0000
0100
0000
0010
0000
0000
0000
0001
1000
0001
0000
0100
0000
0010
0000
,
1000
0000
0000
0000
1001
0000
0000
0000
0101
0000
0001
0000
0100
0000
0000
0010
,
1000
0010
1000
0000
0001
0000
0010
0000
0100
1000
0100
0000
0010
0000
0000
0001
,
1000
0100
1000
0000
0010
0000
0100
0000
0001
1000
0001
0010
0100
0010
0001
1000
,
0001
0000
0100
0000
0010
0000
1000
0000
0001
0100
0001
0100
0010
0000
1000
0000
,
0001
1000
0001
1000
0010
0000
0100
0000
0101
0000
0000
0000
0001
0100
0000
0000
,
0010
0000
1000
0000
0100
0000
0000
0000
0010
0000
0001
0000
0001
0000
1000
0010
,
1000
0000
0001
0000
0011
0000
0000
0000
0100
1000
0100
1000
0001
0000
0100
0000
,
0001
0000
1000
0000
0100
0000
0000
0000
0010
0001
0010
0000
0001
0000
0100
0000
,
0010
0000
0000
0000
1010
0000
0000
0000
1000
0001
1000
0001
0100
0000
0000
0001
,
0010
0001
0010
0000
0001
0000
0100
0000
0010
1000
0001
0000
0010
0000
0000
0001
,
0100
0010
1000
0000
0001
0000
0010
0000
0001
1000
0001
1000
0100
0000
1000
0000
,
0001
0100
0010
0100
0110
0000
1000
0000
,
0001
0010
0100
1000
0001
0000
1000
0000
1001
0000
0001
0000
0100
0000
0010
1000
,
0010
1000
0010
0000
0100
0000
0001
0000
0010
0000
0100
0000
1000
0000
0001
0010
,
0001
0010
0001
0000
0100
0000
0010
0000
1000
0000
0001
0000
0010
0000
0100
1000
,
0100
1000
0100
0000
0010
0000
0001
0000
0100
0000
0010
0000
1000
0000
0001
1000
,
0001
0100
0010
0000
1000
0000
0100
0000
0020
0000
0001
0000
0031
0000
0100
0010
,
1000
0010
0100
0000
0001
0000
0010
0000
0100
0000
1000
0000
0001
0000
0100
0010
,
0100
0001
0100
0000
0010
0000
1000
0000
0200
0000
0000
0000
1300
0000
0010
0100
,
0010
0100
0010
0000
1000
0000
0001
0000
1000
0000
0100
0000
1000
0000
0010
0100
,
0010
1000
0010
0000
1000
0000
0001
0000
1001
0000
1000
0000
0100
0000
0010
0001
,
0010
0001
0010
0000
0100
0000
1000
0000
0001
0000
0100
0000
0010
0000
1000
0001
,
1000
0010
0100
0000
0001
0000
0010
0000
0100
0000
1000
0000
0001
0000
1000
0100
,
0010
0001
0100
0000
0010
0000
1000
0000
0001
0000
0010
0000
0100
0000
1000
0100
,
1000
0001
0100
0000
0010
0000
1000
0000
0002
0000
0100
0000
0103
0000
0010
1000
,
0010
1000
0001
0000
0100
0000
0010
0000
1000
0000
0001
0000
0010
0000
0100
1000
,
0001
1000
0010
0000
0100
0000
0001
0000
0020
0000
0001
0000
0031
0000
0100
0010
,
0100
0001
0100
0000
0010
0000
1000
0000
0001
0000
0100
0000
0001
0000
0100
0000
,
0001
1000
0001
0001
1001
0000
0000
1010
,
0000
0000
0010
0000
0100
0001
0100
0000
0010
0000
0100
0000
0100
0000
0001
0010
,
0100
1000
0001
0000
0100
0000
0000
0000
1010
0000
0000
0000
0010
0000
1000
0000
,
0010
1010
1000
0001
0100
0000
0000
0010
,
0000
1000
0001
0100
0001
0001
0010
0100
,
1000
0000
1100
0000
0100
0000
0010
0000
0001
0000
0100
0000
0100
0000
0010
1000
,
0010
1000
0001
0100
0010
0000
1000
0000
1001
0000
0000
0000
0001
0000
0100
0000
,
0010
0110
0100
0001
1000
0001
0100
0010
,
1000
0100
0010
0001
1001
1000
0010
0000
,
0100
0001
0100
0010
1000
0001
0001
0100
,
0010
1000
1100
0000
0110
0000
0010
0001
,
0100
0010
1000
0100
0010
0001
0100
0010
,
1000
0001
1000
0001
0220
0000
0330
0000
;
