#TITLE:Ring Ding Dong;
#SUBTITLE:;
#ARTIST:Shinee;
#TITLETRANSLIT:;
#SUBTITLETRANSLIT:;
#ARTISTTRANSLIT:;
#GENRE:;
#CREDIT:;
#MUSIC:Ring Ding Dong.ogg;
#BANNER:;
#BACKGROUND:;
#CDTITLE:;
#SAMPLESTART:33.940;
#SAMPLELENGTH:12.000;
#SELECTABLE:YES;
#OFFSET:-0.180;
#BPMS:0.000=125.110;
#STOPS:;
#BGCHANGES:;
#FGCHANGES:;

//--------------- dance-single - ----------------
#NOTES:
     dance-single:
     :
     Beginner:
     3:
     0.121,0.205,0.036,0.054,0:
0000
0000
0000
0000
,
0000
0000
0000
0000
,
0000
0000
0000
0000
,
0000
0000
0100
0000
,
0001
0000
0000
0000
,
0000
1000
0000
0001
,
0000
1000
0000
0000
,
1000
1000
0000
0000
,
1001
0000
0000
0000
,
1000
0000
0001
0000
,
1000
0000
0010
0000
,
0100
0100
0100
0000
,
0010
0000
1000
0000
,
0001
0001
0001
0000
,
1000
0000
1000
0000
,
0010
0000
0000
0000
,
0100
0000
0000
0000
,
0001
0000
0000
0000
,
1000
0000
0000
0000
,
0001
0000
0000
0000
,
1000
0000
1000
0000
,
0001
0000
1000
1000
,
0000
0000
0000
0000
,
0000
0000
0000
0000
,
1001
0000
0000
0000
,
1000
0000
0000
0000
,
0001
0000
0000
0000
,
0100
0000
0000
0000
,
0010
0000
1000
0000
,
1000
0000
0000
0000
,
0001
0000
0000
0000
,
1000
0000
0000
0000
,
0200
0000
0000
0300
,
0000
0000
0000
0000
,
0020
0000
0000
0030
,
0000
0000
0000
0000
,
2000
0000
0000
3000
,
0000
0000
0000
0000
,
0002
0000
0000
0003
,
0000
0000
0000
0000
,
1000
1000
1000
1000
,
1000
1000
1000
0000
,
0001
0001
0001
0001
,
0001
0001
0001
0000
,
0010
0000
0000
0000
,
0100
0000
0000
0000
,
1000
0000
0000
0000
,
0001
0000
0000
0000
,
1001
0000
1000
0000
,
0001
0000
0100
0000
,
0010
0000
1000
0000
,
0001
0000
1000
0000
,
0010
0000
0100
0000
,
0001
0000
1000
0000
,
0010
0000
0100
0000
,
0001
0000
1000
0000
,
2002
0000
0000
0000
,
3003
0000
0000
0000
;

//--------------- dance-single - ----------------
#NOTES:
     dance-single:
     :
     Easy:
     4:
     0.243,0.232,0.144,0.207,0:
0000
0000
0000
0000
,
0000
0000
0000
0000
,
0000
0000
0000
0000
,
0001
1000
0001
0100
,
0002
0000
0000
0003
,
0000
1000
0010
0100
,
0001
2000
0000
3000
,
0001
2000
0000
3000
,
1001
0000
0010
0000
,
1000
0001
0100
0000
,
1001
0000
0010
0000
,
1001
0000
1000
0001
,
1001
0000
0010
0000
,
1000
0100
0010
0001
,
1001
0000
0010
0000
,
0100
0100
0010
0010
,
1001
0000
0100
0010
,
0001
0000
1000
0010
,
0100
0000
0001
1000
,
0100
0000
0000
0000
,
1001
0000
1000
0000
,
0001
0000
1000
0001
,
0100
0100
0010
0010
,
1000
1000
0001
0001
,
0100
0100
0000
0010
,
1000
0001
0000
0100
,
0010
1000
0000
0001
,
1000
0000
0000
1001
0000
0000
0000
0000
,
0010
1000
0001
0000
,
2000
0000
3001
0100
,
0010
1000
0001
0010
,
0100
1000
0001
0100
,
0010
0020
0000
0000
,
0030
1000
0001
0100
,
0010
0020
0000
0000
,
0030
1000
0001
0100
,
0010
0002
0000
0000
,
0003
1000
0001
0100
,
0001
0002
0000
0003
,
1000
2000
0000
3000
,
0010
0010
0010
0010
,
0010
0010
0020
0000
,
0130
0100
0100
0100
,
0100
0100
0200
0000
,
0302
0000
0203
0000
,
0320
0000
2030
0000
,
3002
0000
0203
0000
,
0320
0000
0000
0030
,
2001
0000
0001
3000
,
0001
0100
0010
0000
,
2100
0000
0001
0000
,
3010
0100
0001
0000
,
0012
0000
0000
0000
0100
0000
0000
0003
,
0010
1000
0100
0000
,
2001
0000
0001
0000
,
0001
0001
3001
0000
,
1100
1100
0000
0000
,
0011
0011
0000
0000
;

//--------------- dance-single - ----------------
#NOTES:
     dance-single:
     :
     Medium:
     8:
     0.333,0.378,0.045,0.162,0.094:
0000
0000
0000
0000
,
0000
0000
0000
0000
,
0000
0000
0000
0000
,
0000
0000
0001
1000
0001
0000
0010
0000
,
0200
0000
0000
0300
,
0000
0000
1000
0001
1000
0000
0010
0000
,
0200
0000
0000
0000
,
0302
0000
0000
0003
,
1001
0000
0000
0001
0000
0000
0000
0000
1000
0000
0000
1000
0000
0000
0000
0000
,
0001
0100
0010
0000
2000
0000
3000
0000
,
0001
0000
0000
0001
0000
0000
0000
0000
0100
0000
0000
0100
0000
0000
0000
0000
,
0010
0000
1000
0000
0010
0000
0000
0000
1000
0000
0000
1000
0000
0000
0000
0000
,
0001
0000
0000
0001
0000
0000
0000
0000
0100
0000
0000
0100
0000
0000
0000
0000
,
0010
1000
0010
0000
1000
0000
0000
0000
,
0001
0000
0000
1000
0000
0000
0000
0000
1000
0000
0000
0001
0000
0000
0000
0000
,
1000
0000
0100
0000
1000
0000
0000
0000
0001
0000
0000
1000
0000
0000
0001
0000
,
1000
0100
0010
0000
0000
0001
1000
0001
,
0100
0100
0100
0000
0000
0010
1000
0010
,
1000
1000
1000
0000
0000
0001
0100
0001
,
1000
1000
1000
0000
0000
0000
0001
0000
,
1000
0100
1000
0000
0001
0100
0001
0000
,
2000
0000
3000
0000
0001
0100
0001
0000
,
1000
0000
0010
0000
1000
0000
0001
1000
,
0000
0100
0000
0000
0000
0000
0010
0001
,
0010
0001
0010
0000
0001
0000
1000
0001
,
1000
0001
1000
0000
0100
0000
0010
0001
,
0010
0001
0010
0000
0001
0000
1000
0000
,
0001
0100
0001
0200
0000
0000
0000
0000
,
0310
1000
0010
0000
1000
0001
1000
0000
,
0002
0000
0000
0000
0103
0010
0100
0000
,
0001
0000
1000
0000
0100
0010
0001
0010
,
0000
0100
1000
0100
1000
0000
0001
0000
,
2001
0010
0000
0000
,
3000
0000
0001
0100
0010
1000
0001
0000
,
2001
0010
0000
3000
,
0000
0001
0010
0100
1000
0000
0001
1000
,
0002
0200
0000
0303
,
0000
1000
0010
1000
0010
0100
0001
0000
,
2000
0020
0000
3030
,
0200
0002
0000
0303
,
1000
0001
1000
0001
1000
0001
1000
0001
,
1000
0001
1000
0001
2000
0000
0000
0000
,
3010
0100
0010
0100
0010
0100
0010
0100
,
0010
0000
0100
0000
0010
0000
0100
0000
0010
0000
0000
0010
0000
0000
0000
0000
,
0001
0000
0000
0001
0000
0000
0000
0000
1000
0000
0000
1000
0000
0000
0000
0000
,
0010
0000
0000
0010
0000
0000
0000
0000
0100
0000
0000
0100
0000
0000
0000
0000
,
0001
0000
0000
0001
0000
0000
0000
0000
0010
0000
0000
0010
0000
0000
0000
0000
,
0200
0000
0300
0000
,
1001
0000
0000
0001
0000
0000
1000
0000
0010
0000
0000
0000
0000
0000
0000
0000
,
1000
0100
1000
0000
0001
0000
0000
0000
,
0010
0000
0000
0001
0000
0000
0100
0000
0010
0000
0000
0000
0000
0000
0000
0000
,
1000
0001
0100
0010
1000
0000
0000
0000
,
0001
0000
0000
0010
0000
0000
0100
0000
1000
0000
0000
0000
0000
0000
0000
0000
,
0001
0010
1000
0010
0001
0000
0000
0000
,
0100
0000
0000
0010
0000
0000
1000
0000
0001
0000
0000
0000
0000
0000
0000
0000
,
0010
1000
0100
0010
0001
0000
0000
0000
,
1001
0000
0000
0000
;

//--------------- dance-single - JA XO ----------------
#NOTES:
     dance-single:
     JA XO:
     Hard:
     11:
     0.565,0.529,0.144,0.252,0.355:
0000
0000
0000
0000
,
0000
0000
0000
0000
,
0000
0000
0000
0000
,
0000
0000
1000
0010
0100
0000
0001
0000
1000
0000
0010
0000
1000
0000
0100
0000
,
0020
0000
0002
0000
0033
0000
1001
0001
,
1000
0000
0001
0100
0001
0000
1000
0000
0010
0000
0100
0000
0010
0000
1000
0000
,
0001
0000
0000
0001
0100
0000
0010
0000
1000
0100
0000
1000
0100
0000
0010
0000
,
0001
0010
0000
0001
0010
0000
0001
0000
1000
0010
0000
1000
0010
0000
1000
0000
,
2001
0000
0000
0010
0000
0000
3010
0000
0200
0000
0000
0001
0000
0000
0301
0000
,
1000
0000
0001
0010
0001
0000
1000
0100
1000
0000
0000
0010
0000
0000
1000
0000
,
0102
0000
0000
0100
0000
0000
0103
0000
0020
0000
0000
1000
0000
0000
1030
0000
,
0001
0000
1000
0010
1000
0000
0001
0100
0001
0000
0000
1000
0000
0000
0001
0000
,
2010
0000
0000
0010
0000
0000
3010
0000
0200
0000
0000
0001
0000
0000
0301
0000
,
1000
0000
0001
0100
0010
0000
1000
0010
0100
0000
0000
0100
0000
0000
0100
0000
,
1002
0000
0000
1000
0000
0000
1003
0000
0200
0000
0000
1000
0000
0000
1300
0000
,
0001
0000
1000
0100
0010
0000
0001
0010
0100
0000
0000
1000
0000
0000
0001
0000
,
1000
0000
0010
0000
1000
0000
0100
0000
1000
0000
0001
1000
0100
0000
0100
0000
,
0010
0000
0001
0000
1000
0000
0000
0000
0000
0000
0001
1000
0001
0000
1000
0000
,
0001
0000
0100
0000
0010
0000
0000
0000
0000
0000
1000
0001
1000
0000
0010
0000
,
0100
0010
0100
0000
0000
0001
0100
1000
,
0100
0001
1000
0000
0001
0010
0011
0000
,
0001
1000
0000
0001
0000
1000
0010
0000
0100
0000
0001
0000
1000
0000
0000
0000
,
0001
0010
1000
0010
0001
0010
0100
2000
,
0000
0002
0000
3003
0000
1000
1000
0001
,
1000
0100
1000
0100
0001
0100
0001
0100
,
1000
0010
1000
0010
0001
0010
0100
0010
,
1000
0001
0100
0010
1000
0010
0100
0001
,
1000
0000
1000
0000
0100
0000
0010
0000
0001
0000
0010
0001
0000
0001
0010
0100
,
1000
0100
0001
0000
0001
0100
1000
0000
,
1000
0100
0000
1000
0100
1000
0100
1000
0100
0000
0010
0000
0001
0000
1000
0000
,
0100
0100
0100
0010
0001
0100
1000
0100
,
0000
0010
0001
0100
0010
1000
0001
0000
,
2001
0000
0200
0000
3300
0000
0011
0010
,
0001
0000
1000
0100
1000
0000
0001
0000
0100
0000
0010
0000
1000
0000
0100
0000
,
0020
0000
0002
0000
0033
0000
1000
1000
,
0001
0000
1000
0010
1000
0000
0001
0000
0001
0000
0100
0000
0010
0000
0100
0000
,
0020
0000
2000
0000
3030
0000
1000
1000
,
0100
0000
0010
0000
0010
0000
0001
0000
0001
0000
1000
0001
1000
0001
1000
0000
,
0002
0000
0020
0000
0033
0000
0001
0010
,
0020
0000
0000
0000
0230
0000
0000
0000
0000
0000
1300
0001
1000
0001
1000
0000
,
0001
0100
1000
0100
0001
0010
1000
0010
,
0001
0000
0100
0000
1000
0000
0100
0000
0001
0000
0000
0001
0000
0000
0001
0000
,
1000
0100
0001
0100
1000
0010
0001
0010
,
1000
0000
0100
0000
0001
0000
0100
0000
1000
0000
0000
1000
0000
0000
1000
0000
,
0011
0000
0000
0010
0000
0000
0001
0000
0100
0000
0000
0010
0000
0000
1000
0000
,
1010
0000
0000
1000
0000
0000
0100
0000
0010
0000
0000
0001
0000
0000
0100
0000
,
1010
0000
0000
1000
0000
0000
1000
0000
0001
0000
0000
0001
0000
0000
0001
0000
,
0110
0000
0000
0010
0000
0000
0010
0000
0100
0000
0000
0100
0000
0000
0100
0000
,
2000
0000
0000
0100
0000
0000
3100
0000
0002
0000
0000
0100
0000
0000
0103
0000
,
1000
0000
0100
0010
0001
0000
0010
0100
1000
0000
0000
1000
0000
0000
0001
0000
,
2001
0000
0000
0100
0000
0000
3100
0000
0002
0000
0000
0100
0000
0000
0103
0000
,
1000
0000
0001
0100
0001
0000
1000
0100
1000
0000
0000
0010
0000
0000
0010
0000
,
1001
0000
0000
0100
0000
0000
0100
0000
0010
0000
0000
0001
0000
0000
0001
0000
,
1000
0000
0001
0100
0001
0000
1000
0010
1000
0000
0000
0001
0000
0000
0010
0000
,
0011
0000
0000
0001
0000
0000
0100
0000
1000
0000
0000
0100
0000
0000
0001
0000
,
1000
0000
0001
0100
0010
0000
1000
0010
0100
0000
0000
0001
0000
0000
1000
0000
,
1001
0000
0000
0000
;

//--------------- dance-single - SJ BT ----------------
#NOTES:
     dance-single:
     SJ BT:
     Challenge:
     15:
     0.79,0.683,0.351,0.27,0.751:
0000
0000
0000
0000
,
0000
0000
0000
0000
,
0000
0000
0000
0000
,
0001
1000
0010
1000
0010
0000
0100
0000
0001
0100
0010
0100
0001
0000
0100
0000
,
0002
0000
0000
0013
0100
0000
1000
0000
2000
0000
0000
3001
0100
0000
0100
0000
,
0010
0000
0001
0100
0001
0000
1000
0000
0100
0000
0010
0001
0010
0000
0001
0000
,
1001
0000
0000
0001
0100
0000
0010
0000
0100
0001
0000
0100
0001
0000
1000
0000
,
0001
0010
0000
0001
0010
0000
0001
0000
0010
0001
0000
0010
0001
0000
1000
0000
,
1001
0000
0001
0010
0001
0000
0010
0000
0100
1000
0100
0010
0001
0000
0010
0001
,
0100
0000
0010
1000
0010
0000
1000
0100
0010
0001
0010
0001
1000
0000
0001
1000
,
0001
0000
1000
0100
1000
0000
0010
1000
0100
0010
0001
1000
0001
0000
0100
0010
,
1000
0000
0001
0010
0001
0000
1000
0100
1000
0100
0010
0001
0010
0000
0001
0100
,
0001
0000
0100
0010
0100
0000
0010
0000
1000
0000
0001
0010
0001
0000
1000
0001
,
1000
0000
0001
0100
0001
0000
0001
0010
0001
0100
0010
1000
0001
0000
0001
1000
,
0002
0000
0000
0103
0010
0000
1000
0001
0100
0000
0010
1000
0001
0000
0001
0000
,
1000
0000
0001
0100
0010
0000
1000
0010
0100
0001
0100
0010
1000
0000
0001
1000
,
0001
0100
0010
1000
0100
0000
1000
0100
1000
0100
1000
0001
0100
0000
0010
0000
,
1000
0010
0100
0010
1000
0000
0010
0000
1000
0001
1000
0001
1000
0000
0001
0000
,
1001
0000
1000
0000
0100
0000
0010
0000
0001
0100
0010
1000
0010
0000
0100
0000
,
0001
0100
0010
1000
0010
0000
0100
0000
0001
0100
0010
1000
0010
0000
1000
0000
,
0001
1000
0001
1000
0001
0100
0001
0000
1000
0010
0100
0001
0010
0000
0001
0000
,
0010
0001
0000
0001
0000
0001
0010
0000
0100
0000
1000
0100
0010
0000
0001
0000
,
1000
0010
0100
0001
0100
0000
0001
0000
0010
0000
0100
0000
1000
0000
0001
0000
,
1001
0000
1000
0000
0010
0000
1010
0000
1000
0001
0010
0001
0010
0100
1000
0000
,
0001
0000
0010
0000
0100
0000
1000
0000
0001
0100
1000
0000
0100
0000
0010
0000
,
0100
0000
0001
0000
0010
0000
0100
0000
1000
0010
1000
0100
1000
0010
0100
0001
,
0100
0000
0010
0100
0010
0000
1000
0000
0001
0100
0001
1000
0010
0000
0100
0000
,
0001
0000
1000
0100
1000
0000
0001
0000
1000
0010
1000
0001
1000
0001
0100
0001
,
1000
0100
1100
0010
0001
1000
1001
0001
,
0001
0100
0000
0010
1000
0001
0100
0001
0100
0000
0001
0010
0100
1000
0100
0000
,
0010
0000
0010
0001
0010
0000
0001
0000
1000
0001
1000
0100
0010
0000
0001
0000
,
0011
0000
0001
0000
1000
0000
0010
0000
0001
0010
1000
0010
0100
0000
0001
0000
,
0202
0000
0000
0000
0303
0000
1000
0000
0100
0010
0001
0010
0200
0000
0000
0000
,
1300
0000
0001
0100
0001
0000
1000
0000
0010
1000
0010
0100
0001
1000
0001
0000
,
1000
0000
0001
0000
0100
0000
0010
0000
1000
0010
0100
0010
1000
0000
0010
0000
,
0100
0001
1000
0010
1000
0000
0001
0000
1000
0100
0010
0001
1000
0100
0010
0000
,
0011
0000
0100
0000
1000
0000
1100
0000
0001
0000
1000
0000
0100
0000
1000
0100
,
1000
0000
1000
0100
1000
0000
0001
0100
0001
0000
1000
0100
1000
0100
1000
0000
,
0010
0000
0100
0000
0002
0000
0000
0000
1003
0010
0100
0010
1000
0000
0010
1000
,
0010
0000
0100
0000
0001
0000
0101
0000
0001
0100
0001
1000
0001
0010
0001
0000
,
1001
1000
1100
0100
0010
0001
0011
0001
,
1000
0000
0100
0000
1100
0000
1000
0000
0002
0000
0003
0002
0000
0003
0001
0000
,
1000
1000
1100
0100
0010
0001
0011
0001
,
0100
0000
0010
0000
0110
0000
0010
0000
2000
0000
3000
2000
0000
3000
1000
0000
,
0012
0000
0000
0010
0000
0000
0023
0000
0100
0000
0000
0100
0000
0000
0130
0000
,
2100
0000
0000
0100
0000
0000
3200
0000
0010
0000
0000
0010
0000
0000
0310
0000
,
2100
0000
0000
0100
0000
0000
3200
0000
0010
0000
0000
0010
0000
0000
0310
0000
,
0002
0000
0003
0002
0000
0003
0002
0000
0103
0000
0000
0010
0000
0000
1000
0000
,
0202
0000
0000
0010
0000
0000
1000
0000
0313
0000
0000
0001
0000
0000
1000
0000
,
0001
0000
0100
0010
1000
0000
0010
0100
0001
0100
0001
0100
0000
0000
0010
0000
,
2200
0000
0000
0001
0000
0000
0001
0000
3310
0000
0000
0100
0000
0000
0001
0000
,
1000
0000
0001
1000
0001
0000
1000
0010
1000
0010
1000
0010
0000
0000
0100
0000
,
2002
0000
0000
0010
0000
0000
0010
0000
3013
0000
0000
0000
1000
0000
0000
0000
,
1100
0000
1000
0100
0010
0000
0001
0010
0100
1000
0100
1000
0000
0000
0001
0000
,
2020
0000
0000
0001
0000
0000
0100
0000
3031
0000
0000
0000
1000
0000
0000
0000
,
1001
0000
1000
0010
1000
0000
0001
0100
0001
0100
0001
0100
0000
0000
0010
0000
,
2020
3030
0000
0000
;

//--------------- dance-double - DS XO ----------------
#NOTES:
     dance-double:
     DS XO:
     Hard:
     13:
     0,0,0,0,0:
00000000
00000000
00000000
00000000
,
00000000
00000000
00000000
00000000
,
00000000
00000000
00000000
00000000
,
00001000
00000000
00010000
00001000
00010000
00000000
00001000
00000000
01000000
00100000
00000000
00100000
01000000
00000000
00010000
00000000
,
10000000
00000000
00000000
01000000
00100000
00000000
00010000
00000000
00001000
00000000
00000000
00000100
00000010
00000000
00000001
00000000
,
00001000
00000000
00000010
00001000
00000010
00000000
00001000
00000000
00000010
00000000
00000100
00000001
00000100
00000000
00000001
00000000
,
00000010
00000000
00000000
00000100
00001000
00000000
00010000
00000000
00100000
01000000
00000000
10000000
00010000
00000000
01000000
00000000
,
00001000
00010000
00000000
00010000
00001000
00000000
00100000
00000000
00010000
01000000
00000000
00001000
00010000
00000000
00000100
00000000
,
00020100
00000000
00000000
00000100
00000000
00000000
00031000
00000000
00020000
00000000
00000000
00000010
00000000
00000000
00031000
00000000
,
00010000
00000000
00000010
00000100
00000010
00000000
00000100
00000001
00001000
00000000
00000010
00000000
00001000
00000000
00000001
00000000
,
00000020
00000000
00000000
00000100
00000000
00000000
00000031
00000000
00000020
00000000
00000000
00000100
00000000
00000000
00000031
00000000
,
00000100
00000000
00000010
00001000
00000010
00000000
00010000
00000000
00001000
00000000
01000000
00000000
00100000
00000000
10000000
00000000
,
00020000
00000000
00000000
00100000
00000000
00000000
10030000
00000000
00020000
00000000
00000000
10000000
00000000
00000000
01030000
00000000
,
00010000
00000000
01000000
00100000
01000000
00000000
00010000
00000000
00100000
00000000
01000000
00000000
10000000
00000000
00010000
00000000
,
02000000
00000000
00000000
00001000
00000000
00000000
03010000
00000000
02000000
00000000
00000000
00010000
00000000
00000000
03100000
00000000
,
01000000
00000000
00001000
00010000
00001000
00000000
00010000
00000000
00001000
00010000
00001000
00010000
00001000
00000000
00010000
00000000
,
00000100
00000000
00001000
00000000
00010000
00000000
00001000
00000000
00000100
00000000
00001000
00000001
00001000
00000000
00000010
00000000
,
00001000
00000100
00000000
00000010
00000001
00000000
00001000
00000000
00000001
00000000
00001000
00000100
00001000
00000000
00000100
00000000
,
00010000
00001000
00000100
00001000
00010000
00001000
00100000
00010000
,
00001000
00010000
00100000
00010000
10000000
00010000
01000000
00100000
,
10000000
01000000
00010000
00000000
00001000
00000010
00000001
00000000
,
00001000
00000010
00000000
00001000
00000000
00000010
00010000
00000000
00001000
00000000
00010000
00000000
00001000
00000000
01000000
00000000
,
00010000
00000000
01000000
00000000
10000000
00000000
01000000
00000000
00010000
01000000
00000000
00001000
00010000
00000000
00001000
00000000
,
01000000
00100000
00000000
01000000
00100000
00000000
10000000
00000000
01000000
00000000
00100000
00000000
00010000
00000000
00001000
00000000
,
00000100
00000010
00000001
00000100
00000010
00001000
00000100
00000001
,
00000100
00001000
00000000
00000100
00001000
00000000
00000010
00000000
00010000
00000000
00001000
00010000
00001000
00010000
00001000
00000000
,
01000000
00100000
00001000
00100000
01000000
00010000
01000000
10000000
,
01000000
00000000
00100000
00000000
01000000
00000000
00010000
00000000
00100000
00000000
00001000
00010000
00000000
00001000
00010000
00000000
,
00000010
00000100
00001000
00000000
00000100
00000010
00001000
00000000
,
00000001
00001000
00000000
00000001
00000010
00000100
00001000
00000100
00000010
00000000
00000001
00001000
00000000
00000001
00001000
00000000
,
00000100
00010000
00000100
01000000
00001000
10000000
00100000
10000000
,
01000000
00100000
00010000
01000000
00100000
10000000
00010000
10000000
,
20010000
00000000
00020000
00000000
00030000
00000000
31000000
10000000
,
00001000
00000000
00010000
00001000
00010000
00000000
00000010
00000000
00000100
00000000
00000010
00001000
00000000
00000001
00001000
00000000
,
00001002
00020000
00030000
00000103
,
00001000
00000000
00000010
00001000
00000010
00000000
00001000
00000000
00000100
00000000
00010000
00001000
00000000
01000000
00010000
00000000
,
20010000
00000000
00002000
00000000
00003000
00000000
30010000
00100000
,
00001000
00000000
00010000
00000000
00000010
00000000
00001000
00000000
00000001
00000000
00000010
00000100
00001000
00000100
00000010
00000000
,
00000012
00000000
00020000
00000000
00030000
00000000
00001003
00000010
,
00200000
00000000
00000000
00000000
00302000
00000000
00000000
00000000
00000000
00000000
00000000
00000000
01003000
00010000
01000000
00010000
,
01000000
10000000
01000000
00010000
00001000
00000010
00000001
00000010
,
00001000
00000000
00010000
00000000
01000000
00000000
10000000
00000000
00010000
00000000
00000000
01000000
00000000
00000000
00010000
00000000
,
10000000
01000000
00010000
00001000
00000010
00000001
00000010
00001000
,
00010000
00000000
01000000
00000000
10000000
00000000
00010000
00000000
10000000
00000000
00000000
00100000
00000000
00000000
10000000
00000000
,
00010000
00000000
00000000
01000000
00000000
00000000
00010000
00000000
00100000
00000000
00000000
00001000
00000000
00000000
00010000
00000000
,
00000010
00000000
00000000
00000100
00000000
00000000
00000001
00000000
00010000
00000000
00000000
00000100
00000000
00000000
00010000
00000000
,
00001000
00000000
00000000
00100000
00000000
00000000
00100000
00000000
00010000
00000000
00000000
01000000
00000000
00000000
01000000
00000000
,
00010000
00000000
00000000
10000000
00000000
00000000
10000000
00000000
00001000
00000000
00000000
01000000
00000000
00000000
01000000
00000000
,
01001000
00000000
00001000
00010000
00001000
00000000
00010000
00000000
00000010
00000000
00000100
00000001
00000100
00000000
00000001
00000000
,
00000010
00000000
00000100
00001000
00000100
00000000
00010000
00001000
00010000
00001000
00010000
00001000
01000000
00000000
00100000
00000000
,
10000000
00000000
01000000
00100000
00010000
00000000
00100000
00000000
01000000
00000000
10000000
00010000
10000000
00000000
00010000
00000000
,
01000000
00000000
00001000
00010000
00001000
00000000
00010000
00000100
00010000
00000100
00010000
00000100
00001000
00000000
00000001
00000000
,
00010000
00000000
00000100
00001000
00000100
00000000
00010000
00000000
00001000
00000000
01000000
00100000
01000000
00000000
00010000
00000000
,
10000000
00000000
01000000
00100000
00010000
00000000
00100000
01000000
10000000
00010000
10000000
01000000
00100000
00000000
00010000
00000000
,
00001000
00000000
00000100
00000010
00000001
00000000
00000100
00000000
00000010
00000000
00010000
00001000
00010000
00000000
00000010
00000000
,
00010000
00000000
00000001
00001000
00000001
00000000
00010000
00001000
00010000
00000010
00010000
00001000
00010000
00000000
00001000
00000000
,
20002000
00000000
00000000
00000000
30000000
00003000
00000000
00000000
00000000
00000000
00000000
00000000
00000000
00000000
00000000
00000000
;
