#TITLE:Revolutions;
#SUBTITLE:;
#ARTIST:Dimrain47;
#TITLETRANSLIT:;
#SUBTITLETRANSLIT:;
#ARTISTTRANSLIT:;
#GENRE:;
#CREDIT:;
#MUSIC:Revolutions.ogg;
#BANNER:;
#BACKGROUND:;
#CDTITLE:;
#SAMPLESTART:69.802;
#SAMPLELENGTH:12.000;
#SELECTABLE:YES;
#OFFSET:-0.051;
#BPMS:0.000=150.000;
#STOPS:;
#BGCHANGES:;
#FGCHANGES:;

//--------------- dance-single - ----------------
#NOTES:
     dance-single:
     :
     Beginner:
     4:
     0,0,0,0,0:
0000
0000
0000
0000
,
1001
1000
0000
0001
,
0000
0100
0000
0010
,
0000
1000
0000
0100
,
0000
0010
0000
0001
,
0001
0001
0000
0100
,
0000
0010
0000
1000
,
0000
0001
0000
0010
,
0000
0100
0000
1000
,
0000
0001
0000
0010
,
0000
0001
0000
1000
,
0000
0010
0000
0100
,
0000
0001
0000
0010
,
0000
0100
0000
0010
,
0000
0001
0000
0100
,
0000
0001
0000
0010
,
0000
0100
0000
1000
,
1000
0000
0002
0003
,
1001
0000
1000
0000
,
0001
0000
0010
0010
,
0010
0000
0100
0100
,
0100
0000
0001
0000
,
1001
0000
0010
0000
,
0100
0000
0010
0010
,
0010
0000
1000
1000
,
1000
0000
0100
0000
,
0020
0000
0031
0000
,
1000
0000
1000
0000
,
0001
0100
0001
0000
,
1000
0010
0100
0000
,
0002
0000
0013
0000
,
0001
0000
0001
0000
,
1000
1000
0001
0000
,
1000
0100
0010
0000
,
0002
0000
1003
0000
,
0001
0000
0100
0000
,
0010
1000
0010
0000
,
1000
0001
1000
0000
,
0200
0000
1300
0000
,
0001
0000
0100
0000
,
0001
1000
0010
0000
,
1000
0001
0100
0000
,
0001
0000
0000
0000
,
0100
0000
0000
0000
,
0001
0000
0000
0000
,
1000
0000
0000
0000
,
1001
0000
0000
0000
,
1001
0000
0000
0000
,
0110
0000
0000
0000
,
1001
0000
0000
0000
,
1001
0000
1000
0000
,
0001
0000
0100
0001
,
1000
0000
0001
0010
,
0001
0000
1000
0000
,
1001
0000
0001
0000
,
0010
0000
0100
0010
,
0100
0000
0001
1000
,
0010
0000
1000
0000
,
1001
0000
1000
0000
,
0010
0000
0100
0001
,
0001
0000
1000
0100
,
0100
0000
0010
0000
,
1001
0000
0001
0000
,
0100
0000
0010
1000
,
0001
0000
0010
0100
,
1000
0000
0001
0000
,
1001
0000
0000
0000
,
0010
0000
0000
0000
,
0100
0000
0000
0000
,
0001
0000
0100
0000
,
0001
0000
0000
0100
,
0100
0000
0000
0001
,
0001
0000
0000
1000
,
1000
0000
0000
0001
,
0010
0000
0000
0000
;

//--------------- dance-single - ----------------
#NOTES:
     dance-single:
     :
     Easy:
     8:
     0,0,0,0,0:
0000
0000
0000
0000
,
1001
1000
0000
0010
,
0000
0100
0000
0001
,
0000
0010
0000
0100
,
0000
1000
0000
1001
,
1001
0001
0100
0010
,
1000
0100
0010
0001
,
0100
0001
0010
0001
,
0100
0010
1000
0001
,
1000
1000
0010
0010
,
0100
0100
0001
0001
,
0010
0010
0100
0100
,
1000
1000
0001
0001
,
0000
1000
0000
0001
,
0000
0100
0000
0010
,
1000
0100
0010
0001
,
0100
0000
0010
0000
1000
0000
0001
1000
,
0001
0000
0200
0000
,
0301
0000
0000
1000
0000
0000
0000
0000
0001
0000
0000
0100
0000
0000
0000
0000
,
0010
0000
0000
1000
0000
0000
0000
0000
0001
0000
1000
0000
0001
0000
1000
0000
,
0001
0000
0000
0000
0010
0100
0010
0100
,
0010
0000
1000
0000
,
0001
0000
0000
0001
0000
0000
0000
0000
0100
0000
0000
0100
0000
0000
0000
0000
,
0010
0000
0000
0010
0000
0000
0000
0000
1000
0000
0100
0000
1000
0000
0100
0000
,
1000
0000
0000
0000
0001
0010
0001
0010
,
0001
0000
0100
0000
,
0020
0000
2030
0000
,
3001
0001
0001
1000
,
0001
0010
0001
0000
1000
0100
1000
0000
,
0001
1000
0001
0000
1000
0000
1010
0000
,
0002
0000
2003
3000
,
0001
0100
0001
1000
,
0001
0010
0100
0000
1000
0100
0010
0000
,
0001
1000
0001
0000
1000
0010
0100
0000
,
0102
0000
0000
1003
0010
0000
0000
0000
,
1000
0001
0010
0100
,
1000
0001
1000
0000
0001
0010
0001
0000
,
1000
0010
1000
0000
0001
0000
0101
0000
,
2001
0000
3002
0003
,
1000
0001
1000
0001
,
1000
0100
0010
0000
0001
0010
0100
0000
,
1000
0001
1000
0000
0010
0100
0010
0000
,
1000
0000
0001
0000
,
0010
0000
0100
0000
,
1000
0000
0001
0000
,
0100
0000
0010
0000
,
1001
0000
0000
0000
0000
1001
0000
0000
,
1010
0000
0000
0000
0000
0110
0000
0000
,
0101
0000
0000
0000
0000
0011
0000
0000
,
0201
0000
0301
1000
,
0001
0000
0000
0100
0000
0000
0000
0000
0001
0000
0000
0010
0000
0000
0000
0000
,
0001
0000
0000
0010
0000
0000
0000
0000
0100
0000
1000
0000
0100
0000
0010
0000
,
0100
0000
0000
0000
1000
0001
1000
0001
,
1000
0000
0010
0000
,
0100
0000
0000
0010
0000
0000
0000
0000
0100
0000
0000
0010
0000
0000
0000
0000
,
1000
0000
0000
0001
0000
0000
0000
0000
1000
0000
0100
0000
0010
0000
0100
0000
,
1000
0000
0000
0000
0001
0100
0010
0100
,
0001
0000
1000
0000
,
0001
0000
0000
0100
0000
0000
0000
0000
0001
0000
0000
0010
0000
0000
0000
0000
,
0001
0000
0000
0100
0000
0000
0000
0000
0010
0000
1000
0000
0100
0000
1000
0000
,
0001
0000
0000
0000
0010
0100
1000
0100
,
0010
0000
0100
0000
,
0001
0000
0000
0100
0000
0000
0000
0000
0001
0000
0000
0100
0000
0000
0000
0000
,
0010
0000
0000
1000
0000
0000
0000
0000
0001
0000
0010
0000
0001
0000
0100
0000
,
0001
0000
0000
0000
1000
0100
1000
0010
,
1000
0000
0001
0000
,
1001
0000
0000
0000
,
1000
0000
0000
0000
,
0001
0000
0000
0000
,
0100
0010
2000
0000
,
3001
0000
0100
0000
0010
0000
0100
0100
,
0001
0000
1000
0000
0100
0000
0010
0010
,
0001
0000
0100
0000
0010
0000
1000
0001
,
1000
0000
0001
0000
0100
0000
0010
0001
,
0002
0000
0003
0000
;

//--------------- dance-single - ----------------
#NOTES:
     dance-single:
     :
     Medium:
     11:
     0.375391,0.430657,0.16684,0.250261,0,315,295,20,30,0,0,0.375391,0.430657,0.16684,0.250261,0,315,295,20,30,0,0:
0000
0000
0000
0000
,
1001
0000
0000
0000
0001
0000
0000
0010
0000
0000
0000
0000
0100
0000
0000
1000
,
0000
0000
0000
0000
0001
0000
0000
0100
0000
0000
0000
0000
0010
0000
0000
1000
,
0000
0002
0003
2000
,
3000
0020
0030
0110
,
1001
0000
0000
0000
0001
0000
0000
0000
1000
0000
0000
0100
0000
0000
0010
0000
,
0001
0000
0000
0100
0000
0000
0010
0000
1000
0000
0000
0001
0000
0000
0010
0000
,
0100
0000
0000
1000
0000
0000
0010
0000
0100
0000
0000
0001
0000
0000
0010
0000
,
0100
0000
0000
1000
0000
0000
0001
0000
0010
0000
0000
0001
0000
0000
0100
0000
,
0000
0000
0001
0000
0010
0000
0000
0100
0000
0000
1000
0000
0010
0000
0000
1000
,
0000
0000
0100
0000
1000
0000
0000
0001
0000
0000
0010
0000
0100
0000
0000
1000
,
0000
0000
0100
0000
0010
0000
0000
0001
0000
0000
1000
0000
0010
0000
0000
1000
,
0000
0000
0001
0000
0010
0000
0000
0100
0000
0000
1000
0000
0001
0000
0100
0000
,
0000
0010
1000
0000
0000
0001
0100
0000
,
0000
0010
1000
0000
0000
0100
0010
0000
,
0001
1000
0001
0000
0010
0100
0010
0000
,
0001
1000
0001
1000
0100
1000
0001
0100
,
0020
0000
0000
0000
2030
0000
3001
0100
,
0001
0000
0000
0001
0000
0000
0100
0000
0010
0000
0000
0010
0000
0000
1000
0000
,
0100
0000
0000
0100
0000
0000
0010
0000
0001
0000
1000
0000
0001
0000
1000
0000
,
0020
0000
0030
0000
1000
0100
0010
0001
,
1000
0000
0000
0010
0000
0000
1000
0000
0100
0000
0000
0000
1100
0000
0000
0000
,
1001
0000
0000
0001
0000
0000
0010
0000
0100
0000
0000
0100
0000
0000
1000
0000
,
0001
0000
0000
0001
0000
0000
0100
0000
0001
0000
0010
0000
0100
0000
1000
0000
,
0001
0000
0000
0000
1000
0100
0010
0001
,
1000
0000
0000
0010
0000
0000
0100
0000
0010
0000
1000
0000
0001
0000
0000
0000
,
1002
0000
0203
0300
,
0001
0100
1000
0100
0001
1000
0001
0000
,
1000
0010
1000
0010
0100
0001
0100
0001
,
1000
0100
0010
0100
1000
0000
1001
0000
,
0201
0000
0310
0000
,
1000
0010
0001
0010
1000
0000
0001
0100
,
0001
0010
0001
0100
0001
1000
0100
1000
,
0010
0100
0001
0010
0100
1000
0001
1000
,
0002
0000
0000
0103
0010
0000
0000
0000
,
1000
0100
0001
0100
0010
0100
1000
0000
,
0001
0100
0001
0100
0010
1000
0100
1000
,
0001
0010
0100
1000
0100
0000
1100
0000
,
1002
0000
1003
0000
,
0001
0010
1000
0010
0001
0000
1000
0010
,
1000
0100
1000
0001
0010
0100
1000
0100
,
0010
0001
1000
0010
0100
0001
0010
0000
,
0001
0000
1000
0000
,
0001
0000
0010
0000
,
0100
0000
1000
0000
,
0001
0000
0100
0000
,
0220
0000
0330
0000
0000
1010
0000
0000
,
2002
0000
3003
0000
0000
0101
0000
0000
,
0220
0000
0330
0000
0000
1001
0000
0000
,
2010
0000
0000
0000
3001
0010
0001
0010
,
0001
0000
0000
0001
0000
0000
0010
0000
0100
0000
0000
0100
0000
0000
1000
0000
,
0001
0000
0000
0001
0000
0000
0000
0000
1000
0000
0100
0000
0010
0000
0001
0000
,
1000
0000
0000
0000
0001
0100
0010
1000
,
0001
0000
0000
0100
0000
0000
0010
0000
0100
0000
0000
0000
0110
0000
0000
0000
,
1001
0000
0000
1000
0000
0000
0010
0000
0100
0000
0000
0100
0000
0000
0001
0000
,
0010
0000
0000
0010
0000
0000
0100
0000
1000
0000
0100
0000
0010
0000
0001
0000
,
1000
0000
0000
0000
0001
0100
0010
1000
,
0001
0000
0000
1000
0000
0000
0100
0000
1000
0000
0000
0000
0100
0000
0000
0000
,
1001
0000
0000
0001
0000
0000
1000
0000
0010
0000
0000
1000
0000
0000
0100
0000
,
1000
0000
0000
0001
0000
0000
0010
0000
0100
0000
1000
0000
0100
0000
1000
0000
,
0001
0000
0000
0000
0100
0010
0100
0010
,
1000
0000
0000
0001
0000
0000
1000
0000
0010
0000
0000
0000
0110
0000
0000
0000
,
1001
0000
0000
0001
0000
0000
0010
0000
0100
0000
0000
0100
0000
0000
1000
0000
,
0001
0000
0000
0100
0000
0000
0010
0000
1000
0000
0100
0000
0010
0000
0100
0000
,
1000
0000
0000
0000
0001
0010
0001
0100
,
0010
0000
0000
1000
0000
0000
0100
0000
1000
0000
0000
0000
0001
0000
0000
0000
,
1001
1000
0001
0010
,
0100
1000
0001
0010
,
0001
0100
0010
1000
,
0001
2000
3002
0003
,
1000
0100
1000
0100
1000
0010
0100
0001
,
1000
0100
0010
0100
1000
0100
0010
0001
,
1000
0010
0100
0001
0100
0010
1000
0001
,
1000
0100
0010
0001
0010
0100
1000
0001
,
0200
0000
0300
0000
;

//--------------- dance-single - XO SJ DS ----------------
#NOTES:
     dance-single:
     XO SJ DS:
     Hard:
     14:
     0.61731,0.58793,0.025026,0.075078,0.362878,518,515,3,9,0,0,0.61731,0.58793,0.025026,0.075078,0.362878,518,515,3,9,0,0:
0000
0000
0000
0000
,
1000
0000
0001
0000
1000
0000
0100
0010
0000
0000
0001
0000
0010
0000
0100
1000
,
0000
0000
0001
0000
0100
0000
0001
0010
0000
0000
0100
0000
1000
0000
0001
0000
,
0000
0100
0010
0100
0000
0001
0010
0100
,
1000
0000
0001
0000
0100
0000
0001
0010
0000
0000
0100
0000
1100
0000
0000
0000
,
1001
0000
1000
0000
0001
0000
0100
0010
0000
0000
0100
0000
0001
0000
0010
0100
,
0000
0000
1000
0000
0010
0000
1000
0000
0001
0000
0000
0100
0000
0010
1000
0000
,
0100
0000
0000
0010
0000
0001
1000
0000
0010
0000
0000
1000
0000
0100
0010
0000
,
0001
0000
0000
0010
0000
0100
1000
0000
0001
0000
0000
0100
0000
0010
0100
0000
,
0000
0000
0001
0000
0100
0000
0010
0100
0000
0000
0001
0000
0010
0000
0100
1000
,
0000
0000
0001
0000
0100
0000
0010
1000
0000
0000
0001
0000
1000
0000
0100
0010
,
0000
0000
0001
0000
0010
0000
0001
0100
0000
0000
0010
0000
1000
0000
0100
0010
,
0000
0000
0001
0000
0010
0000
0001
0100
0000
0000
0010
0000
1000
0000
0001
0010
,
0000
0001
1000
0001
0000
0010
0100
1000
,
0000
0001
0100
0010
0000
1000
0100
0010
,
0001
1000
0001
0000
0010
0000
0010
0000
0100
1000
0100
0000
0010
0000
0010
0000
,
0001
1000
0001
0000
0100
0000
0100
0000
0010
1000
0010
0000
1000
0000
0100
0000
,
0000
0000
0000
0000
0000
0000
0000
0000
0020
0000
0000
0000
0031
1000
0001
1000
,
0001
0000
0000
0100
0000
0000
0001
0010
0100
0000
0000
1000
0000
0000
0001
0100
,
0001
0000
0000
0100
0000
0000
1000
0000
0100
0000
0001
0000
2000
0000
0010
0000
,
3001
0000
0000
1000
0000
0000
0001
0000
0010
0000
0100
0000
1000
0000
0001
0000
,
1000
0000
0000
0100
0000
0000
0001
0000
0100
0000
0000
0010
0000
0000
0100
0000
,
1100
0000
0000
1000
0000
0000
0001
0100
0010
0000
0000
1000
0000
0000
0100
0010
,
0001
0000
0000
0100
0000
0000
0010
0000
0001
0000
0010
0000
2000
0000
0001
0000
,
3100
0000
0000
0000
1000
0000
0000
0000
0001
1000
0001
0000
0100
0010
0100
0000
,
0001
0000
1000
0100
0000
1000
0100
0000
0010
0000
0001
1000
0000
0001
1000
0000
,
0002
0000
0000
0000
0000
0000
0000
0000
2003
0000
0000
0000
3000
0000
0001
0100
,
0001
0000
1000
0010
1000
0000
0001
0010
0001
0000
1000
0010
1000
0000
0100
0000
,
1000
0001
1000
0000
0001
0000
0100
0000
0001
0010
0100
0000
1000
0000
0010
0000
,
1000
0100
0010
0000
0001
0000
1000
0000
0001
0000
0100
0000
0110
0000
0010
0000
,
2010
0000
0000
0000
0000
0000
0000
0000
3002
0000
0000
0000
0003
0000
1000
0100
,
0010
0000
0001
0010
0100
0000
1000
0010
1000
0000
0001
0100
0001
0000
0010
0000
,
0001
1000
0001
0000
1000
0000
0100
0000
0010
0001
1000
0000
0001
0000
1000
0000
,
0010
0100
0001
0000
0010
0000
0100
0000
1000
0001
1000
0000
0001
0000
0100
0000
,
0120
0000
0000
0000
0000
0000
0100
0000
1030
0000
0000
0000
0001
0000
1000
0010
,
1000
0000
0100
0000
0010
0000
0001
1000
0010
0000
1000
0000
0001
0000
0010
0000
,
0100
1000
0100
0001
0100
1000
0010
0100
,
0001
0100
0010
0001
0010
1000
1001
0001
,
0201
0000
0000
0000
0310
0000
1000
0000
0002
0000
0000
0000
0003
0000
1000
0010
,
1000
0000
0001
0010
0100
0000
1000
0001
1000
0000
0001
0100
0001
0000
1000
0000
,
0001
0010
0100
0000
1000
0000
0001
0000
0100
0010
0100
0000
0001
0000
1000
0000
,
0001
0010
0100
1000
0001
0100
0010
1000
,
0001
0000
0000
0001
0000
0000
0100
0000
0010
0000
0000
0010
0000
0000
1000
0000
,
0100
0000
0000
0100
0000
0000
0010
0000
0001
0000
0000
0001
0000
0000
0100
0000
,
0010
0000
0000
0010
0000
0000
1000
0000
0100
0000
0000
0100
0000
0000
0010
0000
,
0001
0000
0000
0001
0000
0000
0010
0000
0100
0000
0000
1000
0000
0000
0001
0000
,
1001
0000
0000
1000
0000
0000
0010
0000
0100
0000
0110
0000
0000
0000
0010
0000
,
1010
0000
0000
1000
0000
0000
0001
0000
0100
0000
0110
0000
0000
0000
0010
0000
,
1001
0000
0000
1000
0000
0000
0001
0000
0100
0000
0110
0000
0000
0000
0010
0000
,
2000
0000
0000
0000
0000
0000
0000
0000
3001
0000
0010
0000
0100
1000
0100
1000
,
0001
0000
0000
0100
0000
0000
0010
1000
0010
0000
0000
1000
0000
0000
0100
0010
,
0100
0000
0000
1000
0000
0000
0100
0000
0010
0000
0001
0000
2000
0000
0010
0000
,
3001
0000
0100
0001
1000
0100
0001
0100
,
1000
0000
0001
0100
0000
0001
0100
0000
0010
0000
1000
0100
0000
1000
0100
0000
,
1100
0000
0000
1000
0000
0000
0001
0010
0100
0000
0000
1000
0000
0000
0001
0010
,
0100
0000
0000
0010
0000
0000
0001
1000
0001
0000
0010
0000
0002
0000
1000
0000
,
0013
0000
0001
0100
0001
0100
1000
0100
,
0001
0000
0010
0100
0000
1000
0100
0000
0010
0000
0001
1000
0000
0010
1000
0000
,
1010
0000
0000
0010
0000
0000
1000
0100
0010
0000
0000
0001
0000
0000
1000
0100
,
0010
0000
0000
0100
0000
0000
1000
0000
0001
0000
1000
0000
0002
0000
0100
0000
,
1003
0000
0010
1000
0100
0010
1000
0010
,
0001
0000
1000
0010
0000
1000
0100
0000
0010
0000
0001
0010
0000
0001
0100
0000
,
0110
0000
0000
0010
0000
0000
1000
0100
1000
0000
0000
0001
0000
0000
1000
0100
,
1000
0000
0000
0001
0000
0000
0100
0000
0010
0000
1000
0000
0020
0000
1000
0000
,
0130
0000
0010
0100
0001
0100
1000
0100
,
0010
0000
1000
0001
0000
1000
0010
0000
0100
0000
0001
0010
0000
0001
0100
0000
,
0110
0000
1000
0000
0001
0000
0010
0100
,
0010
0000
0001
0000
1000
0000
0010
0100
,
0001
0000
0010
0000
0100
0000
1000
0001
,
1000
0002
2000
3003
,
0001
1000
0001
0000
0100
0001
0100
0000
0010
0100
0010
0000
0100
0000
0100
0000
,
0001
0010
0001
0000
1000
0100
1000
0000
0001
0100
0001
0000
0100
0000
0100
0000
,
0001
0010
0100
0000
1000
0100
0010
0000
0001
1000
0001
0000
0100
0000
0100
0000
,
0010
1000
0010
0000
1000
0100
0010
0000
0001
1000
0010
0000
1000
0000
0001
0000
,
0220
0000
0330
0000
;

//--------------- dance-single - SJ BU FS SS- DS XO ----------------
#NOTES:
     dance-single:
     SJ BU FS SS- DS XO:
     Challenge:
     18:
     0,0,0,0,0:
0000
0000
0000
0000
,
0001
0010
0100
1000
0001
0100
0010
1000
0000
1000
0010
0100
0001
0100
0010
1000
,
0000
1000
0100
0010
0001
0010
0100
1000
0000
1000
0010
0100
0001
1000
0100
1000
,
0002
0000
1000
0000
0013
0000
0001
2000
0000
0000
0010
0000
3001
0000
1000
0001
,
2000
0000
0100
0000
3001
0000
0001
0200
0000
0000
0310
0000
1010
0000
1000
0001
,
0100
0000
0001
0000
0010
0000
0100
1000
0001
0000
0100
0000
0010
0000
1000
0100
,
1000
0000
0001
0000
0010
0000
0100
1000
0001
0000
0000
0100
0010
1000
0010
0000
,
1000
0100
00M0
0100
0000
0001
0010
0000
0001
0010
0M00
0010
0000
1000
0001
0000
,
1000
0010
0M00
0010
0000
0001
1000
0000
0001
0100
M000
0100
0000
0010
0001
1000
,
0001
0000
1000
0000
1010
0000
0010
0100
0000
0000
0001
0000
0011
0000
0010
0100
,
0000
0000
1000
0000
1001
0000
0001
0100
0000
0000
0010
0000
1010
0000
1000
0100
,
1000
0000
0010
0000
0010
0000
0100
0001
0000
0000
0010
0000
0010
0000
0100
1000
,
0000
0000
0001
0000
0001
0000
1000
0010
0000
0000
0100
0000
0100
0000
0001
1000
,
0001
0000
0010
0000
0100
0000
1000
0001
0000
0000
0010
0000
0100
0000
1000
0100
,
0000
0000
0010
0000
0001
0000
1000
0010
0000
0000
0100
0000
0001
0000
1000
0001
,
1000
0010
0000
0010
0100
0001
0010
0100
1000
0010
0100
0001
0000
0001
0010
0100
,
1000
0010
0100
0001
1000
0100
0010
0001
0010
0100
1000
0001
1000
0100
0010
0001
,
2000
0000
0000
0000
0000
0000
0000
0000
3002
0000
0000
0003
1000
0001
1000
0001
,
0100
0000
0010
1000
0010
0000
1000
0010
0100
0000
0001
0010
0001
0000
1000
0010
,
1000
0000
0000
0000
0000
0000
0001
0000
0000
0010
0000
0000
0100
0000
0000
0000
0000
0000
1000
0000
0000
0100
0000
0000
0010
0000
0000
0001
0000
0000
0100
0000
0000
0010
0000
0000
1000
0000
0000
0100
0000
0000
1000
0000
0001
0000
1000
0000
,
0001
0000
0000
0100
0001
0000
1000
0001
0010
0100
0010
1000
0010
0001
1000
0001
,
1000
0000
0001
0010
0100
1000
0100
0000
0010
0000
0001
1000
0001
0010
0100
1000
,
1001
0000
0001
0010
0100
0000
1000
0100
0010
0000
0001
1000
0001
0000
0100
0010
,
1000
0000
0000
0000
0000
0000
0100
0000
0000
0010
0000
0000
0001
0000
0000
0000
0000
0000
1000
0000
0000
0010
0000
0000
0100
0000
0000
0001
0000
0000
0010
0000
0000
0100
0000
0000
1000
0000
0000
0001
0000
0000
0100
0000
0010
0000
0100
0000
,
0001
0000
0010
0100
0010
0000
0001
1000
0001
0010
0100
1000
0001
0010
1000
0010
,
0100
0000
1000
0010
0100
0001
1000
0000
0001
0010
0100
1000
0001
0100
0010
1000
,
1002
0000
0000
0000
0010
0000
0000
0000
2003
0000
0000
0000
3010
0000
1000
0010
,
0001
0000
0010
0100
0010
0000
1000
0100
0001
0000
0100
0010
0001
1000
0010
0100
,
0001
1000
0010
0100
1000
0100
0010
1000
0001
0010
0100
0010
0001
1000
0010
1000
,
0001
0100
0001
0010
1000
0010
0100
1000
0001
0100
0010
1000
0100
0010
0001
1000
,
1002
0000
0000
0000
0100
0000
0000
0000
2003
0000
0000
0000
3010
0000
1000
0010
,
0001
0000
0010
0100
0010
0000
1000
0100
0001
0000
0100
0010
0001
0100
0010
1000
,
0001
0010
0100
0010
1000
0010
0100
1000
0001
0100
0010
1000
0100
0010
0001
1000
,
0001
1000
0001
0100
1000
0100
0010
1000
0001
0010
0100
1000
0001
0100
0010
1000
,
2010
0000
0000
0000
0001
0000
0100
0000
3002
0000
0000
0000
1003
0000
0010
0100
,
1000
0100
0010
1000
0001
0010
0100
1000
0001
0010
0100
0010
1000
0000
0010
0100
,
0010
0001
0100
0010
1000
0100
0010
0001
1000
0001
0010
0100
0001
0100
1000
0001
,
0100
0000
0010
0000
1000
0000
0100
0000
0010
0001
1000
0001
1000
0100
0010
0001
,
0021
0000
0000
0000
0100
0000
0000
0000
0032
0000
0000
0000
1003
0000
0001
0100
,
0010
0000
0001
0010
0100
0000
0001
1000
0100
0000
0010
0001
1000
0001
1000
0100
,
0001
0100
0010
0100
1000
0001
0100
0010
1000
0010
0100
0010
0001
0010
1000
0010
,
0100
0000
0000
0001
0000
0000
1000
0000
0000
0100
0000
0000
0010
0000
0000
0001
0000
0000
0010
0000
0000
0100
0000
0000
1000
0000
0000
0010
0000
0000
0100
0000
0001
0000
0100
0000
0010
0000
1000
0000
0100
0000
0010
0000
0001
0000
1000
0000
,
0001
0000
0000
0100
0000
0000
0001
0000
0010
0000
0000
0001
0000
0000
1000
0000
,
0100
0000
0000
1000
0000
0000
0010
0000
0100
0000
0000
0001
0000
0000
0010
0000
,
0100
0000
0000
1000
0000
0000
0100
0000
0010
0000
0000
0001
0000
0000
0100
0000
,
0010
0000
0000
1000
0000
0000
0100
0000
0010
0000
0000
0001
0000
0000
1000
0000
,
1001
0000
0000
0001
0000
0000
0100
0000
0010
0000
1010
1000
0000
0000
0010
0000
,
0110
0000
0000
0100
0000
0000
0001
0000
1000
0000
0101
0100
0000
0000
0010
0000
,
1010
0000
0000
1000
0000
0000
0100
0000
0010
0000
1001
1000
0000
0000
0001
1000
,
0020
0000
0000
0000
0000
0000
0000
0000
0000
0000
0000
0000
0000
0000
0000
0000
0000
0000
0000
0000
0000
0000
0000
0000
1030
0000
0000
0100
0000
0000
0010
0000
0000
0001
0000
0000
1000
0000
0000
0010
0000
0000
1000
0000
0100
0000
0010
0000
,
0001
0000
1000
0010
0001
0M00
0001
1000
0010
0000
1000
0100
0001
0000
M001
0010
,
0100
0000
0000
0000
0000
0000
1000
0000
0000
0010
0000
0000
0001
0000
0000
0M00
0000
0000
0001
0000
0000
0010
0000
0000
0100
0000
0000
0000
0000
0000
1000
0000
0000
0100
0000
0000
0010
0000
0000
0000
0000
0000
0001
0000
0100
0000
0010
0000
,
0100
0001
0010
0100
1000
0000
0001
0000
1000
0100
0010
0001
1000
0010
0100
0001
,
1000
0000
0010
0100
0000
0100
0010
0000
1000
0000
0001
0100
0010
0000
1000
0001
,
1001
0000
1000
0010
0001
0000
00M1
1000
0100
0000
1000
0100
0001
0000
M001
0010
,
0100
0000
0000
0000
0000
0000
1000
0000
0000
0010
0000
0000
0001
0000
0000
0M00
0000
0000
0001
0000
0000
0010
0000
0000
0100
0000
0000
1000
0000
0000
0010
0000
0000
0100
0000
0000
0001
0000
0000
1000
0000
0000
0001
0000
0100
0000
0010
0000
,
1000
0000
0000
0001
0000
0000
1000
0010
1000
0100
0010
0001
1000
0010
0100
0001
,
1000
0000
0000
0000
0000
0000
0001
0000
0000
0010
0000
0000
0000
0000
0000
0010
0000
0000
0001
0000
0000
0000
0000
0000
1000
0000
0000
0100
0000
0000
0010
0000
0000
0001
0000
0000
1000
0000
0000
0010
0000
0000
0100
0000
0001
0000
1000
0000
,
0001
0000
1000
0001
1000
0000
0001
0010
0100
M000
0100
0001
1000
0000
0001
0100
,
0010
0000
0000
M000
0000
0000
0010
0000
0000
0001
0000
0000
1000
0000
0000
0000
0000
0000
0001
0000
0000
0010
0000
0000
0100
0000
0000
1000
0000
0000
0100
0000
0000
1000
0000
0000
0001
0000
0000
0100
0000
0000
0010
0000
1000
0000
0001
0000
,
1000
0000
0000
0010
0000
0000
1000
0100
0010
0001
0010
0001
1000
0100
1000
0010
,
0100
0000
0001
0010
0000
0010
0001
0000
1000
0000
0010
0100
0010
0000
1000
0001
,
1001
0000
1000
0010
0100
000M
0100
1000
0001
0000
1000
0001
0100
00M0
0100
1000
,
0001
0000
0000
0000
0000
0000
1000
0000
0000
0001
0000
0000
0100
0000
0000
0000
0000
0000
0001
0000
0000
0010
0000
0000
0100
0000
0000
1000
0000
0000
0100
0000
0000
0010
0000
0000
0001
0000
0000
1000
0000
0000
0010
0000
1000
0000
0001
0000
,
0010
0000
0000
0100
0000
0000
1000
0001
1000
0100
0010
0001
1000
0010
0100
0001
,
1000
0000
0000
0000
0000
0000
0001
0000
0000
0100
0000
0000
0000
0000
0000
0100
0000
0000
0001
0000
0000
0000
0000
0000
1000
0000
0000
0000
0000
0000
0001
0000
0000
1000
0000
0000
0010
0000
1000
0000
0001
0000
0100
0000
0010
0000
1000
0000
,
0001
0010
0100
1000
0001
1000
0010
0010
,
0100
0001
1000
0100
0010
0001
1000
1000
,
0001
0010
0100
1000
0010
0100
0001
0001
,
1000
0100
0020
0000
0032
0000
0000
0000
,
1003
0100
0010
0001
1000
0010
0100
0001
1000
0100
0010
0001
1000
0010
1000
0010
,
0100
0001
0010
0100
0010
0001
1000
0010
0100
0001
1000
0100
0010
0001
0010
0001
,
1000
0010
0100
0001
1000
0100
0010
0001
1000
0010
0100
0001
1000
0010
1000
0010
,
0100
0001
1000
0100
0010
0001
0100
0010
1000
0100
0010
0001
1000
0100
0010
0001
,
2000
0000
3000
0000
;

//--------------- dance-double - XO ----------------
#NOTES:
     dance-double:
     XO:
     Challenge:
     16:
     0,0,0,0,0:
00000000
00000000
00000000
00000000
,
00010000
00000000
00001000
00000000
01000000
00000000
00100000
10000000
00000000
00000000
00010000
00000000
10000000
00000000
00010000
10000000
,
00000000
00000000
01000000
00000000
00100000
00000000
00001000
00010000
00000000
00000000
00000010
00000000
00000100
00000000
00000010
00001000
,
00000000
00000000
00000001
00000000
00001000
00000000
00000000
00000100
00000000
00000000
00001000
00000000
00000001
00000000
00000000
00000100
,
00000000
00000000
00000010
00000000
00001000
00000000
00000000
00000100
00000000
00000000
00010000
00000000
00011000
00000000
00001000
00010000
,
00001000
00000000
01000000
00000000
00100000
00000000
10000000
00000000
01000000
00100000
00000000
00010000
00000000
00100000
01000000
00000000
,
10000000
00100000
00000000
01000000
00000000
00001000
00010000
00000000
00001000
00000000
00000000
00010000
00000000
00000010
00001000
00000000
,
00000001
00000010
00000000
00000100
00000000
00010000
00001000
00000000
00100000
01000000
00000000
10000000
00000000
00010000
10000000
00000000
,
00100000
10000000
00000000
01000000
00000000
10000000
00100000
00000000
10000000
01000000
00000000
00100000
00000000
00010000
00100000
00000000
,
01000000
00000000
10000000
00000000
00010000
00000000
01000000
00100000
00000000
00000000
01000000
00000000
00001000
00000000
00010000
00001000
,
00000000
00000000
00010000
00000000
00000010
00000000
00001000
00000001
00000000
00000000
00001000
00000000
00000100
00000000
00000010
00000001
,
00000000
00000000
00000010
00000000
00000100
00000000
00001000
00000100
00000000
00000000
00001000
00000000
00000001
00000000
00001000
00000010
,
00000000
00000000
00010000
00000000
00001000
00000000
00100000
00010000
00000000
00000000
00100000
00000000
01000000
00000000
00100000
00010000
,
00000000
00000000
10000000
00000000
00010000
00000000
01000000
00010000
00000000
00000000
00100000
00000000
00010000
00000000
00100000
00010000
,
00000000
00000000
00100000
00000000
00001000
00000000
00010000
00000100
00000000
00000000
00001000
00000000
00000001
00000000
00001000
00000010
,
00001000
00000000
00000001
00000000
00001000
00000000
00000010
00000000
00001000
00000100
00001000
00000000
00000001
00000000
00001000
00000000
,
00000010
00000100
00000010
00000000
00010000
00000000
00001000
00000000
00010000
00000100
00010000
00000000
00001000
00010000
00001000
00010000
,
00002000
00000000
00000000
00000000
00000000
00000000
00000000
00000000
02003000
00000000
00000000
00000000
03100000
10000000
00100000
10000000
,
00010000
00000000
00000000
01000000
00000000
00000000
10000000
01000000
00100000
00000000
00000000
01000000
00000000
00000000
00010000
00100000
,
00010000
00000000
00000000
01000000
00000000
00000000
00001000
00000000
00010000
00001000
00010000
00001000
00010000
00000100
00001000
00000100
,
00002000
00000000
00000000
00000000
00003001
00000000
00000000
00000000
00001000
00000100
00000010
00000001
00001000
00000010
00000100
00000001
,
00001000
00000000
00000100
00001000
00000000
00000100
00001000
00000000
00000001
00000000
00001000
00000010
00000000
00001000
00000010
00000000
,
00001000
00000000
00000000
00000100
00000000
00000000
00000001
00000100
00000010
00000000
00000000
00000001
00000000
00000000
00001000
00000010
,
00001000
00000000
00000000
00000001
00000000
00000000
00001000
00000000
00000001
00000010
00000100
00001000
00000001
00000100
00000010
00001000
,
00000001
00000000
00000000
00000000
00001000
00000000
00000100
00000000
00010000
00001000
00010000
00001000
00100000
00010000
00100000
01000000
,
10000000
00000000
00010000
01000000
00000000
00010000
01000000
00000000
00100000
00000000
10000000
01000000
00000000
10000000
01000000
00000000
,
20000000
00000000
00000000
00000000
00000000
00000000
00000000
00000000
30002000
00000000
00000000
00000000
00003000
00000000
00010000
00001000
,
00010000
00000000
00001000
00010000
00001000
00000000
00010000
00000100
00010000
00000000
00000100
00001000
00000001
00000000
00001000
00000000
,
00000001
00000010
00000100
00001000
00000100
00000010
00000001
00001000
00000001
00000100
00000010
00001000
00000001
00000010
00000100
00001000
,
00000010
00000100
00000001
00001000
00000100
00000010
00000001
00001000
00000010
00000100
00000001
00001000
00000001
00001000
00000100
00010000
,
00000200
00000000
00000000
00000000
00000000
00000000
00000000
00000000
02000300
00000000
00000000
00000000
03000000
00000000
00010000
00100000
,
00010000
00000000
00100000
00001000
00100000
00000000
00001000
00010000
00001000
00000000
00100000
00010000
10000000
00000000
00100000
00000000
,
10000000
00010000
00100000
01000000
10000000
00100000
01000000
00010000
10000000
01000000
00100000
00010000
10000000
00100000
01000000
00010000
,
00100000
01000000
10000000
00100000
01000000
00010000
01000000
00100000
10000000
01000000
10000000
00010000
00100000
00010000
00100000
00001000
,
00020000
00000000
00000000
00000000
00000000
00000000
00030001
00000000
00002000
00000000
00000000
00000000
00003010
00000000
00001000
00000010
,
00001000
00000000
00000010
00000000
00010000
00000000
00001000
01000000
00001000
00000000
01000000
00000000
00010000
00000000
01000000
00000000
,
00001000
01000000
00100000
00010000
00100000
01000000
00010000
00100000
,
01000000
10000000
00100000
01000000
00001000
00010000
00010100
00000100
,
00000200
00000000
00000000
00000000
00000000
00000000
00000000
00000000
00002300
00000000
00000000
00000000
00003000
00000000
00000001
00000100
,
00000010
00000000
00001000
00000010
00000100
00000000
00000001
00000010
00000100
00000000
00001000
00000100
00000010
00000000
00000001
00000000
,
00001000
00000001
00000100
00000001
00001000
00000010
00000100
00000001
00000100
00000010
00001000
00000001
00000010
00000100
00001000
00000010
,
00000100
00000001
00000010
00000100
00001000
00000001
00000100
00000010
00001000
00000001
00000010
00000100
00001000
00000001
00000100
00000001
,
00001000
00000000
00000000
00000100
00000000
00000000
00001000
00000000
00000010
00000000
00000000
00001000
00000000
00000000
00000100
00000000
,
00010000
00000000
00000000
00001000
00000000
00000000
00010000
00000000
00001000
00000000
00000000
00100000
00000000
00000000
00010000
00000000
,
10000000
00000000
00000000
01000000
00000000
00000000
00100000
00000000
00010000
00000000
00000000
00100000
00000000
00000000
01000000
00000000
,
10000000
00000000
00000000
00010000
00000000
00000000
01000000
00000000
00010000
00000000
00000000
00100000
00000000
00000000
00010000
00000000
,
00110000
00100000
00010000
10000000
00100000
10100000
10000000
00010000
,
01010000
01000000
00001000
00010000
00001000
00011000
00010000
00000010
,
00010010
00001000
00000010
00010000
00001000
00011000
00010000
00000000
,
00001020
00000000
00000000
00000000
00000000
00000000
00000000
00000000
00010030
00001000
00010000
00001000
00100000
00010000
00100000
00010000
,
10000000
00000000
00000000
00100000
00000000
00000000
00010000
00100000
01000000
00000000
00000000
00100000
00000000
00000000
10000000
00010000
,
10000000
00000000
00000000
00010000
00000000
00000000
01000000
00000000
00010000
00100000
00010000
00100000
00001000
00010000
00001000
00010000
,
00000100
00000000
00000000
00000000
00001000
00000000
00000000
00000000
00000001
00000010
00000100
00001000
00000001
00000100
00000010
00001000
,
00000001
00000000
00001000
00000100
00000000
00001000
00000100
00000000
00001000
00000000
00000001
00000010
00000000
00000100
00001000
00000000
,
00001100
00000000
00000000
00000100
00000000
00000000
00000001
00000100
00000001
00000000
00000000
00000100
00000000
00000000
00001000
00000001
,
00001000
00000000
00000000
00000010
00000000
00000000
00001000
00000000
00000001
00000010
00000100
00001000
00000100
00000010
00000001
00001000
,
00000100
00000000
00000000
00000000
01000000
00000000
00000000
00000000
00001000
00010000
00001000
00100000
00010000
00100000
00010000
10000000
,
00100000
00000000
10000000
01000000
00000000
00100000
00010000
00000000
00100000
00000000
01000000
10000000
00000000
00010000
10000000
00000000
,
00010000
00000000
00000000
01000000
00000000
00000000
10000000
01000000
00100000
00000000
00000000
01000000
00000000
00000000
00010000
00100000
,
00010000
00000000
00000000
00100000
00000000
00000000
00001000
00000000
00010000
00001000
00010000
00000100
00010000
00001000
00010000
00000100
,
00001000
00000000
00000000
00000000
00000001
00000000
00000000
00000000
00001000
00000100
00000010
00000001
00001000
00000100
00000010
00000100
,
00001000
00000000
00000100
00001000
00000000
00000100
00001000
00000000
00000100
00000000
00010000
00001000
00000000
00010000
00001000
00000000
,
00011000
00000000
00000000
00010000
00000000
00000000
01000000
00100000
01000000
00000000
00000000
00010000
00000000
00000000
00100000
00010000
,
10000000
00000000
00000000
00010000
00000000
00000000
10000000
00000000
00010000
00100000
01000000
10000000
01000000
00100000
00010000
00100000
,
00001000
00000000
00000000
00000000
10000000
00000000
00000000
00000000
00010000
00100000
00010000
00100000
00001000
00010000
00001000
00010000
,
00000100
00000000
00001000
00000001
00000000
00001000
00000010
00000000
00001000
00000000
00000100
00000010
00000000
00000001
00000010
00000000
,
00000001
00001000
00000010
00001000
,
00000100
00010000
00001000
01000000
,
00100000
10000000
00010000
01000000
,
00100000
20000000
30020000
00000000
,
10030000
00100000
10000000
00000000
00010000
00100000
00010000
00000000
10000000
00010000
10000000
00000000
01000000
00000000
01000000
00000000
,
00001000
00010000
00001000
00000000
00100000
00010000
00100000
00000000
00001000
00010000
00001000
00000000
00010000
00000000
00010000
00000000
,
00000010
00000100
00000010
00000000
00001000
00000001
00001000
00000000
00000010
00000100
00000010
00000000
00000100
00000000
00000100
00000000
,
00000001
00000010
00000100
00000000
00001000
00000100
00000010
00000000
00000001
00000100
00000010
00000000
00001000
00000000
00001000
00000000
,
00000220
00000330
00000000
00000000
;
