#TITLE:Rainbow Road;
#SUBTITLE:Mario Kart 64;
#ARTIST:Kenta Nagata;
#TITLETRANSLIT:;
#SUBTITLETRANSLIT:;
#ARTISTTRANSLIT:;
#GENRE:;
#CREDIT:;
#MUSIC:Mario Kart Rainbow Road.ogg;
#BANNER:[Video Games] - Rainbow Road.png;
#BACKGROUND:[Video Games] - Rainbow Road-bg.png;
#CDTITLE:;
#SAMPLESTART:35.900;
#SAMPLELENGTH:14.550;
#SELECTABLE:YES;
#OFFSET:-0.010;
#BPMS:0.000=136.970;
#STOPS:;
#BGCHANGES:;
#FGCHANGES:;

//--------------- dance-single - ----------------
#NOTES:
     dance-single:
     :
     Beginner:
     2:
     0.099,0.169,0.123,0,0:
0000
0000
0000
0000
,
0001
0000
0000
0000
,
1000
0000
0000
0000
,
0100
0000
0000
0000
,
1001
0000
0000
0000
,
0001
0000
0000
0000
,
1000
0000
0000
0000
,
0100
0000
0000
0000
,
1001
0000
0000
0000
,
0100
0000
0000
0000
,
0010
0000
0000
0000
,
0100
0000
0000
0000
,
1001
0000
0000
0000
,
0001
0000
0000
0000
,
1000
0000
0000
0000
,
0100
0000
0000
0000
,
0110
0000
0000
0000
,
0001
0000
0000
0000
,
1000
0000
0000
0000
,
0100
0000
0000
0000
,
1001
0000
0000
0000
,
0001
0000
0000
0000
,
1000
0000
0000
0000
,
0100
0000
0000
0000
,
1001
0000
0000
0000
,
0000
0000
0001
0000
,
1000
0000
0000
0000
,
0000
0000
0000
0000
,
1001
0000
0000
0000
,
0100
0000
0000
0000
,
0010
0000
0000
0000
,
1000
0000
0000
0000
,
1001
0000
0000
0000
,
0000
0000
0001
0000
,
1000
0000
0000
0000
,
0100
0000
0000
0000
,
0010
0000
0000
0000
,
0000
0000
0000
0000
,
0000
0000
0000
0000
,
0000
0000
0000
0000
,
1001
0000
0000
0000
,
0100
0000
0000
0000
,
0010
0000
0000
0000
,
1000
0000
0001
0000
,
1001
0000
0000
0000
,
0100
0000
0000
0000
,
0010
0000
0000
0000
,
1000
0000
0000
0000
,
1001
0000
0000
0000
,
0100
0000
0000
0000
,
0010
0000
0000
0000
,
0001
0000
1000
1000
,
1000
0000
0000
0000
,
0001
0000
0000
0000
,
0100
0000
0000
0000
,
0010
0000
0000
0000
,
1001
0000
0000
0000
,
0001
0000
0000
0000
,
0001
0000
0001
0000
,
0001
0000
0100
0000
,
0110
0000
0000
0000
,
0001
0000
0000
0000
,
1000
0000
0000
0000
,
0100
0000
0000
0000
,
1001
0000
0000
0000
;

//--------------- dance-single - ----------------
#NOTES:
     dance-single:
     :
     Easy:
     4:
     0.198,0.258,0.105,0.562,0:
0000
0000
0000
0000
,
0000
0000
0000
0000
,
2000
0000
0000
0000
,
0000
0000
0000
3000
,
1100
0000
0200
0000
,
0000
0000
0000
0320
,
0000
0000
0032
0000
,
0000
0000
0000
0003
1000
0000
0001
0000
,
1001
0000
0200
0000
,
0000
0000
0000
0000
,
0320
0000
0000
0000
,
0000
0000
0000
0030
,
1001
0000
0200
0000
,
0000
0000
0000
0320
,
0000
0000
0000
0000
,
0032
0000
1003
0001
,
1001
0000
2000
0000
,
0000
0000
0000
0000
,
3200
0000
0000
0000
,
0000
0000
0000
0300
,
1001
0000
0002
0000
,
2003
0000
3200
0000
,
0320
0000
0032
0000
,
0203
0000
0320
0000
,
2030
0000
0000
0000
,
0000
0000
3002
0000
,
0203
0000
0000
0000
,
0320
0000
0000
0030
,
1001
0000
0200
0000
,
0320
0000
0032
0000
,
0203
0000
0320
0000
,
2030
0000
3002
0000
,
0203
0000
0000
0000
,
0000
0000
0320
0000
,
2030
0000
0000
0000
,
3200
0000
0000
0300
,
2002
0000
0000
0000
,
0000
0000
0000
0000
,
0000
0000
0000
0000
,
0000
0000
0000
3003
,
1001
0000
0002
0000
,
2003
0000
0000
0000
,
3200
0000
0000
0000
,
0320
0000
0031
1000
,
1001
0000
0200
0000
,
0320
0000
0000
0000
,
0032
0000
0000
0000
,
0203
0000
0000
0300
,
1002
0000
0203
0000
,
0320
0000
0000
0000
,
2030
0000
0000
0000
,
3002
0000
0100
0103
,
1001
0000
0002
0000
,
2003
0000
0000
0000
,
3200
0000
0000
0000
,
0320
0000
0000
0030
,
1001
0000
0002
0000
,
2003
0000
3200
0000
,
0320
0000
0032
0000
,
0203
0000
0320
0000
,
2030
0000
0000
0000
,
0000
0000
3002
0000
,
0203
0000
0000
0000
,
0320
0000
0000
0000
,
0130
0000
2000
0000
,
0000
3000
0000
0000
;

//--------------- dance-single - ----------------
#NOTES:
     dance-single:
     :
     Medium:
     7:
     0.315,0.37,0.14,0.334,0.026:
0000
0000
0000
0000
,
0000
0000
0000
0000
,
0001
0100
0001
1000
,
0001
0100
0001
1000
,
1001
0000
0000
1000
0010
0000
0010
0200
,
0000
0000
0000
0000
0300
0000
0001
0100
,
0000
0000
0000
0010
1000
0000
1000
0200
,
0000
0000
0000
0310
0001
0000
1000
0000
,
1001
0000
0000
0001
0100
0000
0100
0020
,
0000
0000
0000
0030
,
2001
0000
0000
3000
,
0002
0000
0000
0003
,
1001
0000
0000
0001
0100
0000
0100
0020
,
0000
0000
0000
0000
0000
0000
1030
0020
,
0000
0000
0000
1030
0100
0000
0010
0001
,
0000
0000
0000
0001
1000
0000
0001
0000
,
1001
0000
0000
0100
1000
0000
0100
2000
,
0000
0000
0000
0000
,
3200
0000
0000
0000
,
1300
1000
1000
1000
,
0110
0000
0000
0100
1000
0000
1000
0200
,
0000
0000
0000
0320
0000
0000
0031
0200
,
0000
0000
0000
0000
0000
0000
0000
0000
0310
0000
0000
1000
0000
0000
0010
0000
,
0200
0000
0000
0001
0301
0000
0000
0000
,
2001
0000
0000
0001
3002
0000
0000
0000
,
0000
0000
0000
0000
0000
0000
0000
0000
0013
0000
0000
0100
0000
0000
1000
0000
,
0100
0001
0100
0001
,
1000
0001
0100
0001
,
1001
0000
0000
0001
0010
0000
0100
1000
,
0100
0000
0000
0100
2000
0000
3100
0010
,
0001
0000
0000
0000
0000
0000
0000
0000
0001
0000
0000
0100
0000
0000
0010
0000
,
2000
0000
0000
3001
0100
0000
0001
0000
,
1002
0000
0000
0000
,
0000
0000
0000
0000
0003
0000
0000
0000
1000
0000
0100
0000
0000
0100
0000
0000
,
2000
0000
0000
0000
,
0020
0000
0000
3030
,
1010
1000
0100
0010
,
0001
0100
0010
1000
,
0010
0100
0001
0100
,
0010
0000
0100
0000
1000
0000
0001
0100
,
0001
0000
0000
0010
1000
0000
0001
0100
,
0002
0000
0000
0000
0000
0000
1003
0100
,
2000
0000
0000
3100
0010
0000
0001
0100
,
0001
0000
0000
0001
0200
0000
0301
0000
,
1001
0000
0000
0001
0020
0000
0130
1000
,
0200
0000
0000
0000
,
0320
0000
0000
0000
,
0000
0000
0000
0030
,
0110
0000
0000
1000
0200
0000
1300
0001
,
2000
0000
0000
0000
0000
0000
3001
0001
,
0100
0000
0000
0010
1000
0000
0010
1000
,
0010
0000
0000
0100
0002
0000
0103
0000
,
1001
0000
0000
1000
0100
0000
0100
0010
,
0002
0000
0000
0000
,
0203
0000
0000
0000
,
0302
0000
0000
0003
,
1001
1000
0000
0100
0000
0010
0000
0100
,
0000
0010
0000
0001
0000
0100
0000
0010
,
0000
0000
1000
0000
0000
0000
0010
0000
0100
0000
0000
0010
0000
0000
0100
0000
,
0002
0000
0000
0013
0020
0000
0030
0000
,
2100
0000
0000
0001
0001
0000
0000
0000
,
0000
0000
0000
0000
0000
0000
0000
0000
0010
0000
0000
0010
0000
0000
0010
0000
,
0010
0000
0000
0000
,
3002
0000
0000
0003
,
2002
0000
0000
0000
0000
0000
0000
0000
0000
0000
0000
3003
;

//--------------- dance-single - ----------------
#NOTES:
     dance-single:
     :
     Hard:
     11:
     0.416,0.513,0.219,0.316,0.044:
0000
0000
0000
0000
,
0000
0000
0000
0000
,
1000
0001
1000
0010
1000
0001
0010
0100
,
1000
0001
0100
0010
0100
0001
0010
0000
,
0011
0000
0001
1000
0020
0000
0130
0001
,
2000
0000
0000
0000
0001
0000
0000
0000
3100
0000
0000
0000
1000
0001
1000
0000
,
0001
0000
0100
0010
0020
0000
1030
1000
,
0001
0100
0001
0100
0010
0000
1000
0000
,
1001
0000
0001
0100
0010
1000
0100
0001
,
0100
1000
0010
0000
1000
0100
0001
0100
,
2000
0000
0001
0000
0010
0000
3001
0100
,
0010
0000
0100
0000
0001
0000
0010
0100
,
1100
0000
1000
0001
0001
0100
0010
0010
,
2000
0000
0001
0000
3100
0000
0000
0000
0010
0000
0001
0000
0100
0010
1000
0000
,
0002
0000
0103
0010
0010
1000
0100
0100
,
2000
0000
3001
0100
0010
0000
1000
0000
,
1001
0000
0001
0100
2000
0000
3100
0001
,
0200
0000
0010
0000
0301
0010
0100
1000
,
0002
0000
0103
0000
0010
1000
0010
0001
,
0020
0000
1030
0000
0010
0000
0100
0001
,
0101
0100
0001
0100
1000
0100
0010
1000
,
0001
1000
0100
0001
0100
0001
0100
1000
,
0010
0000
0100
0000
0001
0000
0000
0000
2000
0000
0000
0001
0000
0000
0100
0000
,
3100
0000
0010
0001
0100
0000
0010
0000
,
2010
0000
0000
0001
3002
0000
0100
0000
,
0010
0000
0000
0000
1000
0000
0000
0000
0203
0000
0000
0001
0000
0000
0010
0000
,
0310
0100
0010
0001
1000
0000
0001
0010
,
0001
0100
0010
1000
0100
0000
0010
0001
,
0011
0010
0100
1000
0010
0100
0010
1000
,
0001
1000
0001
0010
0100
1000
0010
0100
,
0001
0000
0010
0000
0002
0000
0000
0000
2003
0000
0000
0001
0000
0000
0100
0000
,
3200
0000
0310
0001
0200
0000
0310
1000
,
2010
0001
0100
0001
,
0010
0000
0000
0000
0001
0000
0000
0000
3200
0000
0000
0010
0000
0000
0001
0000
,
0301
0000
0010
0000
0100
1000
0010
0100
,
0002
1000
0100
1003
,
1001
0000
0001
0000
1000
0100
0001
0100
,
0010
0000
0001
0000
1000
0010
0001
0010
,
0100
0001
1000
0001
,
0100
0010
0100
0000
0001
0000
1000
0001
,
1001
0000
1000
0100
0100
0001
0100
0100
,
2000
0000
0000
0000
3010
0000
0000
0000
0100
0000
0000
0000
0001
1000
0001
0000
,
0100
0000
0001
0100
0100
0010
0001
0001
,
0010
1000
0010
0100
0001
0000
1000
0000
,
1001
0000
0001
0100
1000
0100
0010
0100
,
0002
0000
2003
0000
3020
0000
0130
0001
,
0200
0000
0302
0000
0013
0100
1000
0001
,
0200
0000
0302
0000
2003
0000
3001
0100
,
0201
0000
0301
0100
0100
1000
0100
0100
,
0010
0000
0000
0000
0100
0000
0000
0000
0001
0000
1000
0000
0001
0100
0010
0000
,
0200
0000
0301
0010
0010
1000
0010
0010
,
0100
0000
0010
0001
0100
0000
0010
0000
,
1010
0000
0010
0100
2000
0000
3100
0010
,
1000
0100
0010
0000
0002
0000
0103
0010
,
0200
0000
0301
0010
0001
0100
0010
1000
,
0002
0000
1003
0100
0010
0001
0100
0010
,
1010
1000
0001
0010
0010
1000
0010
0010
,
0100
0010
0001
2000
0010
0000
3001
0200
,
0010
0000
0000
0000
0310
0000
0000
0000
2000
0000
0000
0001
0000
0000
0100
0000
,
3100
0000
0010
0001
2000
0001
3001
0000
,
2001
0000
0000
0010
0010
0000
0001
0000
,
0100
0000
0000
0000
0001
0000
0000
0000
3002
0000
0000
0010
0000
0000
0100
0000
,
0103
0001
1000
0010
0100
0001
1000
0100
,
1000
0001
0100
0010
0100
0001
0010
0000
,
2002
0000
3003
0000
;

//--------------- dance-single - HS+ SJ FS XO SS- DS ----------------
#NOTES:
     dance-single:
     HS+ SJ FS XO SS- DS:
     Challenge:
     16:
     0.586,0.769,0.176,0.219,0.338:
0000
0000
0000
0000
,
0000
0000
0000
0000
0000
0000
0000
M000
,
0200
0000
0001
1000
0000
0000
1000
0010
0000
0000
0001
1000
0300
0010
0100
0001
,
0020
0000
0001
1000
0000
0000
0100
0001
0030
0000
0100
1000
0001
0000
1000
0001
,
1001
0000
0000
0000
0001
0000
0010
0001
0010
0000
0100
1000
0001
0010
0100
0010
,
0001
0000
1000
0100
0001
0000
00M0
0001
1000
0000
0001
1000
0100
0100
0020
0000
,
1030
0001
0000
1000
0001
0000
0100
0010
0200
0000
0301
1000
0001
0100
0000
0100
,
0010
0000
1000
0100
0001
0000
00M0
0001
0200
0000
0010
1000
0300
0000
0010
0001
,
0011
0000
0000
0000
0010
0000
0100
1000
0200
0000
0000
0000
1300
0001
1000
0001
,
0200
0000
0010
1000
0000
0000
0000
1300
0200
0000
0010
0001
0000
0310
0100
0000
,
0020
0001
0000
0031
0020
0000
0100
1000
0000
0000
0100
0001
0000
0001
0000
0001
,
0230
0000
0001
1000
0000
0000
1000
0010
0000
0000
0010
1000
0000
0000
0310
0001
,
0011
0000
0000
0000
0100
0000
1000
0001
0200
0000
0310
1000
0010
0100
0001
1000
,
0002
0000
1000
0100
0000
0000
0100
0010
0000
0000
0103
0010
1000
0001
2000
0000
,
3010
0100
0000
0100
0010
0000
1000
0001
2000
0000
3001
1000
0100
0010
0000
0100
,
0020
0000
0031
1000
0100
0000
0010
0000
0001
0000
0100
0001
0100
0000
0010
1000
,
1010
0000
0010
1000
0010
0000
1000
0100
0010
0000
0001
0100
0010
0001
0010
0100
,
0001
0000
1000
0010
0001
0000
0M00
0001
0010
0000
0100
1000
0010
0100
0001
1000
,
0020
1000
0000
0100
0000
0000
0001
1000
0000
0000
0100
0001
0000
0001
0000
0001
,
0230
0000
0010
1000
0000
0000
1000
0010
0000
0000
0310
1000
0001
0000
0100
0001
,
0101
0000
1000
0000
0100
0000
0001
00M0
0001
0000
0010
0000
1000
0M00
1000
0000
,
0001
0100
0010
0001
0010
0100
0001
0002
,
1000
0000
0010
0000
1003
0000
0001
0000
2000
0000
0000
0001
0000
0000
0100
0000
,
3100
0000
0010
0000
0001
0000
0100
00M0
0100
0000
1000
0000
0010
0000
1000
0000
,
2001
0000
0000
0001
0001
0000
0100
0000
,
0010
0000
0000
0000
0100
0000
0000
0000
3002
0000
0000
1000
0000
0000
0010
0000
,
0013
0100
0000
1000
0100
0000
0010
0001
1000
0000
0001
0100
0010
0100
0001
1000
,
0010
0000
1000
0100
0010
0000
0001
0010
0100
0000
1000
0001
1000
0000
0001
0100
,
0101
0000
0001
0000
1000
0000
0100
00M0
0100
0000
0001
0000
0010
0M00
0010
0000
,
2000
0000
0001
0000
3001
0000
0100
00M0
0100
0000
1000
0000
0001
0000
0002
0000
,
1000
0000
0000
0000
0010
0000
0000
0000
2003
0000
0000
0001
0000
0000
0100
0000
,
3200
0000
0310
0001
0001
0100
0010
0010
,
2010
0100
0001
0100
,
0001
0000
0000
0000
0010
0000
0000
0000
3002
0000
0000
0100
0000
0000
0010
0000
,
0013
0100
0000
1000
0100
0000
0010
0001
1000
0000
0001
0100
0010
1000
0100
1000
,
0001
0000
0010
0100
1000
0000
0001
0100
0001
0000
1000
0100
0010
0000
0001
1000
,
1001
0000
0001
0100
0010
0000
1000
0100
0010
0000
0001
1000
0010
0010
0001
1000
,
0010
0000
1000
0100
0010
0000
0001
0010
0100
0000
1000
0001
0100
0100
1000
0001
,
1000
0100
0000
0010
0001
0000
0100
0010
0100
0000
0001
1000
0010
0100
0000
0100
,
0001
0000
0010
0100
1000
0000
0100
0010
0001
0000
0010
0100
1000
0000
0001
1000
,
1001
0000
0000
0001
1000
0000
0100
1000
0100
0000
0010
0001
1000
0100
0010
0100
,
1000
0000
0001
0010
1000
0000
0M00
1000
0001
0000
1000
0001
0010
0010
0200
0000
,
0301
1000
0000
0001
1000
0000
0010
0100
0020
0000
1030
0001
1000
0010
0000
0010
,
0100
0000
0001
0010
1000
0000
0M00
1000
0010
0000
0100
0001
0010
0000
0100
1000
,
1100
0000
0000
0010
0001
0000
0100
0001
0200
0000
0000
0000
0301
1000
0001
1000
,
0200
0000
0010
0001
0000
0000
0000
0301
0200
0000
0010
1000
0000
0310
0100
0000
,
0020
1000
0000
1030
0020
0000
0100
0001
0000
0000
0100
1000
0000
1000
0000
1000
,
0230
0000
1000
0001
0000
0000
0001
0010
0000
0000
0010
0001
0000
0000
0310
1000
,
1010
0000
0000
0000
0010
0000
1000
0001
0020
0000
0130
1000
0100
0010
0001
1000
,
0002
0000
1000
0010
0000
0000
0010
0100
0000
0000
0013
0100
1000
0001
2000
0000
,
3100
0010
0000
0010
0100
0000
1000
0001
2000
0000
3001
1000
0010
0100
0000
0010
,
0200
0000
0301
1000
0010
0000
0100
0000
0001
0000
0010
0001
0010
0000
0100
1000
,
1010
0000
0010
1000
0010
0000
1000
0100
0010
0000
0001
0100
0010
0001
0010
0100
,
0001
0000
1000
0010
0001
0000
0M00
0001
0010
0000
0100
1000
0010
0100
0001
1000
,
0020
1000
0000
010M
0000
0000
0001
1000
0000
0000
0100
0001
0000
0001
0000
0001
,
0230
0000
0010
1000
0000
0000
1000
0010
0000
0000
0310
1000
0001
0000
0100
0001
,
0101
0000
0100
0000
0001
0000
0100
00M0
0100
0000
1000
0000
0010
0M00
0010
0000
,
0001
0100
0010
2000
0001
0100
3001
0002
,
1000
0000
0010
0000
1003
0000
0001
0000
2000
0000
0000
0001
0000
0000
0100
0000
,
3100
0000
0010
0000
0001
0000
0010
M000
0010
0000
0100
0000
0001
0000
1000
0000
,
2001
0000
0000
0010
0010
0000
0001
0000
,
0100
0000
0000
0000
0001
0000
0000
0000
3002
0000
0000
0100
0000
0000
0010
0000
,
0013
0000
0000
0001
1000
0000
0010
0100
0010
0000
1000
0100
0010
0001
0010
0100
,
1000
0000
0001
0100
0001
0000
1000
0010
0100
0000
0001
0100
0010
0000
1000
0001
,
2002
0000
3003
0000
;

//--------------- dance-double - ----------------
#NOTES:
     dance-double:
     :
     Hard:
     10:
     0,0,0,0,0:
00000000
00000000
00000000
00000000
,
00000000
00000000
00000000
00000000
,
00002000
01000000
00100000
01000000
,
00023000
00000010
00000100
00030010
,
00010100
00000000
00010000
00001000
00000100
00000000
00001000
00010000
,
00000020
00000000
00000000
00000000
00001000
00000000
00000000
00000000
00010030
00000000
00000000
00000000
00000010
00000100
00000010
00000000
,
00002000
00000000
00003001
00000100
00000010
00000000
00000001
00000010
,
00000200
00000000
00000301
00001000
00000100
00000000
00010000
00000000
,
00010200
00000000
00010300
00001000
02000000
00000000
03010000
10000000
,
00020000
00000000
00100000
00000000
01000000
00000000
10030000
01000000
,
00200000
00000000
00010000
00000000
00001000
00000000
00310000
00100000
,
00002000
00010000
00100000
00013000
,
00010100
00000000
00010000
00001000
00000100
00000000
00001000
00010000
,
00000020
00000000
00000000
00000000
00000100
00000000
00000000
00000000
00001030
00000000
00000001
00000000
00001000
00000010
00000100
00000000
,
00000002
00000000
00001003
00000010
00000010
00000000
00100000
00100000
,
00020000
00000000
10030000
00010000
00200000
00000000
00301000
00000000
,
00011000
00000000
00010000
00001000
00100000
00000000
00010000
00001000
,
00020000
00000000
00100000
00000000
00001000
00000000
00130000
00001000
,
00020000
00000010
00000100
00000001
,
00030200
00001000
00010000
00001300
,
00010010
00000010
00010000
00000100
00000100
00001000
00000001
00000001
,
00000020
00000000
00000130
00001000
00020000
00000000
00130000
02000000
,
10000000
00000000
00000000
00000000
00100000
00000000
00000000
00000000
23000000
00000000
00000000
00010000
00000000
00000000
00100000
00000000
,
30200000
00000000
01300000
00001000
00002000
00000000
00013000
00000000
,
00020010
00000000
00030001
00001000
00002000
00000000
00000010
00000000
,
00000010
00000000
00000000
00000000
00000100
00000000
00000000
00000000
00003200
00000000
00000000
00010000
00000000
00000000
00001000
00000000
,
00002300
00000000
00003200
00000000
00020300
00000000
00031000
01000000
,
00020000
10000000
00100000
10030000
,
10010000
10000000
01000000
00100000
00100000
00010000
00001000
00001000
,
00000200
00000000
00000310
00000001
00000001
00001000
00000100
00000200
,
00001000
00000000
00000000
00000000
00010000
00000000
00000000
00000000
00002300
00000000
00000000
00100000
00000000
00000000
00010000
00000000
,
00023000
00000000
00031000
01000000
00200000
00000000
01300000
00001000
,
00200000
00001000
00010000
00001000
,
00010000
00000000
00000000
00000000
00001000
00000000
00000000
00000000
00320000
00000000
00000000
00000010
00000000
00000000
00000100
00000000
,
00030200
00001000
00010000
00001000
,
00020300
00000010
00001000
00030010
,
00010002
00000000
00001000
00000000
00000010
00000000
00001003
00000100
,
00020000
00000000
00001000
00000000
00000100
00000000
00031000
00100000
,
00010000
10000000
00020000
00000000
01030000
00100000
10000000
00010000
,
02000000
00000000
03010000
00100000
00001000
00000000
00010000
00000000
,
00012000
00000000
00000000
01000000
01000000
00000000
00100000
00100000
,
00203000
00000000
00000000
00000000
00001000
00000000
00000000
00000000
00310000
00000000
00000000
00000000
00100000
00001000
00100000
00000000
,
00002000
00000000
00013000
00000100
00000200
00000000
00001300
00001000
,
00000001
00000000
00000100
00001000
00000100
00000000
00000001
00000000
,
00001001
00000000
00001000
00000010
00000100
00000000
00001000
00000100
,
00000002
00000000
00001000
00000000
00000100
00000000
00001003
00000100
,
00020000
00000000
00001000
00000000
00000010
00000000
00031000
01000000
,
00020000
10000000
00100000
10030000
,
10010000
00000000
00010000
00100000
02000000
00000000
13000000
01000000
,
00200000
00000000
00000000
00000000
00010000
00000000
00000000
00000000
01000000
00000000
00000000
00000000
00310000
00100000
00001000
00000000
,
00200000
00000000
00302000
00100000
00100000
00000000
00010000
00013000
,
00001000
00000000
00010000
00000010
00000200
00000000
00000310
00000000
,
00001001
00000000
00000001
00000100
00002000
00000000
00013000
00100000
,
20000000
00000000
00010000
00000000
00100000
00000000
30010000
00100000
,
00002000
00000000
01000000
00000000
00010000
00000000
01003000
00001000
,
00020000
00000000
00000010
00000000
00000100
00000000
00030001
00000100
,
00000010
00001000
00000001
00000100
00000100
00000010
00001000
00001000
,
00000200
00000000
00001300
00000100
00001000
00000000
00000010
00010000
,
00002000
00000000
00000000
00000000
00100000
00000000
00000000
00000000
00023000
00000000
00000000
00000100
00000000
00000000
00001000
00000000
,
00032000
00000000
01003000
00100000
10000000
00000000
00010000
00000000
,
10010000
00000000
00010000
01000000
02000000
00000000
00100000
00000000
,
10000000
00000000
00000000
00000000
00100000
00000000
00000000
00000000
03020000
00000000
00000000
00100000
00000000
00000000
10000000
00000000
,
20030000
00000000
00010000
00000000
00100000
00000000
30010000
00100000
,
00002000
00010000
00100000
10003000
,
01100000
00000000
00000000
00000000
;
