#TITLE:Radio Hardcore;
#SUBTITLE:;
#ARTIST:Italobrothers;
#TITLETRANSLIT:;
#SUBTITLETRANSLIT:;
#ARTISTTRANSLIT:;
#GENRE:;
#CREDIT:;
#MUSIC:Radio Hardcore.ogg;
#BANNER:radio hardcore-ban.png;
#BACKGROUND:radio hardcore-bg.png;
#CDTITLE:;
#SAMPLESTART:41.421;
#SAMPLELENGTH:11.960;
#SELECTABLE:YES;
#OFFSET:0.130;
#BPMS:0.000=150.000
,169.000=75.000
,171.000=150.000
,231.000=75.000
,233.000=150.000
;
#STOPS:;
#BGCHANGES:;
#FGCHANGES:;

//--------------- dance-single - ----------------
#NOTES:
     dance-single:
     :
     Beginner:
     3:
     0.113,0.184,0.041,0.041,0:
0000
0000
0000
0000
,
0000
0000
0000
0000
,
0000
0000
0000
1000
,
0000
0000
0000
0001
,
0000
0000
0000
0100
,
0000
0000
0000
0010
,
0000
0000
0000
0000
,
1000
0000
0001
0000
,
1000
0000
0100
0000
,
0010
0000
0000
0000
,
0000
1001
0000
0000
,
0000
1000
0000
0000
,
0000
0100
0000
0000
,
0000
0010
0000
0000
,
0000
0001
0000
0000
,
0000
1000
0000
0000
,
0000
0100
0000
0000
,
0000
0020
0000
0030
,
0000
0001
0000
0000
,
0000
1000
0000
0000
,
0000
0100
0000
0000
,
0000
0010
0000
0000
,
0000
0001
0000
0000
,
0000
1000
0000
0000
,
0000
0100
0000
0000
,
0000
0010
0000
0000
,
0000
0001
0000
0000
,
0000
0001
0000
0000
,
0000
2000
0000
3000
,
0000
0001
0000
0000
,
0000
0100
0000
0000
,
0000
0010
0000
0000
,
0000
0200
0000
0300
,
0000
0010
0000
0000
,
0000
1000
0000
0000
,
0000
0001
0000
0000
,
0000
0100
0000
0000
,
0000
0010
0000
0000
,
0000
1000
0000
0000
,
0000
0001
0000
0000
,
0000
0100
0000
0000
,
0000
0010
0000
0000
,
0000
1000
0000
0001
,
0000
0000
0000
1000
,
0000
0000
0000
0100
,
0000
0000
0000
0000
,
0010
0000
0101
0000
,
0001
0000
1000
0000
,
0001
0000
1000
0000
,
0001
0001
0000
1000
,
0000
0100
0000
0010
,
0000
0000
0000
0001
,
0000
0001
0000
1000
,
0000
0000
0000
0001
,
0000
0000
0000
0100
,
0000
0000
0000
0010
,
0000
0000
0000
1000
,
1000
1000
0000
1001
,
0000
0100
0000
0000
,
0000
0010
0000
0000
,
0000
0001
0000
0000
,
0000
1000
0000
0000
,
0000
0100
0000
0000
,
0000
0010
0000
0000
,
0000
0001
0000
1000
,
0000
0001
0000
0000
,
0000
1001
0000
0000
,
0000
0100
0000
0000
,
0000
0001
0000
0000
,
0000
0100
0000
0000
,
0000
0001
0000
1000
,
0000
0001
0000
1000
,
0000
0200
0000
0300
,
0000
0020
0000
0030
,
0000
1001
0000
0000
;

//--------------- dance-single - ----------------
#NOTES:
     dance-single:
     :
     Easy:
     5:
     0.275,0.279,0.132,0.199,0:
0000
0000
0000
0000
,
0000
0000
0000
0000
,
0000
1001
0100
1000
,
0100
0000
0010
0001
,
0100
0000
0010
1000
,
0000
0001
0000
0000
,
0000
0000
1001
0010
,
1000
0001
0100
0010
,
0000
0010
0000
0000
1000
0000
0001
0000
,
0000
1000
0000
0000
0001
0000
1000
0000
,
0000
1001
0100
1000
,
0100
0010
0000
0001
,
0100
0010
1000
0100
,
0010
0001
0000
0100
,
0010
1000
1000
0100
,
0100
0010
0000
0001
,
1000
0001
1000
0010
,
0100
0002
0000
0000
,
0003
1001
0100
1000
,
0100
0010
0000
0001
,
0100
1000
0100
0001
,
0001
0001
0010
0010
,
0100
0100
1000
1000
,
0010
1000
0010
0100
,
0001
0100
0010
1000
,
0001
2000
0000
3000
,
0001
1001
0001
0000
,
1000
0010
0100
0000
,
0001
0000
2000
0000
0000
3001
0000
0000
,
0100
0010
1000
0000
,
0001
1000
0001
0000
,
0100
0010
1000
0000
,
0001
0000
2000
0000
0000
3002
0000
0000
,
0103
0010
0000
0000
,
0000
1001
0010
1000
,
0001
0100
0010
1000
,
0001
1000
0010
0100
,
0001
1000
0100
0010
,
0001
0100
0100
0010
,
0010
1000
1000
0001
,
0001
1000
1000
0010
,
0010
0100
0001
1000
,
0001
1001
0000
1001
,
1000
0001
1000
0000
,
0010
0100
0000
0001
,
0000
1000
0000
0010
0000
1000
0000
0000
,
1001
0000
0110
0000
,
0101
0000
1001
0000
,
1000
0001
0000
1000
,
0000
0002
0000
1003
,
0000
0010
0000
0100
,
0000
0000
0000
0001
,
0000
1000
0000
0001
,
0000
0000
0000
1000
,
0000
0000
0000
0010
,
0000
0000
0000
0100
,
0000
0001
0000
1000
,
1000
1000
0000
1001
,
0000
0110
0000
0200
,
0000
0300
0000
2000
,
0000
3000
0000
0002
,
0000
0003
0000
0200
,
0000
0300
0000
0020
,
0000
0030
0000
2000
,
0000
3000
0000
0002
,
0000
2000
0000
3003
,
0000
2002
0000
0000
,
3003
1000
0010
0000
,
1000
0002
0000
0000
,
0103
0010
1000
0000
,
0001
2000
3010
0000
,
0001
0200
0310
0000
,
1000
0000
0002
0000
0003
2000
0000
0000
,
3020
0130
0000
0000
,
0000
0220
0000
0000
,
0330
0000
0000
0000
;

//--------------- dance-single - ----------------
#NOTES:
     dance-single:
     :
     Medium:
     8:
     0.383,0.368,0.165,0.149,0.046:
0000
0000
0000
0000
,
0000
0000
0000
0000
,
0000
0000
1001
0000
1000
0000
0010
1000
,
0010
0000
0000
0000
0001
0000
0100
0001
,
0100
0000
0010
1000
,
0000
0000
0001
0000
0000
1000
0000
0001
,
0000
1000
0000
0000
1100
0000
0001
0000
,
1001
0000
0001
0000
0101
0000
0001
1000
,
0000
0100
0000
0000
0100
0000
0001
0000
,
1000
0001
0000
0000
0000
0000
0000
0000
,
0000
0000
1000
0000
0001
0000
0100
0001
,
0100
0001
0000
0000
0000
0000
1000
0001
,
1000
0001
0000
1000
0000
0000
0010
0100
,
0010
0100
0000
0000
0001
0000
1000
0100
,
1000
0100
0000
0010
0000
0000
0001
0100
,
0001
0100
0000
0000
0000
0000
0010
1000
,
0010
1000
0000
0001
0000
0000
1000
0100
,
1000
0002
0000
0000
,
0003
0000
1001
0000
0100
0000
1000
0001
,
1000
0001
0000
0000
1000
0000
0010
0000
,
0100
0000
0001
0000
0010
0000
0100
1000
,
0010
0100
0000
0000
0001
0000
0010
0000
,
0100
0000
1000
0000
0010
0000
0100
0001
,
0010
0100
0000
0000
1000
0000
0001
0000
,
0100
0010
1000
0001
,
1000
2002
0000
3003
,
1000
1001
0001
0100
,
0010
1000
0001
1000
,
0001
0000
2000
0000
0000
3002
0000
0000
,
0103
0010
1000
0010
0100
0000
0000
0000
,
0001
1001
0100
1000
,
0001
0100
0010
1000
,
0100
0000
2000
0000
0000
3002
0000
0000
,
0203
0000
0310
1000
0010
0000
0000
0000
,
0000
0000
1001
0000
1000
0000
0001
1000
,
0001
2000
0000
0000
3000
0000
0010
0001
,
0010
0002
0000
0000
0003
0000
1000
0001
,
1000
0002
0000
0000
0003
0000
0010
1000
,
0010
2000
0000
0000
3000
0000
0001
1000
,
0001
2000
0000
0000
3000
0000
0100
0010
,
0100
0020
0000
0000
0030
0000
0001
1000
,
0001
1000
0000
1000
0100
0000
0010
0001
,
1000
0001
0000
0000
0000
0000
1001
0000
,
1000
0000
0001
0100
0001
0000
0010
0000
,
0100
1000
0001
0100
,
0001
1000
0001
1000
,
1001
0100
1100
0100
,
0100
0010
0100
0010
0000
0001
0000
0000
,
1000
1100
1000
0001
,
1000
0001
0000
1001
,
0001
0000
0000
0100
0000
0000
0010
0000
0000
1000
0000
0001
,
1000
0000
0100
0000
0000
0000
0000
0000
0000
0010
0000
0100
,
0010
0000
0000
0001
0000
1000
0001
0000
0000
1000
0000
0001
,
0000
0000
1000
0000
0000
0000
0000
0000
0000
1000
0000
0000
,
0001
0000
1000
0000
0000
0010
0000
0000
0000
1000
0000
0000
,
0100
0000
0010
0000
0000
0000
0000
0000
0000
0001
0000
0000
,
1000
0000
0100
0000
0000
0010
0000
0000
0000
1001
0000
0000
,
0100
1001
1000
1001
,
0000
0000
1001
0000
0000
0000
1000
0001
,
1000
0001
0000
0000
0000
0000
0100
0000
,
0000
0010
0000
1000
0000
0000
0001
1000
,
0001
1000
0000
0000
1000
0000
0100
0000
,
0000
0010
0000
0001
0000
0000
0001
1000
,
0001
1000
0000
0000
0000
0000
1000
0000
,
0000
0001
0000
0001
0000
0000
1000
0100
,
1000
0002
0000
0003
,
1000
1001
0001
0100
,
0010
1000
0100
0010
,
0001
0000
0200
0000
0000
0310
0000
0000
,
1000
0001
1000
0001
1000
0000
0001
0000
,
1000
1001
0100
0010
,
0001
0100
0010
0000
1000
0000
0001
0000
,
0010
0000
0002
0000
0000
0203
0000
0000
,
1300
0000
1000
0100
0001
0000
1000
0001
,
1000
0001
0000
0000
0000
0000
0000
0000
;

//--------------- dance-single - XMOD XO ----------------
#NOTES:
     dance-single:
     XMOD XO:
     Hard:
     11:
     0.591,0.553,0.083,0.455,0.132:
0000
0000
0000
0000
,
0000
0000
0000
0000
,
0000
0000
0000
1000
0100
0010
0001
0010
,
0100
0000
0000
1000
0100
1000
0100
0010
,
0001
0000
0000
0001
0010
0001
0200
0000
,
0000
0301
1000
0001
0100
0002
0000
1000
,
0000
0103
0010
0000
1000
0001
1000
0100
,
1000
0001
0010
0001
1000
0010
0100
0010
,
1000
0001
0010
0100
1000
0010
0100
0001
,
0010
0100
1000
0000
0001
1000
0001
1000
,
0001
0100
0101
0001
1000
0001
1000
0001
,
1000
0001
1000
0100
1000
0100
1000
0100
,
1000
0100
0010
0001
0010
0001
0010
0001
,
0010
0001
0100
0001
0100
0010
1000
0010
,
1000
0001
0100
0010
1000
0001
0100
0010
,
1000
0001
0010
0100
1000
0001
0010
0100
,
1000
0001
0100
0010
1000
0001
0100
1000
,
0200
0002
0000
0000
,
0303
0000
0001
1000
0100
0010
0100
1000
,
0100
0010
0000
0001
0100
0010
1000
0010
,
0100
0001
0010
0100
0000
1000
0001
0010
,
0100
1000
0001
0000
0001
1000
0010
1000
,
0100
0010
0001
0100
0010
0100
0001
0100
,
0010
1000
0000
0001
0100
0010
1000
0010
,
0001
0020
0000
2030
0000
3000
0001
0010
,
0100
2002
0000
3003
,
1000
1100
0100
0100
,
0100
0010
0100
0000
0010
0000
0010
0000
,
0002
0000
2003
0000
0000
3020
0000
0000
,
0130
0001
0100
0001
0100
0000
0002
0000
,
2003
0000
3001
0010
0001
0010
0100
1000
,
0100
1000
0100
0010
0100
0010
0001
0010
,
0001
0010
0200
0000
0000
2300
0000
0000
,
3010
0000
0100
0001
0100
0010
0100
0020
,
0000
2030
0000
3100
0000
0100
1000
0100
,
1000
0200
0000
0320
0000
0031
0010
0100
,
0010
0200
0000
2300
0000
3100
0010
0100
,
0010
0002
0000
0013
0100
1000
0100
0001
,
0100
2000
0000
3200
0000
0310
0001
0010
,
0001
0020
0000
0000
0000
0031
0100
1000
,
0100
0002
0000
0203
0000
1300
0100
0001
,
1000
0200
0000
1300
0100
0010
0001
0100
,
0010
0000
1000
0000
0000
0001
0100
0010
1000
0001
1000
0000
1001
0000
0001
0000
,
1000
0001
0100
0010
0100
0000
0000
0010
,
1000
0010
1000
0000
0000
0010
1000
0010
,
1000
0200
0000
0320
0000
0032
0000
0003
,
1001
0000
1000
0100
1100
0000
0100
0010
,
0110
0000
0010
0001
0011
0000
0001
1000
,
1001
0000
1000
0000
0100
0100
0000
0010
,
0010
0000
0000
0001
0000
0000
1000
0000
0001
0000
1000
0000
0001
0000
1000
0000
0001
0000
1000
0000
0000
0000
0100
0000
,
0010
0000
0001
0010
0000
0100
1000
0000
0000
0001
0000
1000
,
0010
0000
0100
0001
0000
0100
0001
0000
0000
1000
0000
0100
,
1000
0000
0000
0100
0000
0100
0001
0000
0000
0200
0000
0010
,
0000
0000
0310
0000
0000
0000
0000
0000
1000
0100
0000
0100
,
0020
0000
0001
0000
0000
0031
0000
0000
0001
0100
0000
0001
,
0100
0000
0010
0000
0000
0000
0000
0000
1000
0010
0000
1000
,
0010
0000
0100
0000
0000
0001
0000
0000
1000
0200
0000
0000
,
2300
0000
0000
0000
3002
0000
0000
0000
1003
0000
0000
0000
1000
0000
0010
0100
,
0001
1000
0100
1000
0001
0000
1000
0000
0001
0000
0000
0000
1000
0000
0100
0000
,
0020
0002
0000
0000
0033
0000
1000
0010
,
1000
0200
0000
2000
0300
0000
3001
0010
,
0002
0000
0023
0000
0130
1000
0100
1000
,
0010
0200
0000
0020
0300
0000
1030
0100
,
0001
0200
0000
0000
0000
0000
1300
0001
,
1000
0200
0000
0320
0000
0000
0031
1000
,
0002
2000
0000
0003
,
3001
1000
0001
1000
,
0100
0010
0100
0000
0010
0000
0001
0000
,
0100
0000
0020
0000
0000
2030
0000
0000
,
3001
0100
0001
0010
0100
0000
1000
0000
,
0001
0000
1000
0100
0001
0100
1000
0001
,
0010
0100
1000
0100
0001
0100
0010
0100
,
2000
0000
0020
3000
0000
2030
0000
0000
,
3002
0000
0013
0100
1000
0100
0001
0100
,
1000
0010
1001
0000
0000
0000
0000
0000
;

//--------------- dance-single - XMOD XO ----------------
#NOTES:
     dance-single:
     XMOD XO:
     Challenge:
     12:
     0.613,0.615,0.157,0.323,0.178:
0000
0000
0000
0000
,
0000
0000
0000
0000
,
0000
0000
1001
1000
0100
0001
0100
1000
,
0001
0010
0100
1000
0001
0100
0001
0100
,
0010
1000
0010
0100
0001
0010
0001
1000
,
0010
0100
0001
0010
0200
1000
0000
0010
,
0000
1300
0001
0000
1001
1000
0100
0000
,
0110
0100
0010
0000
1001
0001
1000
0100
,
0010
0002
0000
0000
1003
0010
1000
0000
,
1001
0001
0000
0000
1000
0001
1000
0001
,
0100
0010
2000
0001
0000
3000
0001
0010
,
0001
0200
0000
0000
0000
0000
0310
1000
,
0200
0010
0000
1300
0000
0000
0001
0010
,
0200
1000
0000
0000
1300
0010
0100
0001
,
0200
0001
0000
0310
0000
0000
1000
0010
,
0100
0002
0000
0000
0000
0000
1003
0100
,
2000
0100
0000
3001
0000
0000
0001
1000
,
0001
2002
0000
0000
,
3003
0000
1001
1000
0001
1000
0100
0010
,
0001
1000
0100
1000
0001
0010
0100
1000
,
0001
0100
0001
0100
0001
1000
0100
0010
,
0001
0100
0001
0100
1000
0100
1000
0100
,
0001
0100
0001
0010
0100
1000
0100
0001
,
0100
0010
0001
1000
0010
0001
0010
0100
,
0001
0100
1000
0100
0001
1000
0001
1000
,
0002
0020
0000
0033
,
0001
1002
2003
0000
,
3010
1000
0020
0000
2030
0000
0000
0000
,
3001
1000
0100
1000
0001
0200
0000
0000
,
0301
0001
0100
0010
1000
0000
0001
0000
,
1000
0000
0001
0100
0001
0100
0010
1000
,
0010
1000
0100
1000
0001
0100
0010
1000
,
0001
0000
1000
0000
0001
0010
0001
0000
1000
0100
1000
0000
0001
1000
0001
0000
,
0010
0001
0010
0000
0001
0000
0000
0000
1000
0000
0010
0000
1000
0000
0001
0000
,
1000
2100
0000
3010
0000
0100
0001
0010
,
0100
0210
0000
1300
0000
0001
1000
0001
,
1000
1002
0000
0103
0000
1000
0010
0100
,
0001
0201
0000
0310
1000
1000
0010
0100
,
0001
2001
0000
3001
0100
0010
1000
0100
,
0010
0002
0000
0000
0000
1003
0100
0001
,
0100
2000
0000
3010
0000
0100
0001
0010
,
0100
1000
0000
0001
0100
0100
0010
0010
,
1000
0001
1001
0000
0000
0000
1000
0100
,
0010
0001
0010
0100
1000
0000
0000
0001
,
1000
0001
1000
0000
0000
0100
1000
0100
,
0010
0100
0000
0010
0000
0001
0000
0000
,
1001
0001
1000
0000
1100
0100
1000
0000
,
1100
0100
1000
0100
0000
0010
0000
0001
,
0100
0010
1000
0000
1000
1000
0000
0001
,
0001
0000
0000
0100
0000
0000
0010
0000
1000
0000
0010
0000
0100
0000
0001
0000
0100
0000
0001
0000
0000
0000
0001
0000
,
1000
0000
1000
0010
0000
0010
0100
0000
0100
0001
0000
0001
,
0010
0000
0010
0100
0000
0100
1000
0000
1000
0001
0000
0001
,
0100
0000
0100
0010
0000
0010
1000
0000
1000
0100
0000
0100
,
0010
0000
0010
0001
0000
0001
0100
0000
0010
1000
0000
0010
,
2000
0000
0001
0000
0000
3001
0000
0000
0001
0100
0000
0100
,
0020
0000
1030
0000
0000
1000
0010
0000
1000
0010
0000
0100
,
0001
0000
0100
0002
0000
1000
0000
0000
1003
0020
0000
0000
,
0230
0000
0000
0000
0302
0000
0000
0000
1003
0000
0000
0000
1001
0000
1000
0100
,
0010
0001
0010
0100
1000
0000
0100
0000
1000
0000
0100
0000
1000
0000
0001
0000
,
1000
0010
0000
0100
1000
0100
0010
0001
,
0100
0010
1000
0100
0010
0001
0100
0010
,
1000
0100
0000
0100
0010
0001
0100
0010
,
1000
0100
0010
0100
1000
0001
1000
0100
,
2000
0002
0000
0000
3003
0000
1000
0001
,
2000
0001
0000
3010
0000
0000
0010
0001
,
0020
0002
0000
0033
,
0001
1001
1000
1000
,
0001
0100
0001
0000
1000
0000
0001
0000
,
1000
0010
0001
0010
1000
0200
0000
0000
,
0310
0001
0010
0001
0020
0000
0000
0000
,
0031
0000
0001
0010
0001
0010
0100
1000
,
0100
1000
0001
0010
0100
1000
0001
0100
,
0001
0000
1000
0000
0001
0010
0001
0000
1000
0100
1000
0000
0100
0010
0100
0000
,
0010
0001
0010
0000
0001
0000
0000
0000
1000
0000
0100
0000
0001
0000
0100
0000
,
0010
0200
0000
0300
0000
0000
0000
0000
;

//--------------- dance-double - ----------------
#NOTES:
     dance-double:
     :
     Easy:
     4:
     0.206,0.247,0.066,0.041,0:
00000000
00000000
00000000
00000000
,
00000000
00000000
00000000
00000000
,
00000000
10010000
00000000
10000000
,
00010000
00000000
00000000
01000000
,
00010000
00000000
01000000
00010000
,
00000000
10000000
01000000
00100000
,
00010000
10000000
00000000
00001000
,
00000000
00100000
00000000
00000000
,
00000000
00000000
00001000
00010000
,
00000000
00000000
00000010
00001000
,
00000000
00000001
00000000
00001000
,
00000000
00000010
00000000
00000100
,
00000000
00000001
00000000
00000010
,
00000000
00001000
00000000
00000010
,
00000000
00000001
00000000
00000010
,
00000000
00000100
00000000
00010000
,
00000000
00000100
00000000
00001000
,
01000000
00020000
00000000
00030000
,
00000000
10010000
00000000
10000000
,
00000000
00010000
00000000
01000000
,
00000000
00001000
00000000
00010000
,
00000000
00000100
00000000
00001000
,
00000000
00000010
00000000
00000100
,
00000000
00000001
00000000
00000010
,
00000000
00000100
00000000
00000010
,
00010000
00002000
00000000
00003000
,
00000000
00011000
00000000
00000000
,
10000000
00010000
01000000
00000000
,
00100000
20000000
00000000
00000000
,
30000000
00010000
00000000
00000000
,
10000000
00010000
01000000
00000000
,
01000000
00001000
01000000
00000000
,
00010000
00000000
00010000
00000000
00000000
00100000
00000000
00000000
,
00001000
00001000
00001000
00000000
,
00000000
10010000
00000000
10000000
,
00000000
00100000
00000000
01000000
,
00000000
00001000
00000000
00010000
,
00000000
00000010
00000000
00000100
,
00000000
00000001
00000000
00001000
,
00000000
00000010
00000000
00010000
,
00000000
00001000
00000000
00100000
,
00000000
01000000
00000000
00010000
,
00000000
10000000
00000000
10010000
,
00000000
10000000
00010000
00000000
,
10000000
00010000
00000000
01000000
,
00000000
00000000
00000000
00001000
00000000
00001000
00000000
00000000
,
00010000
00000000
00001000
00000000
,
00010000
00000000
00000100
00000000
,
00010000
00000000
00001000
00000000
,
00010000
00010000
00000000
00001000
,
00001000
00100000
00100000
00001000
,
00000000
00000000
00000000
01000000
,
01000000
00010000
00010000
01000000
,
00000000
00000000
00000000
00100000
,
00000000
10000000
00000000
00010000
,
00000000
01000000
00000000
00001000
,
00001000
00010000
00010000
00001000
,
00010000
00001000
00000000
00011000
,
00000000
00011000
00000000
00010000
,
00000000
00000010
00000000
00001000
,
00000000
00000100
00000000
00000001
,
00000000
00000010
00000000
00000100
,
00000000
00001000
00000000
00000100
,
00000000
00000001
00000000
00000100
,
00000000
00001000
00000000
00010000
,
01000000
10000000
00000000
00000000
,
10000000
00010000
00000000
00000000
,
10000000
01000000
00000000
00000000
,
00100000
00010000
00000000
00000000
,
10000000
00010000
10000000
00000000
,
10000000
00010000
10000000
00000000
,
01000000
00001000
01000000
00000000
,
00010000
00000000
00001000
00000000
00000000
00010000
00000000
00000000
,
00001000
00010000
00000000
00000000
,
00000000
00000000
00022000
00000000
00000000
00033000
00000000
00000000
;

//--------------- dance-double - ----------------
#NOTES:
     dance-double:
     :
     Medium:
     6:
     0.298,0.338,0.157,0.099,0:
00000000
00000000
00000000
00000000
,
00000000
00000000
00000000
00000000
,
00000000
00011000
00010000
00001000
,
00100000
00000000
00010000
01000000
,
10000000
00000000
10000000
01000000
,
00000000
00000000
00010000
00000000
00000000
00010000
00000000
10000000
,
00000000
00010000
00000000
00000000
10010000
00000000
00000000
00000000
,
01010000
00000000
00011000
00000000
,
00010100
00000000
00001001
00000000
,
00000001
00001000
00000000
00000000
00000001
00000000
00001000
00000000
,
00000000
00000001
00000000
00000001
00000000
00000000
00000001
00000000
,
00000000
00000010
00000000
00000000
00000000
00000000
00000100
00000000
,
00000000
00001000
00000000
00001000
00000000
00000000
00000001
00000000
,
00000000
00001000
00000000
00000000
00000010
00000000
00010000
00000000
,
00000000
00001000
00000000
00001000
00000000
00000000
00010000
00000000
,
00000000
00001000
00000000
00000000
00000000
00000000
00100000
00000000
,
00000000
00010000
00000000
10000000
00000000
00000000
00100000
10000000
,
00100000
20000000
00000000
30000000
,
00000000
10010000
00000000
01000000
,
00010000
00100000
00100000
00010000
,
01000000
00010000
00010000
00100000
,
00010000
01000000
01000000
00001000
,
00010000
00010000
00000010
00000010
,
00001000
00000001
00000010
00000100
,
00001000
00000000
00000010
00000000
00001000
00000000
00000001
00001000
,
00000001
00002002
00000000
00003003
,
00000001
00001001
00000001
00000100
,
00000010
00010000
00000100
00000000
00010000
00000000
00000000
00000000
,
00001000
02000000
00000000
00000000
,
03100000
10000000
00010000
00000000
,
10000000
00100000
01000000
00001000
,
00010000
00000010
00000100
00000001
,
00001000
00000200
00000000
00020300
,
00000000
00031000
00100000
00010000
,
00000000
00001000
00000000
00001000
00000000
00000000
00100000
00000000
,
00000000
00010000
00000000
10000000
00000000
00000000
01000000
00000000
,
00000000
00100000
00000000
00010000
00000000
00000000
10000000
00000000
,
00000000
00100000
00000000
00000000
10000000
00000000
00010000
00000000
,
00000000
01000000
00000000
00100000
00000000
00000000
00010000
00000000
,
00000000
10000000
00000000
00000000
00000000
00000000
01000000
00000000
,
00000000
00100000
00000000
00100000
00000000
00000000
00001000
00000000
,
00000000
00010000
00000000
00000000
00010000
00000000
00000010
00000000
,
00001000
00000010
00000001
00000000
00000000
00000000
10000000
00000000
,
00010000
00000000
10000000
00010000
10000000
00000000
00000000
00000000
,
00010000
10000000
00000000
00100000
,
00000000
01000000
00000000
00001000
00000000
01000000
00000000
00000000
,
00011000
00000000
00011000
00000000
,
00010010
00000000
00010010
00000000
,
00001001
00000000
00000001
00000000
,
00001000
00001000
00000000
00000001
,
00000000
00000010
00000000
00000100
,
00000100
00001000
00000000
00000010
,
00000000
00010000
00000000
00000100
,
00000000
00010000
00000000
00001000
,
01000000
00100000
10000000
00010000
,
01000000
00100000
10000000
01000000
,
00001000
00100000
00001000
00010000
,
00010000
00000000
00000000
00000000
00000000
00000000
00000000
00000000
00000000
00000000
00000000
00000000
00000000
00000000
00000000
00000000
00000000
00000000
00000000
00000000
00000000
00000000
00000000
00000000
00000000
00000000
00000000
00000000
00000000
00000000
00000000
00000000
00000000
00000000
00000000
00000000
00000000
00000000
00000000
00000000
00000000
00000000
00000000
00000000
00000000
00000000
00000000
00000000
00001000
00000000
00000000
00000000
00000000
00000000
00000000
00000000
00000000
00000000
00000000
00000000
00000000
00000000
00000000
00000000
00000000
00000000
00000000
00000000
00000000
00000000
00000000
00000000
00000000
00000000
00000000
00000000
00000000
00000000
00000000
00000000
00000000
00000000
00000000
00000000
00000000
00000000
00000000
00000000
00000000
00000000
00000000
00000000
00000000
00000000
00000000
00000000
00010000
00000000
00000000
00000000
00000000
00000000
00000000
00000000
00000000
00000000
00000000
00000000
00000000
00000000
00000000
00000000
00000000
00000000
00000000
00000000
00000000
00000000
00000000
00000000
00000000
00000000
00000000
00000000
00000000
00000000
00000000
00000000
00000000
00000000
00000000
00000000
00000000
00000000
00000000
00000000
00000000
00000000
00000000
00000000
00000000
00000000
00000000
00000000
00022000
00033000
00000000
00000000
00000000
00000000
00000000
00000000
00000000
00000000
00000000
00000000
00000000
00000000
00000000
00000000
00000000
00000000
00000000
00000000
00000000
00000000
00000000
00000000
00000000
00000000
00000000
00000000
00000000
00000000
00000000
00000000
00000000
00000000
00000000
00000000
00000000
00000000
00000000
00000000
00000000
00000000
00000000
00000000
00000000
00000000
00000000
00000000
,
00000000
10010000
00000000
10000000
,
00000000
00010000
00000000
00000000
00000000
00000000
01000000
00000000
,
00000000
00001000
00000000
00001000
00000000
00000000
00010000
00000000
,
00000000
00001000
00000000
00000000
00010000
00000000
00010000
00000000
,
00000000
00000010
00000000
00000010
00000000
00000000
00001000
00000000
,
00000000
00000010
00000000
00000000
00000000
00000000
00000100
00000000
,
00000000
00000001
00000000
00000001
00000000
00000000
00001000
00000000
,
00000001
00002002
00000000
00000000
,
00003003
00001001
00000001
00001000
,
00000010
00010000
00001000
00010000
,
00000010
00010000
00001000
00010000
,
00000010
00010000
00000010
00010000
00000010
00000000
00000000
00000000
,
00010000
00000000
00001000
00010000
00001000
00000000
00001000
00000000
,
01000000
00000000
00100000
10000000
00010000
00000000
10000000
00000000
,
00010000
00020000
00000000
00000000
,
00000000
20000000
00000000
00000000
,
30030000
10010000
00000000
00000000
;

//--------------- dance-double - ----------------
#NOTES:
     dance-double:
     :
     Hard:
     10:
     0.479,0.492,0.116,0.281,0.079:
00000000
00000000
00000000
00000000
,
00000000
00000000
00000000
00000000
,
00000000
00000000
10010000
10000000
01000000
00010000
01000000
10000000
,
00010000
00000000
00000000
01000000
00010000
00100000
00001000
00100000
,
00000100
00000000
00000000
00001000
00000010
00000100
00000001
00000000
,
00000000
00000001
00000100
00000010
00002000
00000010
00000000
00000001
,
00000000
00003010
00000000
00000000
00011000
00000000
00001000
00000000
,
00101000
00000000
00100000
00000000
00110000
00010000
01000000
00001000
,
00100000
00002000
00000000
00000000
00103000
00001000
00100000
00000000
,
00101000
00001000
00000000
00000000
10000000
00010000
10000000
00010000
,
01000000
02000000
00000000
03002000
00000000
00000000
00013000
00100000
,
00000100
00002000
00000000
00000000
00000000
00000000
00003001
00000010
,
00000100
00002000
00000000
00003002
00000000
00000003
00000100
00000001
,
00001000
00000100
00000000
00000000
00000010
00000001
00000010
00000100
,
00000020
00000001
00000000
00000130
00000000
00000000
00000010
00010000
,
00000010
00020000
00000000
00030000
00000000
00000000
00000100
00010000
,
00000200
00010000
00000000
00001300
00000000
00000000
00001000
00010000
,
00001000
00022000
00000000
00033000
,
00000000
00000000
00011000
00000000
00101000
00000000
00001000
00100000
,
00010000
01000000
00000000
00000000
00000000
00010000
01000000
00100000
,
10000000
00020000
00000000
02030000
00000000
03000000
00001000
00100000
,
00001000
00100000
00000000
00000000
00010000
00100000
10000000
00100000
,
00010000
10000000
00000000
00010000
00000000
00000000
10000000
00100000
,
01000000
00020000
00000000
00030000
00000000
00000000
00100000
00001000
,
00010000
00000020
00000000
00002030
00000000
00003000
00001000
00000010
,
00000100
00000000
00000220
00000000
00000000
00000000
00000000
00000330
,
00000001
00001001
00000001
00001000
,
00000001
00000100
00000001
00000000
00000001
00000000
00002000
00000010
,
00003020
00000000
00000200
00000030
00000000
00000301
00000000
00000000
,
00000010
00010000
00000010
00010000
00000100
00000000
00001000
00000000
,
01000000
00100000
10000000
00000000
,
00010000
10000000
00100000
00000000
01000000
00000000
00010000
00000000
,
20000000
00000000
00200000
30000000
00000000
02300000
00000000
00000000
,
03010000
00000000
10000000
00010000
01000000
00000000
00000000
00000000
,
00000000
00001000
00000000
00010000
00000000
00001000
01000000
00100000
,
10000000
00010000
00000000
01000000
00000000
00001000
00010000
00000100
,
00010000
00000100
00000000
00001000
00000000
00000001
00001000
00000100
,
00000010
00000001
00000000
00000100
00000010
00001000
00000010
00000100
,
00000001
00001000
00000010
00001000
00000000
00000100
00010000
00010000
,
00001000
00020000
00000000
00000000
00000000
00130000
00001000
00100000
,
00010000
10000000
00000000
00100000
00000000
01000000
00010000
00100000
,
01000000
10000000
00000000
00010000
01000000
00100000
10000000
00100000
,
10000000
00010000
10000000
00000000
00000000
00000000
01000000
00000000
,
00100000
00010000
00100000
00010000
00000010
00000000
00000000
00000001
,
00001000
00000100
00010000
00000000
00000000
00010000
10000000
01000000
,
00100000
01000000
00000000
00100000
00000000
00010000
00000000
00000000
,
10000000
01000000
00010000
00000000
00001000
00000100
00000001
00000000
,
00000001
00000100
00001000
00010000
00000000
01000000
00000000
10000000
,
01000000
00100000
00010000
00000000
10000000
00010000
00000000
01000000
,
00001000
00100000
00002000
00000000
00000000
00000000
00013000
00000000
,
00010000
00000000
00000000
00001000
00000000
00001000
00010000
00000000
00000000
00001000
00000000
00001000
,
00010000
00000000
00010000
00000000
00000000
00000000
00000000
00000000
00000000
00000100
00000000
00000100
,
00001000
00000000
00000000
00001000
00000000
00001000
00000001
00000000
00000000
00000020
00000000
00000001
,
00000000
00000000
00000031
00000000
00000000
00000000
00000000
00000000
00001000
00000001
00000000
00001000
,
00000100
00000000
00010000
00000000
00000000
00010000
00000000
00000000
00010000
01000000
00000000
01000000
,
00010000
00000000
10000000
00000000
00000000
00000000
00000000
00000000
10000000
00100000
00000000
01000000
,
00010000
00000000
01000000
00000000
00000000
00100000
00000000
00000000
10000000
00100000
00000000
00000000
,
01000000
00001000
00100000
00101000
,
00000000
00000000
10000000
00010000
10000000
00010000
00000000
00000000
,
00000000
00000000
00000000
00000000
00000000
00000000
00000001
00000100
,
00000010
00010000
00000000
00010000
00000000
00000000
00001000
01000000
,
00010000
10000000
00000000
00000000
00100000
01000000
00001000
00100000
,
00001000
01000000
00000000
00010000
00000000
00000000
00100000
01000000
,
10000000
01000000
00000000
00000000
00000000
00000000
00100000
00010000
,
01000000
00001000
00000000
00010000
00000000
00000000
00001000
00010000
,
00001000
00022000
00000000
00000000
,
00033000
01001000
00001000
01000000
,
00010000
01000000
00010000
00000000
10000000
00000000
00010000
00000000
,
20000000
00000000
30020000
00000000
00000000
01030000
00000000
00000000
,
01000000
00001000
00100000
00000100
00020000
00000000
00000000
00000000
,
00031000
00000000
00010000
00001000
00010000
00000000
00001000
01000000
,
00001000
00000000
00010000
10000000
00010000
00000000
10000000
01000000
,
00010000
00001000
00000100
00000001
00000100
00001000
00010000
01000000
,
10000000
00000000
10010000
00000000
10000000
01000000
00010000
01000000
,
00100000
02000000
00000000
03000000
00000000
00000000
00000000
00000000
;
